Mick Est Tout Seul / Les Chansons Perdues
Жанр: French Chanson, Pop, Rock
Страна-производитель диска: France
Год издания: 2007
Издатель (лейбл): EMI France
Номер по каталогу: 094638783923
Страна: France
Аудиокодек: FLAC (*.flac)
Тип рипа: image+.cue
Битрейт аудио: lossless
Продолжительность: 51:20
Источник (релизер): собственний диск
Наличие сканов в содержимом раздачи: да (600dpi)
Треклист:
01. (3:51) Modi
02. (3:55) La clé des chants
03. (2:37) J'te jure
04. (3:41) Les hommes se cachent pour pleurer
05. (2:45) Encore
06. (3:16) Si tu tombes
07. (3:36) L'invitation au mal
08. (3:28) Où sont passés les rêves ?
09. (3:53) Des filles et puis des mecs
10. (3:54) Allez !
11. (3:34) Des oiseaux dans mon ventre
12. (4:59) Au bois d'Aline
13. (1:46) Pianotom97
14. (6:05) L'océan

Лог создания рипа

Exact Audio Copy V1.0 beta 3 from 29. August 2011
EAC extraction logfile from 26. March 2013, 19:19
Mick Est Tout Seul / Les Chansons Perdues
Used drive : HL-DT-STDVD-RAM GSA-H55L Adapter: 1 ID: 0
Read mode : SecureUtilize accurate stream : YesDefeat audio cache : YesMake use of C2 pointers : No
Read offset correction : 102Overread into Lead-In and Lead-Out : NoFill up missing offset samples with silence : YesDelete leading and trailing silent blocks : NoNull samples used in CRC calculations : YesUsed interface : Native Win32 interface for Win NT & 2000
Used output format : User Defined EncoderSelected bitrate : 768 kBit/sQuality : HighAdd ID3 tag : NoCommand line compressor : C:\Program Files (x86)\Exact Audio Copy\FLAC\FLAC.EXEAdditional command line options : -6 -V -T "ARTIST=%artist%" -T "TITLE=%title%" -T "ALBUM=%albumtitle%" -T "DATE=%year%" -T "TRACKNUMBER=%tracknr%" -T "GENRE=%genre%" -T "COMMENT=%comment%" -T "BAND=%albuminterpret%" -T "ALBUMARTIST=%albuminterpret%" -T "COMPOSER=%composer%" %haslyrics%--tag-from-file=LYRICS="%lyricsfile%"%haslyrics% -T "DISCNUMBER=%cdnumber%" -T "TOTALDISCS=%totalcds%" -T "TOTALTRACKS=%numtracks%" %hascover%--picture="%coverfile%"%hascover% %source% -o %dest%
TOC of the extracted CD
Track | Start | Length | Start sector | End sector --------------------------------------------------------- 1 | 0:00.00 | 3:50.53 | 0 | 17302 2 | 3:50.53 | 3:54.54 | 17303 | 34906 3 | 7:45.32 | 2:36.66 | 34907 | 46672 4 | 10:22.23 | 3:41.25 | 46673 | 63272 5 | 14:03.48 | 2:45.18 | 63273 | 75665 6 | 16:48.66 | 3:15.53 | 75666 | 90343 7 | 20:04.44 | 3:36.24 | 90344 | 106567 8 | 23:40.68 | 3:28.10 | 106568 | 122177 9 | 27:09.03 | 3:53.23 | 122178 | 139675 10 | 31:02.26 | 3:54.18 | 139676 | 157243 11 | 34:56.44 | 3:33.42 | 157244 | 173260 12 | 38:30.11 | 4:59.26 | 173261 | 195711 13 | 43:29.37 | 1:45.47 | 195712 | 203633 14 | 45:15.09 | 6:04.67 | 203634 | 231000
Range status and errors
Selected range
Filename H:\Mick Est Tout Seul - Les Chansons Perdues.wav
Peak level 100.0 % Extraction speed 2.4 X Range quality 99.9 % Test CRC 3A80CDEF Copy CRC 3A80CDEF Copy OK
No errors occurred
AccurateRip summary
Track 1 accurately ripped (confidence 3) [6BEFF43A] (AR v2)Track 2 accurately ripped (confidence 3) [6FC2A4A8] (AR v2)Track 3 accurately ripped (confidence 3) [324A1E8B] (AR v2)Track 4 accurately ripped (confidence 2) [6E095A24] (AR v2)Track 5 accurately ripped (confidence 2) [FB9598B0] (AR v2)Track 6 accurately ripped (confidence 2) [995F43B7] (AR v2)Track 7 accurately ripped (confidence 2) [75C5A433] (AR v2)Track 8 accurately ripped (confidence 2) [CE8EECF7] (AR v2)Track 9 accurately ripped (confidence 2) [B9C56AE4] (AR v2)Track 10 accurately ripped (confidence 2) [A574C1B5] (AR v2)Track 11 accurately ripped (confidence 2) [FCBBCCD4] (AR v2)Track 12 accurately ripped (confidence 2) [26320A88] (AR v2)Track 13 accurately ripped (confidence 2) [431CD3D8] (AR v2)Track 14 accurately ripped (confidence 2) [1967FDFE] (AR v2)
All tracks accurately ripped
End of status report
---- CUETools DB Plugin V2.1.3
[CTDB TOCID: Ys5WS9oTM5zFylK94d3CvqzDzHY-] found, Submit result: Ys5WS9oTM5zFylK94d3CvqzDzHY- has been confirmed[740c17ac] (4/4) Accurately ripped
==== Log checksum BFC746D72D1D3E3452C6BDDA084B4AAE2173F096FC89B7CA5233AAC7D166E412 ====

Содержание индексной карты (.CUE)

REM GENRE French ChansonREM DATE 2007REM DISCID 9F0C080EREM COMMENT "ExactAudioCopy v1.0b3"CATALOG 0094638783923PERFORMER "Mick Est Tout Seul"TITLE "Les Chansons Perdues"FILE "Mick Est Tout Seul - Les Chansons Perdues.flac" WAVE TRACK 01 AUDIO TITLE "Modi" PERFORMER "Mick Est Tout Seul" ISRC FR6V40600001 FLAGS DCP INDEX 01 00:00:00 TRACK 02 AUDIO TITLE "La clé des chants" PERFORMER "Mick Est Tout Seul" ISRC FR6V40600017 FLAGS DCP INDEX 01 03:50:53 TRACK 03 AUDIO TITLE "J'te jure" PERFORMER "Mick Est Tout Seul" ISRC FR6V40600003 FLAGS DCP INDEX 01 07:45:32 TRACK 04 AUDIO TITLE "Les hommes se cachent pour pleurer" PERFORMER "Mick Est Tout Seul" ISRC FR6V40600004 FLAGS DCP INDEX 01 10:22:23 TRACK 05 AUDIO TITLE "Encore" PERFORMER "Mick Est Tout Seul" ISRC FR6V40600005 FLAGS DCP INDEX 01 14:03:48 TRACK 06 AUDIO TITLE "Si tu tombes" PERFORMER "Mick Est Tout Seul" ISRC FR6V40600006 FLAGS DCP INDEX 01 16:48:66 TRACK 07 AUDIO TITLE "L'invitation au mal" PERFORMER "Mick Est Tout Seul" ISRC FR6V40600007 FLAGS DCP INDEX 01 20:04:44 TRACK 08 AUDIO TITLE "Où sont passés les rêves ?" PERFORMER "Mick Est Tout Seul" ISRC FR6V40600008 FLAGS DCP INDEX 01 23:40:68 TRACK 09 AUDIO TITLE "Des filles et puis des mecs" PERFORMER "Mick Est Tout Seul" ISRC FR6V40600009 FLAGS DCP INDEX 01 27:09:03 TRACK 10 AUDIO TITLE "Allez !" PERFORMER "Mick Est Tout Seul" ISRC FR6V40600010 FLAGS DCP INDEX 01 31:02:26 TRACK 11 AUDIO TITLE "Des oiseaux dans mon ventre" PERFORMER "Mick Est Tout Seul" ISRC FR6V40600011 FLAGS DCP INDEX 01 34:56:44 TRACK 12 AUDIO TITLE "Au bois d'Aline" PERFORMER "Mick Est Tout Seul" ISRC FR6V40600012 FLAGS DCP INDEX 01 38:30:11 TRACK 13 AUDIO TITLE "Pianotom97" PERFORMER "Mick Est Tout Seul" ISRC FR6V40600013 FLAGS DCP INDEX 01 43:29:37 TRACK 14 AUDIO TITLE "L'océan" PERFORMER "Mick Est Tout Seul" ISRC FR6V40600014 FLAGS DCP INDEX 01 45:15:09
Доп. информация: Mickey - солист и автор группы Mickey 3D, выпустившей 5 студийных альбомов и являющейся на мой взгляд самым популярным альтернативным коллективом во Франции. В их музыке пересекаются и рок, и альтернатива, и шансон, и инди.
"Les chansons perdues" - первый сольный альбом Mickey.
Тексты всех песен прописаны в тегах.
Вы можете использовать эти материалы только в том в случае, если использование производится с ознакомительными целями. Эти материалы предназначены только для ознакомления - для прочих целей Вы должны купить лицензионную запись.
Eсли Вы оставляете у себя в каком-либо виде эти аудиовизуальные материалы, но не приобретаете соответствующую лицензионную запись - Вы нарушаете законы об Интеллектуальной собственности и Авторском праве, что может повлечь за собой преследование по соответствующим статьям существующего законодательства.

To download the file disable ad blocking, and reload the page.

disable adblock How to disable ad blocking?

Download by magnet link 337 MB Download Torrent

Login using:

Загрузка...

Similar topics



   
Current time is: 19-Dec 18:18 :: All times are UTC + 3