Milva / Canzoni di Edith Piaf (1970)
Жанр: Pop, Chanson, Retro, Italian
Страна-производитель диска: Италия
Год издания: 1999
Издатель (лейбл): BMG
Номер по каталогу: 74321664002
Страна: Италия
Аудиокодек: APE (*.ape)
Тип рипа: tracks+.cue
Битрейт аудио: lossless
Продолжительность: 31:49
Источник (релизер): неизвестен
Наличие сканов в содержимом раздачи: да
Треклист:
1 - Milord 4:09
2 - La Vita E' Rosa [La Vie En Rose] 3:21
3 - La Folla [La Foule] 2:52
4 - Sono Io La Tua Donna [Les Trois Cloches] 3:00
5 - Mon Dieu 2:45
6 - Nulla Rimpiangerò [Non Je Ne Regrette Rien] 2:16
7 - E' L'Amore Che Fa Amare [C'Est L'Amour Qui Fait Q'On S'Aime] 3:06
8 - Caro John [Johnny Tu N'est Pas Un Ange] 2:28
9 - Alberge A Ore [Les Amants D'un Jour] 2:23
10 - Inno All' Amore [Hymne À L'Amour] 3:35

Содержание индексной карты (.CUE)

PERFORMER "Milva"TITLE "Canzoni di Edith Piaf"FILE "Milva [Canzoni di Edith Piaf] (1970).ape" WAVE TRACK 01 AUDIO TITLE "Milord" INDEX 01 00:00:00 TRACK 02 AUDIO TITLE "La vita e rosa (La vie en rose)" INDEX 01 04:13:00 TRACK 03 AUDIO TITLE "La folla (la foule)" INDEX 01 07:38:37 TRACK 04 AUDIO TITLE "Sono io la tua donna (Les trois cloches)" INDEX 01 10:36:10 TRACK 05 AUDIO TITLE "Mon Dieu" INDEX 01 13:42:50 TRACK 06 AUDIO TITLE "Nulla rimpiangero' (Non, je ne regrette rien)" INDEX 01 16:41:22 TRACK 07 AUDIO TITLE "E' l'amore che fa amare (C'est l'amour qui fait q'on s'aime)" INDEX 01 19:00:05 TRACK 08 AUDIO TITLE "Caro John (Johnny tu n'est pas un ange)" INDEX 01 22:09:57 TRACK 09 AUDIO TITLE "Albergo a ore (Les amants d'un jour)" INDEX 01 24:42:45 TRACK 10 AUDIO TITLE "Inno all'Amore (Hymne a l'amour)" INDEX 01 28:11:55

Скриншот спектра частот

Лог проверки качества

AUDIOCHECKER v2.0 beta (build 457) - by Dester - opdester@freemail.hu~~~~~~~~~~~~~~~~~~~~~~~~~~~~~~~~~~-=== DO NOT EDIT THIS FILE! ===-
Path: ...\Milva [Canzoni di Edith Piaf] (1970) APE
1 -=- Milva [Canzoni di Edith Piaf] (1970).ape -=- CDDA (100%)
123506436

Для скачивания файла отключите блокировку рекламы и перезагрузите страницу.

disable adblock Как отключить блокировку рекламы?

Скачать по магнет ссылке 180 MB 

Войти с помощью:

Загрузка...
Загрузка...


   
Текущее время: 21-Июн 18:05 :: Часовой пояс: UTC ± 0