Yves Montand ‎ - Master Série- Жанр: Chanson
Страна-производитель диска: France
Год издания: 1991
Издатель (лейбл): PolyGram
Номер по каталогу: 824 784-2
Страна: France
Аудиокодек: FLAC (*.flac)
Тип рипа: tracks+.cue
Битрейт аудио: lossless
Продолжительность: 01:00:52
Источник (релизер): what.cd
Наличие сканов в содержимом раздачи: да
Треклист:
01. À bicyclette [00:02:43]
02. Le Jazz et la java [00:02:33]
03. Le Chat de la voisine [00:02:45]
04. La Chansonnette [00:02:45]
05. Est-ce ainsi que les hommes vivent ? [00:03:55]
06. Je t'aime [00:03:15]
07. La plus belle des mers [00:02:26]
08. L'Amoureuse [00:02:19]
09. Coucher avec elle [00:02:30]
10. Le Port [00:02:11]
11. Je me souviens [00:02:02]
12. En sortant de l'école [00:02:42]
13. On frappe [00:00:59]
14. Paris at Night [00:01:28]
15. Quelqu'un [00:02:21]
16. Page d'écriture [00:02:42]
17. Le Jardin [00:01:09]
18. Le Miroir brisé [00:01:31]
19. Dans ma maison [00:04:34]
20. Trois petites notes de musique [00:02:59]
21. Il n'y a plus d'après [00:03:37]
22. Quand tu dors près de moi [00:02:45]
23. La Chanson de Bilbao [00:04:34]

Лог создания рипа

Exact Audio Copy V1.0 beta 3 from 29. August 2011
EAC extraction logfile from 30. January 2012, 23:49
Yves Montand / Master série
Used drive : Optiarc DVD RW AD-7561A Adapter: 0 ID: 0
Read mode : SecureUtilize accurate stream : YesDefeat audio cache : YesMake use of C2 pointers : No
Read offset correction : 6Overread into Lead-In and Lead-Out : NoFill up missing offset samples with silence : YesDelete leading and trailing silent blocks : NoNull samples used in CRC calculations : YesUsed interface : Native Win32 interface for Win NT & 2000Gap handling : Appended to previous track
Used output format : User Defined EncoderSelected bitrate : 896 kBit/sQuality : HighAdd ID3 tag : NoCommand line compressor : C:\Program Files (x86)\Exact Audio Copy\Flac\flac.exeAdditional command line options : -8 -V -T "ARTIST=%artist%" -T "TITLE=%title%" -T "ALBUM=%albumtitle%" -T "ORIGINAL RELEASE DATE=%year%" -T "DATE=%year%" -T "TRACKNUMBER=%tracknr1%" -T "PERFORMER=%albuminterpret%" -T "COMPOSER=%composer%" -T "ALBUM ARTIST=%albumartist%" -T "TOTALTRACKS=%numtracks%" -T "COMMENT=%comment%" %source% -o %dest%
TOC of the extracted CD
Track | Start | Length | Start sector | End sector --------------------------------------------------------- 1 | 0:00.32 | 2:43.28 | 32 | 12284 2 | 2:43.60 | 2:33.52 | 12285 | 23811 3 | 5:17.37 | 2:45.08 | 23812 | 36194 4 | 8:02.45 | 2:45.12 | 36195 | 48581 5 | 10:47.57 | 3:55.20 | 48582 | 66226 6 | 14:43.02 | 3:15.05 | 66227 | 80856 7 | 17:58.07 | 2:26.38 | 80857 | 91844 8 | 20:24.45 | 2:19.00 | 91845 | 102269 9 | 22:43.45 | 2:30.30 | 102270 | 113549 10 | 25:14.00 | 2:11.45 | 113550 | 123419 11 | 27:25.45 | 2:02.25 | 123420 | 132594 12 | 29:27.70 | 2:42.00 | 132595 | 144744 13 | 32:09.70 | 0:59.37 | 144745 | 149206 14 | 33:09.32 | 1:28.38 | 149207 | 155844 15 | 34:37.70 | 2:21.25 | 155845 | 166444 16 | 36:59.20 | 2:42.50 | 166445 | 178644 17 | 39:41.70 | 1:09.00 | 178645 | 183819 18 | 40:50.70 | 1:31.12 | 183820 | 190656 19 | 42:22.07 | 4:34.13 | 190657 | 211219 20 | 46:56.20 | 2:59.50 | 211220 | 224694 21 | 49:55.70 | 3:37.07 | 224695 | 240976 22 | 53:33.02 | 2:45.30 | 240977 | 253381 23 | 56:18.32 | 4:34.13 | 253382 | 273944
Track 1
Filename D:\Seeding\Yves Montand - 1991 - Master série {–––} [FLAC]\01. La Bicyclette.wav
Pre-gap length 0:00:02.42
Peak level 67.7 % Extraction speed 1.0 X Track quality 100.0 % Test CRC 3C53E296 Copy CRC 3C53E296 Accurately ripped (confidence 2) [7DA312C5] (AR v2) Copy OK
Track 2
Filename D:\Seeding\Yves Montand - 1991 - Master série {–––} [FLAC]\02. Le Jazz et la java.wav
Pre-gap length 0:00:00.20
Peak level 70.9 % Extraction speed 0.9 X Track quality 99.9 % Test CRC C63708EF Copy CRC C63708EF Accurately ripped (confidence 6) [2D998101] (AR v1) Copy OK
Track 3
Filename D:\Seeding\Yves Montand - 1991 - Master série {–––} [FLAC]\03. Le Chat de la voisine.wav
Pre-gap length 0:00:00.16
Peak level 65.1 % Extraction speed 1.2 X Track quality 100.0 % Test CRC ACC6F985 Copy CRC ACC6F985 Accurately ripped (confidence 2) [A722F8A3] (AR v2) Copy OK
Track 4
Filename D:\Seeding\Yves Montand - 1991 - Master série {–––} [FLAC]\04. La Chansonnette.wav
Peak level 50.2 % Extraction speed 1.3 X Track quality 100.0 % Test CRC D2A674A5 Copy CRC D2A674A5 Accurately ripped (confidence 2) [3A95C59F] (AR v2) Copy OK
Track 5
Filename D:\Seeding\Yves Montand - 1991 - Master série {–––} [FLAC]\05. Est-ce ainsi que les hommes vivent.wav
Pre-gap length 0:00:00.66
Peak level 40.7 % Extraction speed 1.4 X Track quality 100.0 % Test CRC F363EF99 Copy CRC F363EF99 Accurately ripped (confidence 2) [9E70A59C] (AR v2) Copy OK
Track 6
Filename D:\Seeding\Yves Montand - 1991 - Master série {–––} [FLAC]\06. Je t'aime.wav
Pre-gap length 0:00:00.42
Peak level 54.3 % Extraction speed 1.5 X Track quality 100.0 % Test CRC 37FED706 Copy CRC 37FED706 Accurately ripped (confidence 2) [B6CA0940] (AR v2) Copy OK
Track 7
Filename D:\Seeding\Yves Montand - 1991 - Master série {–––} [FLAC]\07. La plus belle des mers.wav
Pre-gap length 0:00:00.49
Peak level 44.3 % Extraction speed 1.4 X Track quality 100.0 % Test CRC 28B2A860 Copy CRC 28B2A860 Accurately ripped (confidence 2) [73831BEC] (AR v2) Copy OK
Track 8
Filename D:\Seeding\Yves Montand - 1991 - Master série {–––} [FLAC]\08. L'Amoureuse.wav
Pre-gap length 0:00:00.26
Peak level 57.8 % Extraction speed 1.5 X Track quality 100.0 % Test CRC 2BB5C3ED Copy CRC 2BB5C3ED Accurately ripped (confidence 2) [9B435BFA] (AR v2) Copy OK
Track 9
Filename D:\Seeding\Yves Montand - 1991 - Master série {–––} [FLAC]\09. Coucher avec elle.wav
Pre-gap length 0:00:01.00
Peak level 86.2 % Extraction speed 1.3 X Track quality 99.9 % Test CRC BF5A943E Copy CRC BF5A943E Accurately ripped (confidence 2) [877780A1] (AR v2) Copy OK
Track 10
Filename D:\Seeding\Yves Montand - 1991 - Master série {–––} [FLAC]\10. Le Port.wav
Pre-gap length 0:00:01.00
Peak level 56.2 % Extraction speed 1.6 X Track quality 100.0 % Test CRC 89E0F35D Copy CRC 89E0F35D Accurately ripped (confidence 2) [C3C4962D] (AR v2) Copy OK
Track 11
Filename D:\Seeding\Yves Montand - 1991 - Master série {–––} [FLAC]\11. Je me souviens.wav
Pre-gap length 0:00:00.50
Peak level 47.4 % Extraction speed 1.6 X Track quality 100.0 % Test CRC 41F2DAF1 Copy CRC 41F2DAF1 Accurately ripped (confidence 2) [FB54F61A] (AR v2) Copy OK
Track 12
Filename D:\Seeding\Yves Montand - 1991 - Master série {–––} [FLAC]\12. En sortant de l'école.wav
Pre-gap length 0:00:00.66
Peak level 50.1 % Extraction speed 1.4 X Track quality 99.9 % Test CRC D9E3FC2D Copy CRC D9E3FC2D Accurately ripped (confidence 2) [047DE4E2] (AR v2) Copy OK
Track 13
Filename D:\Seeding\Yves Montand - 1991 - Master série {–––} [FLAC]\13. On frappe.wav
Pre-gap length 0:00:01.00
Peak level 31.9 % Extraction speed 1.3 X Track quality 100.0 % Test CRC 599BBDC8 Copy CRC 599BBDC8 Accurately ripped (confidence 2) [C82E22C5] (AR v2) Copy OK
Track 14
Filename D:\Seeding\Yves Montand - 1991 - Master série {–––} [FLAC]\14. Paris at Night.wav
Peak level 52.5 % Extraction speed 1.5 X Track quality 100.0 % Test CRC 3C52669D Copy CRC 3C52669D Accurately ripped (confidence 2) [3C0D49AC] (AR v2) Copy OK
Track 15
Filename D:\Seeding\Yves Montand - 1991 - Master série {–––} [FLAC]\15. Quelqu'un.wav
Pre-gap length 0:00:00.50
Peak level 80.3 % Extraction speed 1.7 X Track quality 100.0 % Test CRC F01E92A8 Copy CRC F01E92A8 Accurately ripped (confidence 2) [796AB4CF] (AR v2) Copy OK
Track 16
Filename D:\Seeding\Yves Montand - 1991 - Master série {–––} [FLAC]\16. Page d'écriture.wav
Pre-gap length 0:00:01.00
Peak level 70.8 % Extraction speed 1.5 X Track quality 99.9 % Test CRC 248B6096 Copy CRC 248B6096 Accurately ripped (confidence 2) [C5548C58] (AR v2) Copy OK
Track 17
Filename D:\Seeding\Yves Montand - 1991 - Master série {–––} [FLAC]\17. Le Jardin.wav
Peak level 35.7 % Extraction speed 1.4 X Track quality 100.0 % Test CRC A3B67CA1 Copy CRC A3B67CA1 Accurately ripped (confidence 2) [831B7585] (AR v2) Copy OK
Track 18
Filename D:\Seeding\Yves Montand - 1991 - Master série {–––} [FLAC]\18. Le Miroir brisé.wav
Pre-gap length 0:00:00.66
Peak level 51.3 % Extraction speed 1.6 X Track quality 100.0 % Test CRC DEE2A13A Copy CRC DEE2A13A Accurately ripped (confidence 2) [4B8040ED] (AR v2) Copy OK
Track 19
Filename D:\Seeding\Yves Montand - 1991 - Master série {–––} [FLAC]\19. Dans ma maison.wav
Pre-gap length 0:00:01.00
Peak level 78.0 % Extraction speed 2.1 X Track quality 100.0 % Test CRC CE4E38FD Copy CRC CE4E38FD Accurately ripped (confidence 2) [1DE98557] (AR v2) Copy OK
Track 20
Filename D:\Seeding\Yves Montand - 1991 - Master série {–––} [FLAC]\20. Trois petites notes de musique.wav
Peak level 48.5 % Extraction speed 2.0 X Track quality 100.0 % Test CRC A1E36CBA Copy CRC A1E36CBA Accurately ripped (confidence 2) [56485B63] (AR v2) Copy OK
Track 21
Filename D:\Seeding\Yves Montand - 1991 - Master série {–––} [FLAC]\21. Il n'y a plus d'après.wav
Pre-gap length 0:00:00.33
Peak level 60.3 % Extraction speed 1.9 X Track quality 99.9 % Test CRC E1B332F5 Copy CRC E1B332F5 Accurately ripped (confidence 2) [9DAD09C3] (AR v2) Copy OK
Track 22
Filename D:\Seeding\Yves Montand - 1991 - Master série {–––} [FLAC]\22. Quand tu dors près de moi.wav
Pre-gap length 0:00:00.42
Peak level 79.8 % Extraction speed 2.1 X Track quality 100.0 % Test CRC 2F27E72C Copy CRC 2F27E72C Accurately ripped (confidence 2) [004A152B] (AR v2) Copy OK
Track 23
Filename D:\Seeding\Yves Montand - 1991 - Master série {–––} [FLAC]\23. La Chanson de Bilbao.wav
Pre-gap length 0:00:00.49
Peak level 59.4 % Extraction speed 2.3 X Track quality 100.0 % Test CRC D90EA68A Copy CRC D90EA68A Accurately ripped (confidence 2) [AE5B6893] (AR v2) Copy OK
All tracks accurately ripped
No errors occurred
End of status report
==== Log checksum 0FFE3E0F46E7B6E4F40D2DAAA3710CB88DE285C2CE1F06FA749405012C239761 ====

Содержание индексной карты (.CUE)

REM GENRE ChansonREM DATE 1991REM DISCID 5B0E4417REM COMMENT "ExactAudioCopy v1.0b3"PERFORMER "Yves Montand"TITLE "Master sйrie"FILE "01. La Bicyclette.wav" WAVE TRACK 01 AUDIO TITLE "La Bicyclette" PERFORMER "Yves Montand" FLAGS PRE PREGAP 00:00:32 INDEX 01 00:00:00 TRACK 02 AUDIO TITLE "Le Jazz et la java" PERFORMER "Yves Montand" FLAGS PRE INDEX 00 02:43:13FILE "02. Le Jazz et la java.wav" WAVE INDEX 01 00:00:00 TRACK 03 AUDIO TITLE "Le Chat de la voisine" PERFORMER "Yves Montand" FLAGS PRE INDEX 00 02:33:40FILE "03. Le Chat de la voisine.wav" WAVE INDEX 01 00:00:00FILE "04. La Chansonnette.wav" WAVE TRACK 04 AUDIO TITLE "La Chansonnette" PERFORMER "Yves Montand" FLAGS PRE INDEX 01 00:00:00 TRACK 05 AUDIO TITLE "Est-ce ainsi que les hommes vivent ?" PERFORMER "Yves Montand" FLAGS PRE INDEX 00 02:44:37FILE "05. Est-ce ainsi que les hommes vivent.wav" WAVE INDEX 01 00:00:00 TRACK 06 AUDIO TITLE "Je t'aime" PERFORMER "Yves Montand" FLAGS PRE INDEX 00 03:54:63FILE "06. Je t'aime.wav" WAVE INDEX 01 00:00:00 TRACK 07 AUDIO TITLE "La plus belle des mers" PERFORMER "Yves Montand" FLAGS PRE INDEX 00 03:14:43FILE "07. La plus belle des mers.wav" WAVE INDEX 01 00:00:00 TRACK 08 AUDIO TITLE "L'Amoureuse" PERFORMER "Yves Montand" FLAGS PRE INDEX 00 02:26:18FILE "08. L'Amoureuse.wav" WAVE INDEX 01 00:00:00 TRACK 09 AUDIO TITLE "Coucher avec elle" PERFORMER "Yves Montand" FLAGS PRE INDEX 00 02:18:00FILE "09. Coucher avec elle.wav" WAVE INDEX 01 00:00:00 TRACK 10 AUDIO TITLE "Le Port" PERFORMER "Yves Montand" FLAGS PRE INDEX 00 02:29:30FILE "10. Le Port.wav" WAVE INDEX 01 00:00:00 TRACK 11 AUDIO TITLE "Je me souviens" PERFORMER "Yves Montand" FLAGS PRE INDEX 00 02:11:07FILE "11. Je me souviens.wav" WAVE INDEX 01 00:00:00 TRACK 12 AUDIO TITLE "En sortant de l'йcole" PERFORMER "Yves Montand" FLAGS PRE INDEX 00 02:01:50FILE "12. En sortant de l'йcole.wav" WAVE INDEX 01 00:00:00 TRACK 13 AUDIO TITLE "On frappe" PERFORMER "Yves Montand" FLAGS PRE INDEX 00 02:41:00FILE "13. On frappe.wav" WAVE INDEX 01 00:00:00FILE "14. Paris at Night.wav" WAVE TRACK 14 AUDIO TITLE "Paris at Night" PERFORMER "Yves Montand" FLAGS PRE INDEX 01 00:00:00 TRACK 15 AUDIO TITLE "Quelqu'un" PERFORMER "Yves Montand" FLAGS PRE INDEX 00 01:28:00FILE "15. Quelqu'un.wav" WAVE INDEX 01 00:00:00 TRACK 16 AUDIO TITLE "Page d'йcriture" PERFORMER "Yves Montand" FLAGS PRE INDEX 00 02:20:25FILE "16. Page d'йcriture.wav" WAVE INDEX 01 00:00:00FILE "17. Le Jardin.wav" WAVE TRACK 17 AUDIO TITLE "Le Jardin" PERFORMER "Yves Montand" FLAGS PRE INDEX 01 00:00:00 TRACK 18 AUDIO TITLE "Le Miroir brisй" PERFORMER "Yves Montand" FLAGS PRE INDEX 00 01:08:25FILE "18. Le Miroir brisй.wav" WAVE INDEX 01 00:00:00 TRACK 19 AUDIO TITLE "Dans ma maison" PERFORMER "Yves Montand" FLAGS PRE INDEX 00 01:30:12FILE "19. Dans ma maison.wav" WAVE INDEX 01 00:00:00FILE "20. Trois petites notes de musique.wav" WAVE TRACK 20 AUDIO TITLE "Trois petites notes de musique" PERFORMER "Yves Montand" FLAGS PRE INDEX 01 00:00:00 TRACK 21 AUDIO TITLE "Il n'y a plus d'aprиs" PERFORMER "Yves Montand" FLAGS PRE INDEX 00 02:59:25FILE "21. Il n'y a plus d'aprиs.wav" WAVE INDEX 01 00:00:00 TRACK 22 AUDIO TITLE "Quand tu dors prиs de moi" PERFORMER "Yves Montand" FLAGS PRE INDEX 00 03:36:50FILE "22. Quand tu dors prиs de moi.wav" WAVE INDEX 01 00:00:00 TRACK 23 AUDIO TITLE "La Chanson de Bilbao" PERFORMER "Yves Montand" FLAGS PRE INDEX 00 02:44:68FILE "23. La Chanson de Bilbao.wav" WAVE INDEX 01 00:00:00

Для скачивания файла отключите блокировку рекламы и перезагрузите страницу.

disable adblock Как отключить блокировку рекламы?

Скачать по магнет ссылке 320 MB 

Войти с помощью:

Загрузка...
Загрузка...

Похожие раздачи

(Chanson) Yves Montand - Dis-Moi Jo - 1974, FLAC (image+.cue), lossless
 363 MB   0 | 0   30-Апр-17 21:48   0
(Chanson) Yves Montand - Yves Montand - 1968, FLAC (image+.cue), lossless
 343 MB   0 | 3   30-Апр-17 21:48   0


   
Текущее время: 14-Авг 15:24 :: Часовой пояс: UTC ± 0