Mireille Mathieu / Meine Welt ist die Musik
Жанр: POP
Страна-производитель диска: Германия
Год издания: 1998
Издатель (лейбл): BMG Ariola
Номер по каталогу: 74321 50333 2
Аудиокодек: FLAC (*.flac)
Тип рипа: tracks+.cue
Битрейт аудио: lossless
Продолжительность: 00:52:00
Источник (релизер): CD (я)
Наличие сканов в содержимом раздачи: да
Треклист:
01 - Meine Welt ist die Musik
Georg Buschor - Christian Bruhn
02 - Hinter den Kulissen von Paris
Georg Buschor - Christian Bruhn
03 - An einem Sonntag in Avignon
Georg Buschor - Christian Bruhn
04 - Es geht mir gut, Chéri
Georg Buschor - Christian Bruhn
05 - Akropolis adieu
Georg Buschor - Christian Bruhn
06 - Roma, Roma, Roma (de)
Georg Buschor - Christian Bruhn
07 - Ganz Paris ist ein Theater
Georg Buschor - Christian Bruhn
08 - Tarata-Ting, Tarata-Tong
Georg Buschor - Christian Bruhn
09 - Martin
Georg Buschor - Christian Bruhn
10 - Der Zar und das Mädchen
Georg Buschor - Christian Bruhn
11 - La Paloma ade
Georg Buschor - S. Yradier
12 - Schau mich bitte nicht so an
Ralph Maria Siegel - Louiguy
13 - Die Welt ist schön, Milord
Ernst Bader - Marguerite Monnot
14 - Die Sonne wartet schon
Oliver Statz - Joachim Horn-Bernges
15 - Mon amour
Hans-Joachim Horn-Bernges - Hans-Joachim Horn-Bernges

Лог создания рипа

Exact Audio Copy V1.0 beta 3 from 29. August 2011
Отчёт EAC об извлечении, выполненном 19. февраля 2013, 21:07
Mireille Mathieu / Meine Welt ist die Musik
Дисковод: TSSTcorpCDDVDW SH-222BB Adapter: 0 ID: 2
Режим чтения : ДостоверностьИспользование точного потока : ДаОтключение кэша аудио : ДаИспользование указателей C2 : Нет
Коррекция смещения при чтении : 6Способность читать области Lead-in и Lead-out : НетЗаполнение пропущенных сэмплов тишиной : ДаУдаление блоков с тишиной в начале и конце : НетПри вычислениях CRC использовались нулевые сэмплы : ДаИнтерфейс : Установленный внешний ASPI-интерфейсОбработка зазоров : Добавлено к предыдущему треку
Выходной формат : Пользовательский кодировщикВыбранный битрейт : 768 kBit/sКачество : ВысокийДобавление ID3-тега : НетУтилита сжатия : C:\Program Files (x86)\Exact Audio Copy\FLAC\FLAC.EXEДополнительные параметры : -V -8 -T "Genre=%genre%" -T "Artist=%artist%" -T "Title=%title%" -T "Album=%albumtitle%" -T "Date=%year%" -T "Tracknumber=%tracknr%" -T "Comment=%comment%" %source%
TOC извлечённого CD
Трек | Старт | Длительность | Начальный сектор | Конечный сектор --------------------------------------------------------------------- 1 | 0:00.32 | 3:05.65 | 32 | 13971 2 | 3:06.22 | 2:34.10 | 13972 | 25531 3 | 5:40.32 | 3:21.45 | 25532 | 40651 4 | 9:02.02 | 2:50.55 | 40652 | 53456 5 | 11:52.57 | 3:29.05 | 53457 | 69136 6 | 15:21.62 | 3:19.08 | 69137 | 84069 7 | 18:40.70 | 3:32.05 | 84070 | 99974 8 | 22:13.00 | 3:06.07 | 99975 | 113931 9 | 25:19.07 | 3:00.25 | 113932 | 127456 10 | 28:19.32 | 3:00.50 | 127457 | 141006 11 | 31:20.07 | 3:52.00 | 141007 | 158406 12 | 35:12.07 | 3:46.25 | 158407 | 175381 13 | 38:58.32 | 4:43.10 | 175382 | 196616 14 | 43:41.42 | 4:17.53 | 196617 | 215944 15 | 47:59.20 | 4:01.12 | 215945 | 234031
Трек 1
Имя файла E:\FTP\PUB\Music\Worldmusic\Mireille Mathieu\1998 - Meine Welt ist die Musik (Ariola GER CD)\01 - Meine Welt ist die Musik.wav
Длина предзазора 0:00:02.32
Пиковый уровень 99.0 % Скорость извлечения 1.9 X Качество трека 100.0 % CRC теста 35A08E82 CRC копии 35A08E82 Копирование... OK
Трек 2
Имя файла E:\FTP\PUB\Music\Worldmusic\Mireille Mathieu\1998 - Meine Welt ist die Musik (Ariola GER CD)\02 - Hinter den Kulissen von Paris.wav
Длина предзазора 0:00:01.65
Пиковый уровень 99.0 % Скорость извлечения 1.9 X Качество трека 100.0 % CRC теста 294C10D7 CRC копии 294C10D7 Копирование... OK
Трек 3
Имя файла E:\FTP\PUB\Music\Worldmusic\Mireille Mathieu\1998 - Meine Welt ist die Musik (Ariola GER CD)\03 - An einem Sonntag in Avignon.wav
Длина предзазора 0:00:01.47
Пиковый уровень 99.0 % Скорость извлечения 2.0 X Качество трека 100.0 % CRC теста E85F1081 CRC копии E85F1081 Копирование... OK
Трек 4
Имя файла E:\FTP\PUB\Music\Worldmusic\Mireille Mathieu\1998 - Meine Welt ist die Musik (Ariola GER CD)\04 - Es geht mir gut, Cheri.wav
Длина предзазора 0:00:01.32
Пиковый уровень 99.0 % Скорость извлечения 1.9 X Качество трека 100.0 % CRC теста 593BF5CC CRC копии 593BF5CC Копирование... OK
Трек 5
Имя файла E:\FTP\PUB\Music\Worldmusic\Mireille Mathieu\1998 - Meine Welt ist die Musik (Ariola GER CD)\05 - Akropolis adieu.wav
Длина предзазора 0:00:01.02
Пиковый уровень 99.0 % Скорость извлечения 2.0 X Качество трека 100.0 % CRC теста 78737F59 CRC копии 78737F59 Копирование... OK
Трек 6
Имя файла E:\FTP\PUB\Music\Worldmusic\Mireille Mathieu\1998 - Meine Welt ist die Musik (Ariola GER CD)\06 - Roma, Roma, Roma.wav
Длина предзазора 0:00:01.55
Пиковый уровень 99.0 % Скорость извлечения 2.0 X Качество трека 100.0 % CRC теста 495525DA CRC копии 495525DA Копирование... OK
Трек 7
Имя файла E:\FTP\PUB\Music\Worldmusic\Mireille Mathieu\1998 - Meine Welt ist die Musik (Ariola GER CD)\07 - Ganz Paris ist ein Theater.wav
Длина предзазора 0:00:01.30
Пиковый уровень 99.0 % Скорость извлечения 2.0 X Качество трека 100.0 % CRC теста 64E0579E CRC копии 64E0579E Копирование... OK
Трек 8
Имя файла E:\FTP\PUB\Music\Worldmusic\Mireille Mathieu\1998 - Meine Welt ist die Musik (Ariola GER CD)\08 - Tarata-Ting, Tarata-Tong.wav
Длина предзазора 0:00:01.60
Пиковый уровень 99.0 % Скорость извлечения 2.0 X Качество трека 100.0 % CRC теста 17339996 CRC копии 17339996 Копирование... OK
Трек 9
Имя файла E:\FTP\PUB\Music\Worldmusic\Mireille Mathieu\1998 - Meine Welt ist die Musik (Ariola GER CD)\09 - Martin.wav
Длина предзазора 0:00:02.00
Пиковый уровень 99.0 % Скорость извлечения 1.9 X Качество трека 100.0 % CRC теста DFAAD2BE CRC копии DFAAD2BE Копирование... OK
Трек 10
Имя файла E:\FTP\PUB\Music\Worldmusic\Mireille Mathieu\1998 - Meine Welt ist die Musik (Ariola GER CD)\10 - Der Zar und das Madchen.wav
Длина предзазора 0:00:01.60
Пиковый уровень 99.0 % Скорость извлечения 1.9 X Качество трека 100.0 % CRC теста 4B861F65 CRC копии 4B861F65 Копирование... OK
Трек 11
Имя файла E:\FTP\PUB\Music\Worldmusic\Mireille Mathieu\1998 - Meine Welt ist die Musik (Ariola GER CD)\11 - La Paloma ade.wav
Длина предзазора 0:00:01.37
Пиковый уровень 99.0 % Скорость извлечения 2.0 X Качество трека 100.0 % CRC теста CFA48D29 CRC копии CFA48D29 Копирование... OK
Трек 12
Имя файла E:\FTP\PUB\Music\Worldmusic\Mireille Mathieu\1998 - Meine Welt ist die Musik (Ariola GER CD)\12 - Schau mich bitte nicht so an.wav
Длина предзазора 0:00:01.22
Пиковый уровень 99.0 % Скорость извлечения 2.0 X Качество трека 100.0 % CRC теста 395255B8 CRC копии 395255B8 Копирование... OK
Трек 13
Имя файла E:\FTP\PUB\Music\Worldmusic\Mireille Mathieu\1998 - Meine Welt ist die Musik (Ariola GER CD)\13 - Die Welt ist schon, Milord.wav
Длина предзазора 0:00:01.50
Пиковый уровень 99.0 % Скорость извлечения 2.1 X Качество трека 100.0 % CRC теста 1DA6165E CRC копии 1DA6165E Копирование... OK
Трек 14
Имя файла E:\FTP\PUB\Music\Worldmusic\Mireille Mathieu\1998 - Meine Welt ist die Musik (Ariola GER CD)\14 - Die Sonne wartet schon.wav
Длина предзазора 0:00:01.00
Пиковый уровень 99.3 % Скорость извлечения 2.0 X Качество трека 100.0 % CRC теста D6C2E645 CRC копии D6C2E645 Копирование... OK
Трек 15
Имя файла E:\FTP\PUB\Music\Worldmusic\Mireille Mathieu\1998 - Meine Welt ist die Musik (Ariola GER CD)\15 - Mon Amour.wav
Длина предзазора 0:00:00.63
Пиковый уровень 99.8 % Скорость извлечения 2.0 X Качество трека 100.0 % CRC теста 786B2257 CRC копии 786B2257 Копирование... OK
Ошибок не произошло
Конец отчёта
==== Контрольная сумма отчёта 585F1A18B9CEAE9272BA3B9B27B3889D140B8C2D7A1C0749219595C7C8F45511 ====

Содержание индексной карты (.CUE)

REM GENRE miscREM DISCID AB0C300FREM COMMENT "ExactAudioCopy v1.0b3"CATALOG 7432150333250PERFORMER "Mireille Mathieu"TITLE "Meine Welt ist die Musik"FILE "01 - Meine Welt ist die Musik.wav" WAVE TRACK 01 AUDIO TITLE "Meine Welt ist die Musik" PERFORMER "Mireille Mathieu" ISRC DEC717000003 PREGAP 00:00:32 INDEX 01 00:00:00 TRACK 02 AUDIO TITLE "Hinter den Kulissen von Paris" PERFORMER "Mireille Mathieu" ISRC DEC716900003 INDEX 00 03:04:00FILE "02 - Hinter den Kulissen von Paris.wav" WAVE INDEX 01 00:00:00 TRACK 03 AUDIO TITLE "An einem Sonntag in Avignon" PERFORMER "Mireille Mathieu" ISRC DEC717000001 INDEX 00 02:32:38FILE "03 - An einem Sonntag in Avignon.wav" WAVE INDEX 01 00:00:00 TRACK 04 AUDIO TITLE "Es geht mir gut, Cheri" PERFORMER "Mireille Mathieu" ISRC DEC717000002 INDEX 00 03:20:13FILE "04 - Es geht mir gut, Cheri.wav" WAVE INDEX 01 00:00:00 TRACK 05 AUDIO TITLE "Akropolis adieu" PERFORMER "Mireille Mathieu" ISRC DEC717100002 INDEX 00 02:49:53FILE "05 - Akropolis adieu.wav" WAVE INDEX 01 00:00:00 TRACK 06 AUDIO TITLE "Roma, Roma, Roma" PERFORMER "Mireille Mathieu" ISRC DEC717300001 INDEX 00 03:27:25FILE "06 - Roma, Roma, Roma.wav" WAVE INDEX 01 00:00:00 TRACK 07 AUDIO TITLE "Ganz Paris ist ein Theater" PERFORMER "Mireille Mathieu" ISRC DEC717100001 INDEX 00 03:17:53FILE "07 - Ganz Paris ist ein Theater.wav" WAVE INDEX 01 00:00:00 TRACK 08 AUDIO TITLE "Tarata-Ting, Tarata-Tong" PERFORMER "Mireille Mathieu" ISRC DEC717300003 INDEX 00 03:30:20FILE "08 - Tarata-Ting, Tarata-Tong.wav" WAVE INDEX 01 00:00:00 TRACK 09 AUDIO TITLE "Martin" PERFORMER "Mireille Mathieu" ISRC DEC716900002 INDEX 00 03:04:07FILE "09 - Martin.wav" WAVE INDEX 01 00:00:00 TRACK 10 AUDIO TITLE "Der Zar und das Madchen" PERFORMER "Mireille Mathieu" ISRC DEC717500002 INDEX 00 02:58:40FILE "10 - Der Zar und das Madchen.wav" WAVE INDEX 01 00:00:00 TRACK 11 AUDIO TITLE "La Paloma ade" PERFORMER "Mireille Mathieu" ISRC DEC717300002 INDEX 00 02:59:13FILE "11 - La Paloma ade.wav" WAVE INDEX 01 00:00:00 TRACK 12 AUDIO TITLE "Schau mich bitte nicht so an" PERFORMER "Mireille Mathieu" ISRC DEC719300056 INDEX 00 03:50:53FILE "12 - Schau mich bitte nicht so an.wav" WAVE INDEX 01 00:00:00 TRACK 13 AUDIO TITLE "Die Welt ist schon, Milord" PERFORMER "Mireille Mathieu" ISRC DEC719300057 INDEX 00 03:44:50FILE "13 - Die Welt ist schon, Milord.wav" WAVE INDEX 01 00:00:00 TRACK 14 AUDIO TITLE "Die Sonne wartet schon" PERFORMER "Mireille Mathieu" ISRC DEC719800199 INDEX 00 04:42:10FILE "14 - Die Sonne wartet schon.wav" WAVE INDEX 01 00:00:00 TRACK 15 AUDIO TITLE "Mon Amour" PERFORMER "Mireille Mathieu" ISRC DEC719800198 INDEX 00 04:16:65FILE "15 - Mon Amour.wav" WAVE INDEX 01 00:00:00
Об альбоме: Вроде бы это простая попытка сделать CD на одноимённый альбом 1972го года.
Однако всё не так просто. В данный альбом вошли две редкие песни, причём одна из них - Die Sonne wartet schon не издавалась более нигде!

To download the file disable ad blocking, and reload the page.

disable adblock How to disable ad blocking?

Download by magnet link 361 MB Download Torrent

Login using:

Загрузка...

Similar topics



   
Current time is: 19-Dec 18:36 :: All times are UTC + 3