Edith Piaf / 30e Anniversaire Жанр: Chanson
Страна-производитель диска: Holland
Год издания: 1993
Издатель (лейбл): EMI France
Номер по каталогу: 827 1002-Аудиокодек: FLAC (*.flac)
Тип рипа: tracks+.cue
Битрейт аудио: lossless
Продолжительность: 01:05:12-Источник (релизер): собственный диск
Наличие сканов в содержимом раздачи: да-Треклист:
01. La vie en rose (3:08)
02. J'm'en fous pas mal (4:20)
03. Les trois cloches avec les Compagnons De La Chanson (4:11)
04. Bal dans ma rue (3:00)
05. Hymne a l'amour (3:27)
06. Padam padam (3:18)
07. Bravo pour le clown (3:06)
08. Johnny, tu n'es pas un ange (2:13)
09. L'accordeoniste (3:38)
10. L'homme a la moto (2:06)
11. Les amants d'un jour (3:14)
12. La foule (2:59)
13. Mon manege a moi (tu me fais tourner la tete) (3:02)
14. Milord (4:32)
15. Non, je ne regrette rien (2:23)
16. Les flonflons du bal (2:31)
17. Mon Dieu (3:25)
18. Sous le ciel de Paris (3:24)
19. Les amants avec Charles Dumont (3:55)
20. Une valse (3:22)

Лог создания рипа

Exact Audio Copy V1.0 beta 3 from 29. August 2011
Отчёт EAC об извлечении, выполненном 17. февраля 2013, 11:22
Edith Piaf / 30e Anniversaire
Дисковод: PIONEER DVD-RW DVR-218L Adapter: 0 ID: 0
Режим чтения : ДостоверностьИспользование точного потока : ДаОтключение кэша аудио : ДаИспользование указателей C2 : Нет
Коррекция смещения при чтении : 6Способность читать области Lead-in и Lead-out : НетЗаполнение пропущенных сэмплов тишиной : ДаУдаление блоков с тишиной в начале и конце : НетПри вычислениях CRC использовались нулевые сэмплы : ДаИнтерфейс : Встроенный Win32-интерфейс для Win NT/2000Обработка зазоров : Добавлено к предыдущему треку
Выходной формат : Пользовательский кодировщикВыбранный битрейт : 128 kBit/sКачество : ВысокийДобавление ID3-тега : НетУтилита сжатия : C:\Program Files (x86)\Exact Audio Copy\Flac\flac.exeДополнительные параметры : -V -7 -T "Genre=%genre%" -T "Artist=%artist%" -T "Title=%title%" -T "Album=%albumtitle%" -T "Date=%year%" -T "Tracknumber=%tracknr%" -T "Comment=%comment%" %source%
TOC извлечённого CD
Трек | Старт | Длительность | Начальный сектор | Конечный сектор --------------------------------------------------------------------- 1 | 0:00.33 | 3:07.45 | 33 | 14102 2 | 3:08.03 | 4:20.07 | 14103 | 33609 3 | 7:28.10 | 4:10.45 | 33610 | 52404 4 | 11:38.55 | 2:59.38 | 52405 | 65867 5 | 14:38.18 | 3:27.27 | 65868 | 81419 6 | 18:05.45 | 3:17.68 | 81420 | 96262 7 | 21:23.38 | 3:05.55 | 96263 | 110192 8 | 24:29.18 | 2:12.57 | 110193 | 120149 9 | 26:42.00 | 3:37.45 | 120150 | 136469 10 | 30:19.45 | 2:05.65 | 136470 | 145909 11 | 32:25.35 | 3:14.35 | 145910 | 160494 12 | 35:39.70 | 2:58.45 | 160495 | 173889 13 | 38:38.40 | 3:01.65 | 173890 | 187529 14 | 41:40.30 | 4:31.38 | 187530 | 207892 15 | 46:11.68 | 2:22.67 | 207893 | 218609 16 | 48:34.60 | 2:31.00 | 218610 | 229934 17 | 51:05.60 | 3:25.18 | 229935 | 245327 18 | 54:31.03 | 3:24.30 | 245328 | 260657 19 | 57:55.33 | 3:55.35 | 260658 | 278317 20 | 61:50.68 | 3:21.40 | 278318 | 293432
Трек 1
Имя файла F:\_МУЗЫКА\Edith Piaf - 30e Anniversaire - 1993\01 La vie en rose.wav
Длина предзазора 0:00:02.33
Пиковый уровень 74.7 % Скорость извлечения 1.1 X Качество трека 100.0 % CRC теста D390A746 CRC копии D390A746 Точность не определена (достоверность 30) [70CCA9A8], AccurateRip вернул [66799F0F] (AR v2) Копирование... OK
Трек 2
Имя файла F:\_МУЗЫКА\Edith Piaf - 30e Anniversaire - 1993\02 J'm'en fous pas mal.wav
Пиковый уровень 75.5 % Скорость извлечения 1.2 X Качество трека 100.0 % CRC теста 8332B8A7 CRC копии 8332B8A7 Точность не определена (достоверность 29) [B8F5D8E2], AccurateRip вернул [CFD301C4] (AR v2) Копирование... OK
Трек 3
Имя файла F:\_МУЗЫКА\Edith Piaf - 30e Anniversaire - 1993\03 Les trois cloches.wav
Пиковый уровень 90.9 % Скорость извлечения 1.4 X Качество трека 100.0 % CRC теста FDAB6780 CRC копии FDAB6780 Точность не определена (достоверность 30) [F92E6384], AccurateRip вернул [1CB71002] (AR v2) Копирование... OK
Трек 4
Имя файла F:\_МУЗЫКА\Edith Piaf - 30e Anniversaire - 1993\04 Bal dans ma rue.wav
Пиковый уровень 79.1 % Скорость извлечения 1.4 X Качество трека 100.0 % CRC теста D62EE07B CRC копии D62EE07B Точность не определена (достоверность 29) [41659385], AccurateRip вернул [27B1759C] (AR v2) Копирование... OK
Трек 5
Имя файла F:\_МУЗЫКА\Edith Piaf - 30e Anniversaire - 1993\05 Hymne à l'amour.wav
Длина предзазора 0:00:01.28
Пиковый уровень 78.6 % Скорость извлечения 1.5 X Качество трека 100.0 % CRC теста 88A732D7 CRC копии 88A732D7 Точность не определена (достоверность 30) [302D5B63], AccurateRip вернул [1014CD03] (AR v2) Копирование... OK
Трек 6
Имя файла F:\_МУЗЫКА\Edith Piaf - 30e Anniversaire - 1993\06 Padam padam.wav
Пиковый уровень 92.7 % Скорость извлечения 1.5 X Качество трека 100.0 % CRC теста B7E8DF72 CRC копии B7E8DF72 Точность не определена (достоверность 30) [5C5D1DFC], AccurateRip вернул [712FBB3D] (AR v2) Копирование... OK
Трек 7
Имя файла F:\_МУЗЫКА\Edith Piaf - 30e Anniversaire - 1993\07 Bravo pour le clown.wav
Пиковый уровень 99.9 % Скорость извлечения 1.6 X Качество трека 100.0 % CRC теста 2A9DEDEB CRC копии 2A9DEDEB Точность не определена (достоверность 30) [AE030FBA], AccurateRip вернул [EE3C837A] (AR v2) Копирование... OK
Трек 8
Имя файла F:\_МУЗЫКА\Edith Piaf - 30e Anniversaire - 1993\08 Johnny, tu n'es pas un ange.wav
Пиковый уровень 99.9 % Скорость извлечения 1.5 X Качество трека 100.0 % CRC теста A031B663 CRC копии A031B663 Точность не определена (достоверность 29) [CBAA25B9], AccurateRip вернул [D233A427] (AR v2) Копирование... OK
Трек 9
Имя файла F:\_МУЗЫКА\Edith Piaf - 30e Anniversaire - 1993\09 L'accordéoniste.wav
Пиковый уровень 100.0 % Скорость извлечения 1.7 X Качество трека 100.0 % CRC теста F4A4B409 CRC копии F4A4B409 Точность не определена (достоверность 29) [72A65DC9], AccurateRip вернул [4399E668] (AR v2) Копирование... OK
Трек 10
Имя файла F:\_МУЗЫКА\Edith Piaf - 30e Anniversaire - 1993\10 L'homme à la moto.wav
Длина предзазора 0:00:01.10
Пиковый уровень 89.3 % Скорость извлечения 1.6 X Качество трека 100.0 % CRC теста 2817CB5E CRC копии 2817CB5E Точность не определена (достоверность 30) [8B3A49B6], AccurateRip вернул [AE4D314F] (AR v2) Копирование... OK
Трек 11
Имя файла F:\_МУЗЫКА\Edith Piaf - 30e Anniversaire - 1993\11 Les amants d'un jour.wav
Пиковый уровень 76.9 % Скорость извлечения 1.8 X Качество трека 100.0 % CRC теста 2CFD6C3C CRC копии 2CFD6C3C Точность не определена (достоверность 30) [C903A07E], AccurateRip вернул [7AD6ABCC] (AR v2) Копирование... OK
Трек 12
Имя файла F:\_МУЗЫКА\Edith Piaf - 30e Anniversaire - 1993\12 La foule.wav
Пиковый уровень 99.9 % Скорость извлечения 1.6 X Качество трека 99.9 % CRC теста 93C774ED CRC копии 93C774ED Точность не определена (достоверность 30) [170D25DE], AccurateRip вернул [63B2FCF2] (AR v2) Копирование... OK
Трек 13
Имя файла F:\_МУЗЫКА\Edith Piaf - 30e Anniversaire - 1993\13 Mon manège à moi (tu me fais tourner la tête).wav
Длина предзазора 0:00:01.52
Пиковый уровень 100.0 % Скорость извлечения 1.9 X Качество трека 100.0 % CRC теста FCBC9C6C CRC копии FCBC9C6C Точность не определена (достоверность 30) [FA8ACED4], AccurateRip вернул [E82A6BE3] (AR v2) Копирование... OK
Трек 14
Имя файла F:\_МУЗЫКА\Edith Piaf - 30e Anniversaire - 1993\14 Milord.wav
Пиковый уровень 81.7 % Скорость извлечения 2.1 X Качество трека 100.0 % CRC теста 84742334 CRC копии 84742334 Точность не определена (достоверность 29) [6FC326D3], AccurateRip вернул [4E617347] (AR v2) Копирование... OK
Трек 15
Имя файла F:\_МУЗЫКА\Edith Piaf - 30e Anniversaire - 1993\15 Non, je ne regrette rien.wav
Длина предзазора 0:00:01.15
Пиковый уровень 93.2 % Скорость извлечения 1.9 X Качество трека 100.0 % CRC теста 3D80572C CRC копии 3D80572C Точность не определена (достоверность 30) [3F89AA60], AccurateRip вернул [66440914] (AR v2) Копирование... OK
Трек 16
Имя файла F:\_МУЗЫКА\Edith Piaf - 30e Anniversaire - 1993\16 Les flonflons du bal.wav
Пиковый уровень 99.8 % Скорость извлечения 2.0 X Качество трека 100.0 % CRC теста 4E35389C CRC копии 4E35389C Точность не определена (достоверность 29) [46284F79], AccurateRip вернул [83019EDE] (AR v2) Копирование... OK
Трек 17
Имя файла F:\_МУЗЫКА\Edith Piaf - 30e Anniversaire - 1993\17 Mon Dieu.wav
Пиковый уровень 75.1 % Скорость извлечения 2.1 X Качество трека 100.0 % CRC теста 7D320536 CRC копии 7D320536 Точность не определена (достоверность 29) [294E53DA], AccurateRip вернул [C1675682] (AR v2) Копирование... OK
Трек 18
Имя файла F:\_МУЗЫКА\Edith Piaf - 30e Anniversaire - 1993\18 Sous le ciel de Paris.wav
Пиковый уровень 100.0 % Скорость извлечения 2.2 X Качество трека 100.0 % CRC теста 453A9C4E CRC копии 453A9C4E Точность не определена (достоверность 30) [F3B1DD00], AccurateRip вернул [28E25075] (AR v2) Копирование... OK
Трек 19
Имя файла F:\_МУЗЫКА\Edith Piaf - 30e Anniversaire - 1993\19 Les amants avec Charles Dumont.wav
Пиковый уровень 55.0 % Скорость извлечения 2.3 X Качество трека 100.0 % CRC теста 1604E85F CRC копии 1604E85F Точность не определена (достоверность 28) [FDA95ACB], AccurateRip вернул [1172A4B6] (AR v2) Копирование... OK
Трек 20
Имя файла F:\_МУЗЫКА\Edith Piaf - 30e Anniversaire - 1993\20 Une valse.wav
Пиковый уровень 54.9 % Скорость извлечения 2.0 X Качество трека 99.9 % CRC теста 96A6FF13 CRC копии 96A6FF13 Точность не определена (достоверность 29) [C0BEF8E4], AccurateRip вернул [A6B75BFA] (AR v2) Копирование... OK
Ни один трек не прошёл проверки на точностьВ вашей базе может быть иной вариант штамповки диска
Ошибок не произошло
Конец отчёта
==== Контрольная сумма отчёта CF8D1CF877D04D825C6C0E1E7BDD0C9450BBB7D812AE136007D2C8A115ECD513 ====

Содержание индексной карты (.CUE)

REM GENRE ChansonREM DATE 1993REM DISCID 040F4814REM COMMENT "ExactAudioCopy v1.0b3"PERFORMER "Edith Piaf"TITLE "30e Anniversaire"FILE "01 La vie en rose.wav" WAVE TRACK 01 AUDIO TITLE "La vie en rose" PERFORMER "Edith Piaf" PREGAP 00:00:33 INDEX 01 00:00:00FILE "02 J'm'en fous pas mal.wav" WAVE TRACK 02 AUDIO TITLE "J'm'en fous pas mal" PERFORMER "Edith Piaf" INDEX 01 00:00:00FILE "03 Les trois cloches.wav" WAVE TRACK 03 AUDIO TITLE "Les trois cloches" PERFORMER "Edith Piaf" INDEX 01 00:00:00FILE "04 Bal dans ma rue.wav" WAVE TRACK 04 AUDIO TITLE "Bal dans ma rue" PERFORMER "Edith Piaf" INDEX 01 00:00:00 TRACK 05 AUDIO TITLE "Hymne a l'amour" PERFORMER "Edith Piaf" INDEX 00 02:58:10FILE "05 Hymne a l'amour.wav" WAVE INDEX 01 00:00:00FILE "06 Padam padam.wav" WAVE TRACK 06 AUDIO TITLE "Padam padam" PERFORMER "Edith Piaf" INDEX 01 00:00:00FILE "07 Bravo pour le clown.wav" WAVE TRACK 07 AUDIO TITLE "Bravo pour le clown" PERFORMER "Edith Piaf" INDEX 01 00:00:00FILE "08 Johnny, tu n'es pas un ange.wav" WAVE TRACK 08 AUDIO TITLE "Johnny, tu n'es pas un ange" PERFORMER "Edith Piaf" INDEX 01 00:00:00FILE "09 L'accordeoniste.wav" WAVE TRACK 09 AUDIO TITLE "L'accordeoniste" PERFORMER "Edith Piaf" INDEX 01 00:00:00 TRACK 10 AUDIO TITLE "L'homme a la moto" PERFORMER "Edith Piaf" INDEX 00 03:36:35FILE "10 L'homme a la moto.wav" WAVE INDEX 01 00:00:00FILE "11 Les amants d'un jour.wav" WAVE TRACK 11 AUDIO TITLE "Les amants d'un jour" PERFORMER "Edith Piaf" INDEX 01 00:00:00FILE "12 La foule.wav" WAVE TRACK 12 AUDIO TITLE "La foule" PERFORMER "Edith Piaf" INDEX 01 00:00:00 TRACK 13 AUDIO TITLE "Mon manege a moi (tu me fais tourner la tete)" PERFORMER "Edith Piaf" INDEX 00 02:56:68FILE "13 Mon manege a moi (tu me fais tourner la tete).wav" WAVE INDEX 01 00:00:00FILE "14 Milord.wav" WAVE TRACK 14 AUDIO TITLE "Milord" PERFORMER "Edith Piaf" INDEX 01 00:00:00 TRACK 15 AUDIO TITLE "Non, je ne regrette rien" PERFORMER "Edith Piaf" INDEX 00 04:30:23FILE "15 Non, je ne regrette rien.wav" WAVE INDEX 01 00:00:00FILE "16 Les flonflons du bal.wav" WAVE TRACK 16 AUDIO TITLE "Les flonflons du bal" PERFORMER "Edith Piaf" INDEX 01 00:00:00FILE "17 Mon Dieu.wav" WAVE TRACK 17 AUDIO TITLE "Mon Dieu" PERFORMER "Edith Piaf" INDEX 01 00:00:00FILE "18 Sous le ciel de Paris.wav" WAVE TRACK 18 AUDIO TITLE "Sous le ciel de Paris" PERFORMER "Edith Piaf" INDEX 01 00:00:00FILE "19 Les amants avec Charles Dumont.wav" WAVE TRACK 19 AUDIO TITLE "Les amants avec Charles Dumont" PERFORMER "Edith Piaf" INDEX 01 00:00:00FILE "20 Une valse.wav" WAVE TRACK 20 AUDIO TITLE "Une valse" PERFORMER "Edith Piaf" INDEX 01 00:00:00

Лог проверки качества

-----------------------
DON'T MODIFY THIS FILE
-----------------------
PERFORMER: auCDtect Task Manager, ver. 1.5.1RC6 build 1.5.1.7Copyright (c) 2008-2010 y-soft. All rights reservedhttp://y-soft.org
ANALYZER: auCDtect: CD records authenticity detector, version 0.8.2Copyright (c) 2004 Oleg Berngardt. All rights reserved.Copyright (c) 2004 Alexander Djourik. All rights reserved.
FILE: 20 Une valse.flac Size: 20561018 Hash: AA26F325DC8DD8320FD8069B5CF82A98 Accuracy: -m0 Conclusion: CDDA 100% Signature: FC27CE69B6CA19151CB5847F39B75A6156A1DA96FILE: 19 Les amants avec Charles Dumont.flac Size: 21316903 Hash: 3E80C056706A9F2F97FD4B6EA11C2276 Accuracy: -m0 Conclusion: CDDA 100% Signature: C4A42DFC39C4A1B978B390445C767E58C7395754FILE: 18 Sous le ciel de Paris.flac Size: 16880883 Hash: ADC9D4462EE6633DE991B3EFAA95F674 Accuracy: -m0 Conclusion: CDDA 100% Signature: 384762E750F47E0122980A9269C561074647479FFILE: 17 Mon Dieu.flac Size: 19691859 Hash: 2083144E3F0AFAF0D41889A181BD0975 Accuracy: -m0 Conclusion: CDDA 100% Signature: 7AF94F3E3ABE0B66751C169FD820807BBBFD1741FILE: 16 Les flonflons du bal.flac Size: 16126235 Hash: A2E1DD2D393972F0A17F557AD9604B2C Accuracy: -m0 Conclusion: CDDA 100% Signature: C53E74588A62CD474493B84979E6D798DEDC65BCFILE: 15 Non, je ne regrette rien.flac Size: 14627967 Hash: E1F603C6D2B606555A97202530402FE8 Accuracy: -m0 Conclusion: CDDA 100% Signature: CF84B6C0E4C0F18CF045289DCFBCD1147B1A756BFILE: 14 Milord.flac Size: 23944840 Hash: C467F334736ACB21C4BE5CFF9C0B8CD8 Accuracy: -m0 Conclusion: CDDA 100% Signature: 120A59FFAB78BB9C8F3767D034444BAF86C79380FILE: 13 Mon manege a moi (tu me fais tourner la tete).flac Size: 14587644 Hash: 9FF8DFB4C636DFE0C109E7C3DBE92F9A Accuracy: -m0 Conclusion: CDDA 100% Signature: 5F2AD483EACB99ADC59B22E6B9386109BB483366FILE: 12 La foule.flac Size: 14764619 Hash: 0092C5D5DC7D4B2860A2B807F9C273FA Accuracy: -m0 Conclusion: CDDA 100% Signature: 64E138317CB68DBDD2D599F6A0796CC893CBD652FILE: 11 Les amants d'un jour.flac Size: 16440748 Hash: 60D1CF86565BD2BF9B2EF3D34198102D Accuracy: -m0 Conclusion: CDDA 100% Signature: AA8A9E05B7F8A8B4AFA99F44D32B16EACB4B0ED8FILE: 10 L'homme a la moto.flac Size: 11693786 Hash: 950B116CCAB42D7C1A971CA9B10C1CDE Accuracy: -m0 Conclusion: CDDA 100% Signature: FDE612C50AE922C26449B6DA2894B30769C7552FFILE: 09 L'accordeoniste.flac Size: 16420141 Hash: 96C30F375C6F582A89E08EE57021847E Accuracy: -m0 Conclusion: CDDA 94% Signature: 97274DC1A5BCAFCFC2DB7E1AF0F93452D0B85BA9FILE: 08 Johnny, tu n'es pas un ange.flac Size: 11378912 Hash: E1232E30012F877CF20E269731F5A2F9 Accuracy: -m0 Conclusion: CDDA 100% Signature: 9449C7F9A63F14D1A99C43A1B6EB7D55DBD37119FILE: 07 Bravo pour le clown.flac Size: 15273881 Hash: 00AE49BAB9984ADE8F57BB76EEDB9C5C Accuracy: -m0 Conclusion: MPEG 95% Signature: E6B643ED9272513ED1E46AFC624C6E476DD9BCDCFILE: 06 Padam padam.flac Size: 16327609 Hash: 47823EA0CE0AFF650722B0FCD12719D5 Accuracy: -m0 Conclusion: CDDA 100% Signature: A1E80DF6ABC53342915781370D9CC86ACA6C831AFILE: 05 Hymne a l'amour.flac Size: 14023767 Hash: 1AEC77092B1F6AC3B1D99E153C6DA5AE Accuracy: -m0 Conclusion: CDDA 100% Signature: C6E19B05784F0C11232E5BD4ADD81C981BABBD47FILE: 04 Bal dans ma rue.flac Size: 13280831 Hash: 0C83EA12F20C96B7CCAF8426FF5F5AE6 Accuracy: -m0 Conclusion: CDDA 100% Signature: 169752D72793128724D48471CA57891C9A32F0EAFILE: 03 Les trois cloches.flac Size: 16809926 Hash: D36C94786C5538F1D61379AF4FBFC7D1 Accuracy: -m0 Conclusion: CDDA 100% Signature: 0AB7BF673638F8EB41FCBD8A889AF1608BF7628BFILE: 02 J'm'en fous pas mal.flac Size: 15220507 Hash: 2699896FCDDE47244EC25C6F9BBA3AA3 Accuracy: -m0 Conclusion: CDDA 100% Signature: C45F7FF7A1BA96C9EB00E2B6C6E9B3DDC6AB6057FILE: 01 La vie en rose.flac Size: 12712066 Hash: 10C12F24FF735C85C0EC456CEE291B8F Accuracy: -m0 Conclusion: CDDA 100% Signature: A3E3E9E4200E0B9FA512E0801C64F07AB3E39105

Скриншот спектра частот на 07. Bravo pour le clown

Для скачивания файла отключите блокировку рекламы и перезагрузите страницу.

disable adblock Как отключить блокировку рекламы?

Скачать по магнет ссылке 535 MB 

Войти с помощью:

Похожие раздачи

Внимание! Контент 18+ если вы младше данного возраста, НЕ переходите по ссылке!!!


   
Текущее время: 15-Авг 12:49 :: Часовой пояс: UTC ± 0