Jane Birkin - Ex Fan Des Sixties
Жанр: French Chanson, Pop, Rock
Страна-производитель диска: France
Год выхода альбома: 1978
Год издания диска: 2001
Издатель (лейбл): Mercury France
Номер по каталогу: 586 649-2
Страна: France
Аудиокодек: FLAC (*.flac)
Тип рипа: tracks+.cue
Битрейт аудио: lossless
Продолжительность: 42:09
Источник (релизер): собственный диск
Наличие сканов в содержимом раздачи: да
1 Ex Fan Des Sixties
2 Apocalypstick
3 Exercice En Forme De Z
4 Mélodie Interdite
5 L'Aquoiboniste
6 Vie Mort Et Résurrection D'un Amour Passion
7 Nicotine
8 Rocking Chair
9 Dépressive
10 Le Velours Des Vierges
11 Classée X
12 Mélo Mélo
13 Ballade De Johnny-Jane
14 Raccrochez C'est Une Horreur
15 Yesterday Yes A Day
Paroles et musique: SERGE GAINSBOURG

Лог создания рипа

Exact Audio Copy V1.0 beta 3 from 29. August 2011
EAC extraction logfile from 14. January 2013, 21:19
Jane Birkin / Ex Fan Des Sixties
Used drive : SlimtypeDVD A DS8A5SH Adapter: 0 ID: 1
Read mode : SecureUtilize accurate stream : YesDefeat audio cache : YesMake use of C2 pointers : No
Read offset correction : 6Overread into Lead-In and Lead-Out : NoFill up missing offset samples with silence : YesDelete leading and trailing silent blocks : NoNull samples used in CRC calculations : YesUsed interface : Native Win32 interface for Win NT & 2000Gap handling : Appended to previous track
Used output format : User Defined EncoderSelected bitrate : 128 kBit/sQuality : HighAdd ID3 tag : NoCommand line compressor : C:\Program Files (x86)\Exact Audio Copy\Flac\flac.exeAdditional command line options : -V -8 -T "Genre=%genre%" -T "Artist=%artist%" -T "Title=%title%" -T "Album=%albumtitle%" -T "Date=%year%" -T "Tracknumber=%tracknr%" -T "Comment=%comment%" %source%
TOC of the extracted CD
Track | Start | Length | Start sector | End sector --------------------------------------------------------- 1 | 0:00.00 | 3:01.47 | 0 | 13621 2 | 3:01.47 | 2:37.33 | 13622 | 25429 3 | 5:39.05 | 2:31.67 | 25430 | 36821 4 | 8:10.72 | 3:12.35 | 36822 | 51256 5 | 11:23.32 | 2:21.35 | 51257 | 61866 6 | 13:44.67 | 3:09.40 | 61867 | 76081 7 | 16:54.32 | 2:32.68 | 76082 | 87549 8 | 19:27.25 | 2:14.12 | 87550 | 97611 9 | 21:41.37 | 3:42.65 | 97612 | 114326 10 | 25:24.27 | 2:59.23 | 114327 | 127774 11 | 28:23.50 | 2:09.22 | 127775 | 137471 12 | 30:32.72 | 2:48.43 | 137472 | 150114 13 | 33:21.40 | 2:43.12 | 150115 | 162351 14 | 36:04.52 | 3:13.65 | 162352 | 176891 15 | 39:18.42 | 2:58.45 | 176892 | 190286
Track 1
Filename D:\Ex Fan Des Sixties (1978)\01. Ex Fan Des Sixties.wav
Pre-gap length 0:00:02.00
Peak level 100.0 % Extraction speed 2.4 X Track quality 100.0 % Test CRC 91F57F6B Copy CRC 91F57F6B Copy OK
Track 2
Filename D:\Ex Fan Des Sixties (1978)\02. Apocalypstick.wav
Pre-gap length 0:00:01.22
Peak level 100.0 % Extraction speed 2.6 X Track quality 100.0 % Test CRC 64A2C5FC Copy CRC 64A2C5FC Copy OK
Track 3
Filename D:\Ex Fan Des Sixties (1978)\03. Exercice En Forme De Z.wav
Pre-gap length 0:00:01.20
Peak level 91.4 % Extraction speed 2.7 X Track quality 100.0 % Test CRC DF02B3A4 Copy CRC DF02B3A4 Copy OK
Track 4
Filename D:\Ex Fan Des Sixties (1978)\04. Melodie Interdite.wav
Peak level 100.0 % Extraction speed 3.0 X Track quality 100.0 % Test CRC 6F7199BA Copy CRC 6F7199BA Copy OK
Track 5
Filename D:\Ex Fan Des Sixties (1978)\05. L'Aquoiboniste.wav
Pre-gap length 0:00:02.37
Peak level 100.0 % Extraction speed 3.0 X Track quality 100.0 % Test CRC 9726D6FD Copy CRC 9726D6FD Copy OK
Track 6
Filename D:\Ex Fan Des Sixties (1978)\06. Vie Mort Et Resurrection D'un Amour Passion.wav
Pre-gap length 0:00:01.22
Peak level 76.5 % Extraction speed 2.8 X Track quality 99.9 % Test CRC 641418DB Copy CRC 641418DB Copy OK
Track 7
Filename D:\Ex Fan Des Sixties (1978)\07. Nicotine.wav
Pre-gap length 0:00:01.40
Peak level 100.0 % Extraction speed 3.3 X Track quality 100.0 % Test CRC 82BD2DC4 Copy CRC 82BD2DC4 Copy OK
Track 8
Filename D:\Ex Fan Des Sixties (1978)\08. Rocking Chair.wav
Pre-gap length 0:00:02.00
Peak level 96.1 % Extraction speed 3.3 X Track quality 100.0 % Test CRC 0C94DEC5 Copy CRC 0C94DEC5 Copy OK
Track 9
Filename D:\Ex Fan Des Sixties (1978)\09. Depressive.wav
Peak level 100.0 % Extraction speed 3.8 X Track quality 100.0 % Test CRC 888DE43C Copy CRC 888DE43C Copy OK
Track 10
Filename D:\Ex Fan Des Sixties (1978)\10. Le Velours Des Vierges.wav
Pre-gap length 0:00:02.05
Peak level 100.0 % Extraction speed 3.8 X Track quality 100.0 % Test CRC DE336294 Copy CRC DE336294 Copy OK
Track 11
Filename D:\Ex Fan Des Sixties (1978)\11. Classee X.wav
Pre-gap length 0:00:01.15
Peak level 100.0 % Extraction speed 3.7 X Track quality 100.0 % Test CRC 08F46FEB Copy CRC 08F46FEB Copy OK
Track 12
Filename D:\Ex Fan Des Sixties (1978)\12. Melo Melo.wav
Peak level 100.0 % Extraction speed 4.0 X Track quality 100.0 % Test CRC 076ECA39 Copy CRC 076ECA39 Copy OK
Track 13
Filename D:\Ex Fan Des Sixties (1978)\13. Ballade De Johnny-Jane.wav
Pre-gap length 0:00:02.00
Peak level 97.5 % Extraction speed 4.1 X Track quality 100.0 % Test CRC C2D3B2DD Copy CRC C2D3B2DD Copy OK
Track 14
Filename D:\Ex Fan Des Sixties (1978)\14. Raccrochez C'est Une Horreur.wav
Pre-gap length 0:00:01.72
Peak level 99.4 % Extraction speed 3.7 X Track quality 99.9 % Test CRC EAC8ECA8 Copy CRC EAC8ECA8 Copy OK
Track 15
Filename D:\Ex Fan Des Sixties (1978)\15. Yesterday Yes A Day.wav
Peak level 100.0 % Extraction speed 3.7 X Track quality 99.9 % Test CRC 415EEDFC Copy CRC 415EEDFC Copy OK
No errors occurred
End of status report
==== Log checksum B6E8C8F425F73EFD334829784B2167EEA5C593D8C2D72E014F0889F0E549F64C ====

Содержание индексной карты (.CUE)

REM GENRE "Chanson francaise"REM DATE 1978REM DISCID B209E90FREM COMMENT "ExactAudioCopy v1.0b3"PERFORMER "Jane Birkin"TITLE "Ex Fan Des Sixties"FILE "01. Ex Fan Des Sixties.wav" WAVE TRACK 01 AUDIO TITLE "Ex Fan Des Sixties" PERFORMER "Jane Birkin" ISRC FRZ037700130 INDEX 01 00:00:00 TRACK 02 AUDIO TITLE "Apocalypstick" PERFORMER "Jane Birkin" ISRC FRZ037800820 INDEX 00 03:00:25FILE "02. Apocalypstick.wav" WAVE INDEX 01 00:00:00 TRACK 03 AUDIO TITLE "Exercice En Forme De Z" PERFORMER "Jane Birkin" ISRC FRZ037700140 INDEX 00 02:36:13FILE "03. Exercice En Forme De Z.wav" WAVE INDEX 01 00:00:00FILE "04. Melodie Interdite.wav" WAVE TRACK 04 AUDIO TITLE "Melodie Interdite" PERFORMER "Jane Birkin" ISRC FRZ037700160 INDEX 01 00:00:00 TRACK 05 AUDIO TITLE "L'Aquoiboniste" PERFORMER "Jane Birkin" ISRC FRZ037700010 INDEX 00 03:09:73FILE "05. L'Aquoiboniste.wav" WAVE INDEX 01 00:00:00 TRACK 06 AUDIO TITLE "Vie Mort Et Resurrection D'un Amour Passion" PERFORMER "Jane Birkin" ISRC FRZ037700150 INDEX 00 02:20:13FILE "06. Vie Mort Et Resurrection D'un Amour Passion.wav" WAVE INDEX 01 00:00:00 TRACK 07 AUDIO TITLE "Nicotine" PERFORMER "Jane Birkin" ISRC FRZ037700170 INDEX 00 03:08:00FILE "07. Nicotine.wav" WAVE INDEX 01 00:00:00 TRACK 08 AUDIO TITLE "Rocking Chair" PERFORMER "Jane Birkin" ISRC FRZ037700710 INDEX 00 02:30:68FILE "08. Rocking Chair.wav" WAVE INDEX 01 00:00:00FILE "09. Depressive.wav" WAVE TRACK 09 AUDIO TITLE "Depressive" PERFORMER "Jane Birkin" ISRC FRZ037800110 INDEX 01 00:00:00 TRACK 10 AUDIO TITLE "Le Velours Des Vierges" PERFORMER "Jane Birkin" ISRC FRZ037700180 INDEX 00 03:40:60FILE "10. Le Velours Des Vierges.wav" WAVE INDEX 01 00:00:00 TRACK 11 AUDIO TITLE "Classee X" PERFORMER "Jane Birkin" ISRC FRZ037700190 INDEX 00 02:58:08FILE "11. Classee X.wav" WAVE INDEX 01 00:00:00FILE "12. Melo Melo.wav" WAVE TRACK 12 AUDIO TITLE "Melo Melo" PERFORMER "Jane Birkin" ISRC FRZ037700200 INDEX 01 00:00:00 TRACK 13 AUDIO TITLE "Ballade De Johnny-Jane" PERFORMER "Jane Birkin" ISRC FRZ037600630 INDEX 00 02:46:43FILE "13. Ballade De Johnny-Jane.wav" WAVE INDEX 01 00:00:00 TRACK 14 AUDIO TITLE "Raccrochez C'est Une Horreur" PERFORMER "Jane Birkin" ISRC FRZ037600830 INDEX 00 02:41:15FILE "14. Raccrochez C'est Une Horreur.wav" WAVE INDEX 01 00:00:00FILE "15. Yesterday Yes A Day.wav" WAVE TRACK 15 AUDIO TITLE "Yesterday Yes A Day" PERFORMER "Jane Birkin" ISRC FRZ037700330 INDEX 01 00:00:00

Для скачивания файла отключите блокировку рекламы и перезагрузите страницу.

disable adblock Как отключить блокировку рекламы?

Скачать по магнет ссылке 270 MB 

Войти с помощью:

Загрузка...
Загрузка...


   
Текущее время: 21-Июн 10:36 :: Часовой пояс: UTC ± 0