Mireille Mathieu / Films & Shows (limited deluxe edition)
Жанр: Chanson
Страна-производитель диска: Франция
Год издания: 2006
Издатель (лейбл): EMI Capitol
Номер по каталогу: 0946 3808662 8
Аудиокодек: FLAC (*.flac)
Тип рипа: tracks+.cue
Битрейт аудио: lossless
Продолжительность: 01:55:22
Источник (релизер): Мой релиз
Наличие сканов в содержимом раздачи: да

Треклист

LES FILMS
01 - La bonne année
Catherine Desage - Francis Lai
02 - Paris en colère
Maurice Vidalin - Maurice Jarre
03 - Une histoire d'amour (Love Story)
Catherine Desage - Francis Lai
04 - C'est à Mayerling
Jacques Plante - Francis Lai
05 - Un homme et une femme
Pierre Barouh - Francis Lai
06 - Amour défendu
Eddy Marnay - (Trad.)
07 - Une fille au coeur cousu de fil blanc
O. Dassault - Christian Gaubert / Pierre André Dousset
08 - Over The Rainbow
E. Y. Harburg - Harold Arlen
09 - Les yeux de l'amour (’The Look of Love’ from ‘Casino Royale’)
G. Sire - Burt Bacharach
10 - Un jour tu reviendras (Once Upon a Time in the West)
M. Travia / A. Lacour - Ennio Morricone
11 - Don’t Rain On My Parade
Bob Merrill - Jule Styne
12 - Jean qui rit
Eddy Marnay - N. H. Brown
13 - Chante Alleluia
Eddy Marnay - Neil Diamond
14 - I'd Rather Be Blue
B. Rose - F. Fisher
15 - La plus belle chose au monde
René Rouzaud - Sammy Fain
16 - Chanel solitaire
Eddy Marnay - J. Musy
17 - La voie lactée (Stardust)
Pierre Delanoë - Hoagy Carmichael
18 - Deux petits chaussons de satin blanc
Jacques Larue - Charles Chaplin
LES SHOWS
01 - Come To The Show
Eddy Marnay - George Gershwin
02 - Dans la maison des chansons
R. Dhery - Gérard Calvi
03 - Mireille Antoinette
Eddy Marnay - R. Cohen
04 - Trolley Song (La chanson du Trolley)
Eddy Marnay - Ralph Blane
05 - Jambalaya
F. Bonifay - Hank Williams
06 - Amour, castagnettes et tango
F. Llenas - R. Adler / J. Ross
07 - La fille du cowboy
Eddy Marnay - J.-M. Sommers
08 - La fête à la galette
Eddy Marnay - R. Cohen
09 - Le vendredi à la Nouvelle Orléans
Eddy Marnay - I. Berlin
10 - Dolly Sisters
Eddy Marnay - R. Cohen
11 - J'ai envie de chanter
Eddy Marnay - L. Wolfe Gilbert / L. F. Muir
12 - Pour qu'un homme m'aime
Eddy Marnay - J. Herman
13 - Le coeur à l'envers
Eddy Marnay - Gabriel Yared / Ivan Jullien
14 - Vive la musique
Eddy Marnay - George Gershwin
15 - Si mes amis pouvaient me voir
Eddy Marnay - C.-Y. Coleman
16 - En dansant (In The Mood)
Eddy Marnay - Joe Garland
17 - Une fille à marier
Eddy Marnay - Roger Loubet
18 - Le grand final
Eddy Marnay - George Gershwin

Лог создания рипаCD1

Exact Audio Copy V1.0 beta 3 from 29. August 2011
Отчёт EAC об извлечении, выполненном 7. ноября 2012, 19:48
Mireille Mathieu / Films & Shows CD1
Дисковод: TSSTcorpCDDVDW SH-222BB Adapter: 0 ID: 2
Режим чтения : ДостоверностьИспользование точного потока : ДаОтключение кэша аудио : ДаИспользование указателей C2 : Нет
Коррекция смещения при чтении : 6Способность читать области Lead-in и Lead-out : НетЗаполнение пропущенных сэмплов тишиной : ДаУдаление блоков с тишиной в начале и конце : НетПри вычислениях CRC использовались нулевые сэмплы : ДаИнтерфейс : Установленный внешний ASPI-интерфейсОбработка зазоров : Добавлено к предыдущему треку
Выходной формат : Пользовательский кодировщикВыбранный битрейт : 768 kBit/sКачество : ВысокийДобавление ID3-тега : НетУтилита сжатия : C:\Program Files (x86)\Exact Audio Copy\FLAC\FLAC.EXEДополнительные параметры : -V -8 -T "Genre=%genre%" -T "Artist=%artist%" -T "Title=%title%" -T "Album=%albumtitle%" -T "Date=%year%" -T "Tracknumber=%tracknr%" -T "Comment=%comment%" %source%
TOC извлечённого CD
Трек | Старт | Длительность | Начальный сектор | Конечный сектор --------------------------------------------------------------------- 1 | 0:00.00 | 2:48.07 | 0 | 12606 2 | 2:48.07 | 2:36.68 | 12607 | 24374 3 | 5:25.00 | 3:00.09 | 24375 | 37883 4 | 8:25.09 | 3:09.43 | 37884 | 52101 5 | 11:34.52 | 2:56.57 | 52102 | 65358 6 | 14:31.34 | 3:29.08 | 65359 | 81041 7 | 18:00.42 | 3:11.44 | 81042 | 95410 8 | 21:12.11 | 3:13.70 | 95411 | 109955 9 | 24:26.06 | 2:56.33 | 109956 | 123188 10 | 27:22.39 | 5:11.26 | 123189 | 146539 11 | 32:33.65 | 1:53.50 | 146540 | 155064 12 | 34:27.40 | 2:50.33 | 155065 | 167847 13 | 37:17.73 | 3:19.03 | 167848 | 182775 14 | 40:37.01 | 2:45.53 | 182776 | 195203 15 | 43:22.54 | 5:49.15 | 195204 | 221393 16 | 49:11.69 | 4:03.43 | 221394 | 239661 17 | 53:15.37 | 3:05.68 | 239662 | 253604 18 | 56:21.30 | 1:51.23 | 253605 | 261952
Трек 1
Имя файла E:\FTP\PUB\Music\Worldmusic\Mireille Mathieu\2006 - Films & Shows (limited deluxe edition) (EMI FRA CD)\Disc 1 (Les Films)\01 - La bonne annee.wav
Длина предзазора 0:00:02.00
Пиковый уровень 100.0 % Скорость извлечения 2.4 X Качество трека 100.0 % CRC теста AB4AD390 CRC копии AB4AD390 Копирование... OK
Трек 2
Имя файла E:\FTP\PUB\Music\Worldmusic\Mireille Mathieu\2006 - Films & Shows (limited deluxe edition) (EMI FRA CD)\Disc 1 (Les Films)\02 - Paris en colere.wav
Длина предзазора 0:00:01.74
Пиковый уровень 100.0 % Скорость извлечения 2.6 X Качество трека 100.0 % CRC теста DFD9CE1B CRC копии DFD9CE1B Копирование... OK
Трек 3
Имя файла E:\FTP\PUB\Music\Worldmusic\Mireille Mathieu\2006 - Films & Shows (limited deluxe edition) (EMI FRA CD)\Disc 1 (Les Films)\03 - Une histoire d'amour.wav
Длина предзазора 0:00:01.74
Пиковый уровень 96.9 % Скорость извлечения 2.8 X Качество трека 100.0 % CRC теста 5C6FA65B CRC копии 5C6FA65B Копирование... OK
Трек 4
Имя файла E:\FTP\PUB\Music\Worldmusic\Mireille Mathieu\2006 - Films & Shows (limited deluxe edition) (EMI FRA CD)\Disc 1 (Les Films)\04 - C'est a Mayerling.wav
Длина предзазора 0:00:01.74
Пиковый уровень 100.0 % Скорость извлечения 2.6 X Качество трека 99.9 % CRC теста 6A140890 CRC копии 6A140890 Копирование... OK
Трек 5
Имя файла E:\FTP\PUB\Music\Worldmusic\Mireille Mathieu\2006 - Films & Shows (limited deluxe edition) (EMI FRA CD)\Disc 1 (Les Films)\05 - Un homme, une femme.wav
Длина предзазора 0:00:01.74
Пиковый уровень 100.0 % Скорость извлечения 3.2 X Качество трека 100.0 % CRC теста 16C0146B CRC копии 16C0146B Копирование... OK
Трек 6
Имя файла E:\FTP\PUB\Music\Worldmusic\Mireille Mathieu\2006 - Films & Shows (limited deluxe edition) (EMI FRA CD)\Disc 1 (Les Films)\06 - Amour defendu.wav
Длина предзазора 0:00:01.74
Пиковый уровень 91.6 % Скорость извлечения 3.4 X Качество трека 100.0 % CRC теста BEF55974 CRC копии BEF55974 Копирование... OK
Трек 7
Имя файла E:\FTP\PUB\Music\Worldmusic\Mireille Mathieu\2006 - Films & Shows (limited deluxe edition) (EMI FRA CD)\Disc 1 (Les Films)\07 - Une fille au coeur cousu de fil blanc.wav
Длина предзазора 0:00:01.74
Пиковый уровень 100.0 % Скорость извлечения 3.1 X Качество трека 99.9 % CRC теста DB819B5D CRC копии DB819B5D Копирование... OK
Трек 8
Имя файла E:\FTP\PUB\Music\Worldmusic\Mireille Mathieu\2006 - Films & Shows (limited deluxe edition) (EMI FRA CD)\Disc 1 (Les Films)\08 - Over the rainbow.wav
Длина предзазора 0:00:01.74
Пиковый уровень 100.0 % Скорость извлечения 3.8 X Качество трека 100.0 % CRC теста A01D4869 CRC копии A01D4869 Копирование... OK
Трек 9
Имя файла E:\FTP\PUB\Music\Worldmusic\Mireille Mathieu\2006 - Films & Shows (limited deluxe edition) (EMI FRA CD)\Disc 1 (Les Films)\09 - Les yeux de l'amour.wav
Длина предзазора 0:00:01.74
Пиковый уровень 99.2 % Скорость извлечения 3.8 X Качество трека 100.0 % CRC теста 624E5B24 CRC копии 624E5B24 Копирование... OK
Трек 10
Имя файла E:\FTP\PUB\Music\Worldmusic\Mireille Mathieu\2006 - Films & Shows (limited deluxe edition) (EMI FRA CD)\Disc 1 (Les Films)\10 - Un jour, tu reviendras.wav
Длина предзазора 0:00:01.74
Пиковый уровень 99.0 % Скорость извлечения 4.4 X Качество трека 100.0 % CRC теста 82885331 CRC копии 82885331 Копирование... OK
Трек 11
Имя файла E:\FTP\PUB\Music\Worldmusic\Mireille Mathieu\2006 - Films & Shows (limited deluxe edition) (EMI FRA CD)\Disc 1 (Les Films)\11 - Don't rain on my parade.wav
Длина предзазора 0:00:01.74
Пиковый уровень 100.0 % Скорость извлечения 3.7 X Качество трека 100.0 % CRC теста A8520237 CRC копии A8520237 Копирование... OK
Трек 12
Имя файла E:\FTP\PUB\Music\Worldmusic\Mireille Mathieu\2006 - Films & Shows (limited deluxe edition) (EMI FRA CD)\Disc 1 (Les Films)\12 - Jean qui rit.wav
Длина предзазора 0:00:01.74
Пиковый уровень 100.0 % Скорость извлечения 4.2 X Качество трека 100.0 % CRC теста BC6C5449 CRC копии BC6C5449 Копирование... OK
Трек 13
Имя файла E:\FTP\PUB\Music\Worldmusic\Mireille Mathieu\2006 - Films & Shows (limited deluxe edition) (EMI FRA CD)\Disc 1 (Les Films)\13 - Chante alleluia.wav
Длина предзазора 0:00:01.74
Пиковый уровень 100.0 % Скорость извлечения 4.5 X Качество трека 100.0 % CRC теста 64780410 CRC копии 64780410 Копирование... OK
Трек 14
Имя файла E:\FTP\PUB\Music\Worldmusic\Mireille Mathieu\2006 - Films & Shows (limited deluxe edition) (EMI FRA CD)\Disc 1 (Les Films)\14 - I'd rather be blue.wav
Длина предзазора 0:00:01.74
Пиковый уровень 100.0 % Скорость извлечения 4.4 X Качество трека 100.0 % CRC теста 2FC4CACD CRC копии 2FC4CACD Копирование... OK
Трек 15
Имя файла E:\FTP\PUB\Music\Worldmusic\Mireille Mathieu\2006 - Films & Shows (limited deluxe edition) (EMI FRA CD)\Disc 1 (Les Films)\15 - La plus belle chose au monde.wav
Длина предзазора 0:00:01.74
Пиковый уровень 100.0 % Скорость извлечения 5.1 X Качество трека 100.0 % CRC теста FFB7DC95 CRC копии FFB7DC95 Копирование... OK
Трек 16
Имя файла E:\FTP\PUB\Music\Worldmusic\Mireille Mathieu\2006 - Films & Shows (limited deluxe edition) (EMI FRA CD)\Disc 1 (Les Films)\16 - Chanel solitaire.wav
Длина предзазора 0:00:01.74
Пиковый уровень 98.9 % Скорость извлечения 5.1 X Качество трека 100.0 % CRC теста 2B17A8C2 CRC копии 2B17A8C2 Копирование... OK
Трек 17
Имя файла E:\FTP\PUB\Music\Worldmusic\Mireille Mathieu\2006 - Films & Shows (limited deluxe edition) (EMI FRA CD)\Disc 1 (Les Films)\17 - La voie lactee.wav
Длина предзазора 0:00:01.74
Пиковый уровень 100.0 % Скорость извлечения 4.3 X Качество трека 99.9 % CRC теста 93300235 CRC копии 93300235 Копирование... OK
Трек 18
Имя файла E:\FTP\PUB\Music\Worldmusic\Mireille Mathieu\2006 - Films & Shows (limited deluxe edition) (EMI FRA CD)\Disc 1 (Les Films)\18 - Deux petits chaussons de satin blanc.wav
Длина предзазора 0:00:01.74
Пиковый уровень 100.0 % Скорость извлечения 4.6 X Качество трека 100.0 % CRC теста CE05447D CRC копии CE05447D Копирование... OK
Ошибок не произошло
Конец отчёта
---- CUETools DB Plugin V2.1.3
[CTDB TOCID: BkIyVzeCUU5SkKp07uufxciOPNo-] found, Submit result: BkIyVzeCUU5SkKp07uufxciOPNo- has been confirmed[8a4b4b44] (1/1) Accurately ripped
==== Контрольная сумма отчёта 94660D806051D5FCE2D692A1FCB03DAD2D71DAB23B0F6C1485BBB8B35A05895A ====

CD2

Exact Audio Copy V1.0 beta 3 from 29. August 2011
Отчёт EAC об извлечении, выполненном 7. ноября 2012, 20:21
Mireille Mathieu / Films & Shows CD2
Дисковод: TSSTcorpCDDVDW SH-222BB Adapter: 0 ID: 2
Режим чтения : ДостоверностьИспользование точного потока : ДаОтключение кэша аудио : ДаИспользование указателей C2 : Нет
Коррекция смещения при чтении : 6Способность читать области Lead-in и Lead-out : НетЗаполнение пропущенных сэмплов тишиной : ДаУдаление блоков с тишиной в начале и конце : НетПри вычислениях CRC использовались нулевые сэмплы : ДаИнтерфейс : Установленный внешний ASPI-интерфейсОбработка зазоров : Добавлено к предыдущему треку
Выходной формат : Пользовательский кодировщикВыбранный битрейт : 768 kBit/sКачество : ВысокийДобавление ID3-тега : НетУтилита сжатия : C:\Program Files (x86)\Exact Audio Copy\FLAC\FLAC.EXEДополнительные параметры : -V -8 -T "Genre=%genre%" -T "Artist=%artist%" -T "Title=%title%" -T "Album=%albumtitle%" -T "Date=%year%" -T "Tracknumber=%tracknr%" -T "Comment=%comment%" %source%
TOC извлечённого CD
Трек | Старт | Длительность | Начальный сектор | Конечный сектор --------------------------------------------------------------------- 1 | 0:00.00 | 2:41.01 | 0 | 12075 2 | 2:41.01 | 2:38.61 | 12076 | 23986 3 | 5:19.62 | 4:16.52 | 23987 | 43238 4 | 9:36.39 | 2:29.09 | 43239 | 54422 5 | 12:05.48 | 1:45.12 | 54423 | 62309 6 | 13:50.60 | 3:26.03 | 62310 | 77762 7 | 17:16.63 | 2:59.70 | 77763 | 91257 8 | 20:16.58 | 3:21.61 | 91258 | 106393 9 | 23:38.44 | 3:02.21 | 106394 | 120064 10 | 26:40.65 | 2:44.06 | 120065 | 132370 11 | 29:24.71 | 2:34.31 | 132371 | 143951 12 | 31:59.27 | 5:29.27 | 143952 | 168653 13 | 37:28.54 | 3:55.65 | 168654 | 186343 14 | 41:24.44 | 3:12.59 | 186344 | 200802 15 | 44:37.28 | 2:47.64 | 200803 | 213391 16 | 47:25.17 | 3:18.23 | 213392 | 228264 17 | 50:43.40 | 3:57.19 | 228265 | 246058 18 | 54:40.59 | 2:28.68 | 246059 | 257226
Трек 1
Имя файла E:\FTP\PUB\Music\Worldmusic\Mireille Mathieu\2006 - Films & Shows (limited deluxe edition) (EMI FRA CD)\Disc 2 (Les Shows)\01 - Come to the show.wav
Длина предзазора 0:00:02.00
Пиковый уровень 100.0 % Скорость извлечения 3.3 X Качество трека 99.9 % CRC теста 9DDD6005 CRC копии 9DDD6005 Копирование... OK
Трек 2
Имя файла E:\FTP\PUB\Music\Worldmusic\Mireille Mathieu\2006 - Films & Shows (limited deluxe edition) (EMI FRA CD)\Disc 2 (Les Shows)\02 - Dans la maison des chansons.wav
Длина предзазора 0:00:01.74
Пиковый уровень 100.0 % Скорость извлечения 4.3 X Качество трека 100.0 % CRC теста 7E87DA84 CRC копии 7E87DA84 Копирование... OK
Трек 3
Имя файла E:\FTP\PUB\Music\Worldmusic\Mireille Mathieu\2006 - Films & Shows (limited deluxe edition) (EMI FRA CD)\Disc 2 (Les Shows)\03 - Mireille Antoinette.wav
Длина предзазора 0:00:01.74
Пиковый уровень 100.0 % Скорость извлечения 5.0 X Качество трека 100.0 % CRC теста BB1D5D6B CRC копии BB1D5D6B Копирование... OK
Трек 4
Имя файла E:\FTP\PUB\Music\Worldmusic\Mireille Mathieu\2006 - Films & Shows (limited deluxe edition) (EMI FRA CD)\Disc 2 (Les Shows)\04 - Trolley song.wav
Длина предзазора 0:00:01.74
Пиковый уровень 100.0 % Скорость извлечения 4.9 X Качество трека 100.0 % CRC теста 5165FCE8 CRC копии 5165FCE8 Копирование... OK
Трек 5
Имя файла E:\FTP\PUB\Music\Worldmusic\Mireille Mathieu\2006 - Films & Shows (limited deluxe edition) (EMI FRA CD)\Disc 2 (Les Shows)\05 - Jambalaya.wav
Длина предзазора 0:00:01.74
Пиковый уровень 100.0 % Скорость извлечения 4.7 X Качество трека 100.0 % CRC теста 0D8A0B91 CRC копии 0D8A0B91 Копирование... OK
Трек 6
Имя файла E:\FTP\PUB\Music\Worldmusic\Mireille Mathieu\2006 - Films & Shows (limited deluxe edition) (EMI FRA CD)\Disc 2 (Les Shows)\06 - Amour, castagnettes et tango.wav
Длина предзазора 0:00:01.74
Пиковый уровень 100.0 % Скорость извлечения 5.7 X Качество трека 100.0 % CRC теста C6808523 CRC копии C6808523 Копирование... OK
Трек 7
Имя файла E:\FTP\PUB\Music\Worldmusic\Mireille Mathieu\2006 - Films & Shows (limited deluxe edition) (EMI FRA CD)\Disc 2 (Les Shows)\07 - La fille du cow-boy.wav
Длина предзазора 0:00:01.74
Пиковый уровень 100.0 % Скорость извлечения 4.9 X Качество трека 99.9 % CRC теста 4594BE70 CRC копии 4594BE70 Копирование... OK
Трек 8
Имя файла E:\FTP\PUB\Music\Worldmusic\Mireille Mathieu\2006 - Films & Shows (limited deluxe edition) (EMI FRA CD)\Disc 2 (Les Shows)\08 - La fete a la galette.wav
Длина предзазора 0:00:01.74
Пиковый уровень 100.0 % Скорость извлечения 5.4 X Качество трека 99.9 % CRC теста 9ACCF69D CRC копии 9ACCF69D Копирование... OK
Трек 9
Имя файла E:\FTP\PUB\Music\Worldmusic\Mireille Mathieu\2006 - Films & Shows (limited deluxe edition) (EMI FRA CD)\Disc 2 (Les Shows)\09 - Le vendredi a la Nouvelle Orleans.wav
Длина предзазора 0:00:01.74
Пиковый уровень 100.0 % Скорость извлечения 5.4 X Качество трека 99.9 % CRC теста 01093BB7 CRC копии 01093BB7 Копирование... OK
Трек 10
Имя файла E:\FTP\PUB\Music\Worldmusic\Mireille Mathieu\2006 - Films & Shows (limited deluxe edition) (EMI FRA CD)\Disc 2 (Les Shows)\10 - Dolly sisters.wav
Длина предзазора 0:00:01.74
Пиковый уровень 100.0 % Скорость извлечения 6.4 X Качество трека 100.0 % CRC теста E0000B38 CRC копии E0000B38 Копирование... OK
Трек 11
Имя файла E:\FTP\PUB\Music\Worldmusic\Mireille Mathieu\2006 - Films & Shows (limited deluxe edition) (EMI FRA CD)\Disc 2 (Les Shows)\11 - J'ai envie de chanter.wav
Длина предзазора 0:00:01.74
Пиковый уровень 100.0 % Скорость извлечения 6.5 X Качество трека 100.0 % CRC теста 0345FB1D CRC копии 0345FB1D Копирование... OK
Трек 12
Имя файла E:\FTP\PUB\Music\Worldmusic\Mireille Mathieu\2006 - Films & Shows (limited deluxe edition) (EMI FRA CD)\Disc 2 (Les Shows)\12 - Pour qu'un homme m'aime.wav
Длина предзазора 0:00:01.74
Пиковый уровень 100.0 % Скорость извлечения 6.9 X Качество трека 99.9 % CRC теста C6E6A3F1 CRC копии C6E6A3F1 Копирование... OK
Трек 13
Имя файла E:\FTP\PUB\Music\Worldmusic\Mireille Mathieu\2006 - Films & Shows (limited deluxe edition) (EMI FRA CD)\Disc 2 (Les Shows)\13 - Le coeur a l'envers.wav
Длина предзазора 0:00:01.74
Пиковый уровень 100.0 % Скорость извлечения 7.6 X Качество трека 100.0 % CRC теста 82CC404C CRC копии 82CC404C Копирование... OK
Трек 14
Имя файла E:\FTP\PUB\Music\Worldmusic\Mireille Mathieu\2006 - Films & Shows (limited deluxe edition) (EMI FRA CD)\Disc 2 (Les Shows)\14 - Vive la musique.wav
Длина предзазора 0:00:01.74
Пиковый уровень 100.0 % Скорость извлечения 7.6 X Качество трека 100.0 % CRC теста D13C4275 CRC копии D13C4275 Копирование... OK
Трек 15
Имя файла E:\FTP\PUB\Music\Worldmusic\Mireille Mathieu\2006 - Films & Shows (limited deluxe edition) (EMI FRA CD)\Disc 2 (Les Shows)\15 - Si mes amis pouvaient me voir.wav
Длина предзазора 0:00:01.74
Пиковый уровень 100.0 % Скорость извлечения 7.5 X Качество трека 100.0 % CRC теста 02B29CA7 CRC копии 02B29CA7 Копирование... OK
Трек 16
Имя файла E:\FTP\PUB\Music\Worldmusic\Mireille Mathieu\2006 - Films & Shows (limited deluxe edition) (EMI FRA CD)\Disc 2 (Les Shows)\16 - En dansant.wav
Длина предзазора 0:00:01.74
Пиковый уровень 100.0 % Скорость извлечения 8.0 X Качество трека 100.0 % CRC теста B25C5595 CRC копии B25C5595 Копирование... OK
Трек 17
Имя файла E:\FTP\PUB\Music\Worldmusic\Mireille Mathieu\2006 - Films & Shows (limited deluxe edition) (EMI FRA CD)\Disc 2 (Les Shows)\17 - Une fille a marier.wav
Длина предзазора 0:00:01.74
Пиковый уровень 100.0 % Скорость извлечения 8.4 X Качество трека 100.0 % CRC теста 750BC028 CRC копии 750BC028 Копирование... OK
Трек 18
Имя файла E:\FTP\PUB\Music\Worldmusic\Mireille Mathieu\2006 - Films & Shows (limited deluxe edition) (EMI FRA CD)\Disc 2 (Les Shows)\18 - Le grand final.wav
Длина предзазора 0:00:01.74
Пиковый уровень 100.0 % Скорость извлечения 7.9 X Качество трека 100.0 % CRC теста 84DFE131 CRC копии 84DFE131 Копирование... OK
Ошибок не произошло
Конец отчёта
---- CUETools DB Plugin V2.1.3
[CTDB TOCID: QjYzg2rXKp5L.Hq4CM7J33g1Ppk-] found, Submit result: QjYzg2rXKp5L.Hq4CM7J33g1Ppk- has been confirmed[138c013c] (1/1) Accurately ripped
==== Контрольная сумма отчёта 989B21996AB97CF58FC1A8DA7EB4628E37D1FBD510F9C2D2EECB864123B60E4D ====

Содержание индексной карты (.CUE)CD1

REM GENRE PopREM DATE 2006REM DISCID 100DA412REM COMMENT "ExactAudioCopy v1.0b3"CATALOG 0094638086826PERFORMER "Mireille Mathieu"TITLE "Films & Shows CD1"FILE "01 - La bonne annee.wav" WAVE TRACK 01 AUDIO TITLE "La bonne annee" PERFORMER "Mireille Mathieu" ISRC FRW147300009 INDEX 01 00:00:00 TRACK 02 AUDIO TITLE "Paris en colere" PERFORMER "Mireille Mathieu" ISRC FRW146600007 INDEX 00 02:46:08FILE "02 - Paris en colere.wav" WAVE INDEX 01 00:00:00 TRACK 03 AUDIO TITLE "Une histoire d'amour" PERFORMER "Mireille Mathieu" ISRC FRW147000006 INDEX 00 02:34:69FILE "03 - Une histoire d'amour.wav" WAVE INDEX 01 00:00:00 TRACK 04 AUDIO TITLE "C'est a Mayerling" PERFORMER "Mireille Mathieu" ISRC FRW146800014 INDEX 00 02:58:10FILE "04 - C'est a Mayerling.wav" WAVE INDEX 01 00:00:00 TRACK 05 AUDIO TITLE "Un homme, une femme" PERFORMER "Mireille Mathieu" ISRC FRW146600002 INDEX 00 03:07:44FILE "05 - Un homme, une femme.wav" WAVE INDEX 01 00:00:00 TRACK 06 AUDIO TITLE "Amour defendu" PERFORMER "Mireille Mathieu" ISRC FRW147700073 INDEX 00 02:54:58FILE "06 - Amour defendu.wav" WAVE INDEX 01 00:00:00 TRACK 07 AUDIO TITLE "Une fille au coeur cousu de fil blanc" PERFORMER "Mireille Mathieu" ISRC FRW147700081 INDEX 00 03:27:09FILE "07 - Une fille au coeur cousu de fil blanc.wav" WAVE INDEX 01 00:00:00 TRACK 08 AUDIO TITLE "Over the rainbow" PERFORMER "Mireille Mathieu" ISRC FRW147700075 INDEX 00 03:09:45FILE "08 - Over the rainbow.wav" WAVE INDEX 01 00:00:00 TRACK 09 AUDIO TITLE "Les yeux de l'amour" PERFORMER "Mireille Mathieu" ISRC FRW146700015 INDEX 00 03:11:71FILE "09 - Les yeux de l'amour.wav" WAVE INDEX 01 00:00:00 TRACK 10 AUDIO TITLE "Un jour, tu reviendras" PERFORMER "Mireille Mathieu" ISRC FRW147500008 INDEX 00 02:54:34FILE "10 - Un jour, tu reviendras.wav" WAVE INDEX 01 00:00:00 TRACK 11 AUDIO TITLE "Don't rain on my parade" PERFORMER "Mireille Mathieu" ISRC FRW147400011 INDEX 00 05:09:27FILE "11 - Don't rain on my parade.wav" WAVE INDEX 01 00:00:00 TRACK 12 AUDIO TITLE "Jean qui rit" PERFORMER "Mireille Mathieu" ISRC FRW148000103 INDEX 00 01:51:51FILE "12 - Jean qui rit.wav" WAVE INDEX 01 00:00:00 TRACK 13 AUDIO TITLE "Chante alleluia" PERFORMER "Mireille Mathieu" ISRC FRW148000104 INDEX 00 02:48:34FILE "13 - Chante alleluia.wav" WAVE INDEX 01 00:00:00 TRACK 14 AUDIO TITLE "I'd rather be blue" PERFORMER "Mireille Mathieu" ISRC FRW147400008 INDEX 00 03:17:04FILE "14 - I'd rather be blue.wav" WAVE INDEX 01 00:00:00 TRACK 15 AUDIO TITLE "La plus belle chose au monde" PERFORMER "Mireille Mathieu" ISRC FRW147700082 INDEX 00 02:43:54FILE "15 - La plus belle chose au monde.wav" WAVE INDEX 01 00:00:00 TRACK 16 AUDIO TITLE "Chanel solitaire" PERFORMER "Mireille Mathieu" ISRC FRW148100017 INDEX 00 05:47:16FILE "16 - Chanel solitaire.wav" WAVE INDEX 01 00:00:00 TRACK 17 AUDIO TITLE "La voie lactee" PERFORMER "Mireille Mathieu" ISRC FRW147600103 INDEX 00 04:01:44FILE "17 - La voie lactee.wav" WAVE INDEX 01 00:00:00 TRACK 18 AUDIO TITLE "Deux petits chaussons de satin blanc" PERFORMER "Mireille Mathieu" ISRC FRW147400009 INDEX 00 03:03:69FILE "18 - Deux petits chaussons de satin blanc.wav" WAVE INDEX 01 00:00:00

CD2

REM GENRE PopREM DATE 2006REM DISCID F10D6512REM COMMENT "ExactAudioCopy v1.0b3"CATALOG 0094638087021PERFORMER "Mireille Mathieu"TITLE "Films & Shows CD2"FILE "01 - Come to the show.wav" WAVE TRACK 01 AUDIO TITLE "Come to the show" PERFORMER "Mireille Mathieu" ISRC FRW147500009 INDEX 01 00:00:00 TRACK 02 AUDIO TITLE "Dans la maison des chansons" PERFORMER "Mireille Mathieu" ISRC FRW147600111 INDEX 00 02:39:02FILE "02 - Dans la maison des chansons.wav" WAVE INDEX 01 00:00:00 TRACK 03 AUDIO TITLE "Mireille Antoinette" PERFORMER "Mireille Mathieu" ISRC FRW148300118 INDEX 00 02:36:62FILE "03 - Mireille Antoinette.wav" WAVE INDEX 01 00:00:00 TRACK 04 AUDIO TITLE "Trolley song" PERFORMER "Mireille Mathieu" ISRC FRW147800012 INDEX 00 04:14:53FILE "04 - Trolley song.wav" WAVE INDEX 01 00:00:00 TRACK 05 AUDIO TITLE "Jambalaya" PERFORMER "Mireille Mathieu" ISRC FRW147400012 INDEX 00 02:27:10FILE "05 - Jambalaya.wav" WAVE INDEX 01 00:00:00 TRACK 06 AUDIO TITLE "Amour, castagnettes et tango" PERFORMER "Mireille Mathieu" ISRC FRW147600112 INDEX 00 01:43:13FILE "06 - Amour, castagnettes et tango.wav" WAVE INDEX 01 00:00:00 TRACK 07 AUDIO TITLE "La fille du cow-boy" PERFORMER "Mireille Mathieu" ISRC FRW147800013 INDEX 00 03:24:04FILE "07 - La fille du cow-boy.wav" WAVE INDEX 01 00:00:00 TRACK 08 AUDIO TITLE "La fete a la galette" PERFORMER "Mireille Mathieu" ISRC FRW148300119 INDEX 00 02:57:71FILE "08 - La fete a la galette.wav" WAVE INDEX 01 00:00:00 TRACK 09 AUDIO TITLE "Le vendredi a la Nouvelle Orleans" PERFORMER "Mireille Mathieu" ISRC FRW147900020 INDEX 00 03:19:62FILE "09 - Le vendredi a la Nouvelle Orleans.wav" WAVE INDEX 01 00:00:00 TRACK 10 AUDIO TITLE "Dolly sisters" PERFORMER "Mireille Mathieu" ISRC FRW148300120 INDEX 00 03:00:22FILE "10 - Dolly sisters.wav" WAVE INDEX 01 00:00:00 TRACK 11 AUDIO TITLE "J'ai envie de chanter" PERFORMER "Mireille Mathieu" ISRC FRW147700083 INDEX 00 02:42:07FILE "11 - J'ai envie de chanter.wav" WAVE INDEX 01 00:00:00 TRACK 12 AUDIO TITLE "Pour qu'un homme m'aime" PERFORMER "Mireille Mathieu" ISRC FRW147800014 INDEX 00 02:32:32FILE "12 - Pour qu'un homme m'aime.wav" WAVE INDEX 01 00:00:00 TRACK 13 AUDIO TITLE "Le coeur a l'envers" PERFORMER "Mireille Mathieu" ISRC FRW147700084 INDEX 00 05:27:28FILE "13 - Le coeur a l'envers.wav" WAVE INDEX 01 00:00:00 TRACK 14 AUDIO TITLE "Vive la musique" PERFORMER "Mireille Mathieu" ISRC FRW148300121 INDEX 00 03:53:66FILE "14 - Vive la musique.wav" WAVE INDEX 01 00:00:00 TRACK 15 AUDIO TITLE "Si mes amis pouvaient me voir" PERFORMER "Mireille Mathieu" ISRC FRW148400014 INDEX 00 03:10:60FILE "15 - Si mes amis pouvaient me voir.wav" WAVE INDEX 01 00:00:00 TRACK 16 AUDIO TITLE "En dansant" PERFORMER "Mireille Mathieu" ISRC FRW148400015 INDEX 00 02:45:65FILE "16 - En dansant.wav" WAVE INDEX 01 00:00:00 TRACK 17 AUDIO TITLE "Une fille a marier" PERFORMER "Mireille Mathieu" ISRC FRW147900019 INDEX 00 03:16:24FILE "17 - Une fille a marier.wav" WAVE INDEX 01 00:00:00 TRACK 18 AUDIO TITLE "Le grand final" PERFORMER "Mireille Mathieu" ISRC FRW148100018 INDEX 00 03:55:20FILE "18 - Le grand final.wav" WAVE INDEX 01 00:00:00
Торрент перезалит по причине добавления сканов.

Для скачивания файла отключите блокировку рекламы и перезагрузите страницу.

disable adblock Как отключить блокировку рекламы?

Скачать по магнет ссылке 809 MB 

Войти с помощью:

Загрузка...
Загрузка...


   
Текущее время: 21-Июн 10:35 :: Часовой пояс: UTC ± 0