Juliette Greco / Si Tu T'imagines
Жанр: POP
Страна-производитель диска: Австрия
Год издания: 2009
Издатель (лейбл): Le Chant Du Monde, ООО Музыка, Harmonia Mundi
Номер по каталогу: PID 899738
Аудиокодек: FLAC (*.flac)
Тип рипа: tracks+.cue
Битрейт аудио: lossless
Продолжительность: 02:33:57
Источник (релизер): CD (mcach)
Наличие сканов в содержимом раздачи: да

ТреклистДиск 1:

1.Si Tu T'imagines
2.La Fourmi
3.Rue Des Blancs-Manteaux
4.La Belle Vie
5.Je Suis Comme Je Suis
6.A La Belle Etoile
7.Les Enfants Qui S'aiment
8.Amours Perdues
9.Sous Le Eiel De Paris
10.Embrasse-Moi
11.Les Feuilles Mortes
12.Je Hais Les Dimanсhes
13.Il Y Avail
14.Romance
15.La Chanson De Catherine
16.Comme Un Enfant Puni
17.Les Dames De La Poste
18.La Fiancee Du Pirate
19.Barbara-Song
20.L'Amour Est Parti
21.Je Mens
22.L'Ombre
23.Le Coeur Casse
24.Les Roulottes

Диск 2:

1.Les Croix
2.La Chanson De Margaret
3.Ca Va
4.Coin De Rue
5.L'Eternel Feminin
6.Chanson Pour L'auvergnat
7.C'est A S'aimer Que Le Temps Passe
8.Sans Vous Aimer
9.Le Jour
10.La Valse
11.Vous Mon Coeur
12.Le Guinche
13.L'Amour
14.Guinguettes
15.La Chanson De Gervaise
16.Miarka
17.Ten As
18.Mefiez-Vous De Paris
19.Mon Coeur N'etait Pas Fait Pour Cа
20.La Complainte Du Telephone
21.Musique Mecanique
22.La Fete Est La
23.La Valse Brune
24.Madame Arthur

Содержание индексной карты (.CUE)CD1

TITLE "Le siecle d'or disc1"PERFORMER "Juliette Greco"CATALOG 0794881913220REM GENRE "Vocal"REM DATE "2009"REM DISCID 2811D518REM REPLAYGAIN_ALBUM_GAIN -9.36 dBREM REPLAYGAIN_ALBUM_PEAK 1.000000FILE "01 Juliette Greco - Si tu t'imagine.flac" WAVE TRACK 01 AUDIO TITLE "Si tu t'imagine" ISRC FRZ335008010 REM REPLAYGAIN_TRACK_GAIN -9.18 dB REM REPLAYGAIN_TRACK_PEAK 1.000000 INDEX 01 00:00:00 TRACK 02 AUDIO TITLE "La fourmi" ISRC FRZ335008020 REM REPLAYGAIN_TRACK_GAIN -7.01 dB REM REPLAYGAIN_TRACK_PEAK 0.999573 INDEX 00 03:16:02FILE "02 Juliette Greco - La fourmi.flac" WAVE INDEX 01 00:00:00 TRACK 03 AUDIO TITLE "Rue des Blancs-Manteaux" ISRC FRZ335008030 REM REPLAYGAIN_TRACK_GAIN -9.38 dB REM REPLAYGAIN_TRACK_PEAK 1.000000 INDEX 00 01:25:42FILE "03 Juliette Greco - Rue des Blancs-Manteaux.flac" WAVE INDEX 01 00:00:00 TRACK 04 AUDIO TITLE "La belle vie" ISRC FRZ335008040 REM REPLAYGAIN_TRACK_GAIN -5.35 dB REM REPLAYGAIN_TRACK_PEAK 0.922760 INDEX 00 01:54:59FILE "04 Juliette Greco - La belle vie.flac" WAVE INDEX 01 00:00:00 TRACK 05 AUDIO TITLE "Je suis comme je suis" ISRC FRZ335008050 REM REPLAYGAIN_TRACK_GAIN -9.66 dB REM REPLAYGAIN_TRACK_PEAK 1.000000 INDEX 00 03:15:71FILE "05 Juliette Greco - Je suis comme je suis.flac" WAVE INDEX 01 00:00:00 TRACK 06 AUDIO TITLE "A la belle etoile" ISRC FRZ335008060 REM REPLAYGAIN_TRACK_GAIN -9.30 dB REM REPLAYGAIN_TRACK_PEAK 1.000000 INDEX 00 03:02:59FILE "06 Juliette Greco - A la belle etoile.flac" WAVE INDEX 01 00:00:00 TRACK 07 AUDIO TITLE "Les Enfants qui s'aiment" ISRC FRZ335008070 REM REPLAYGAIN_TRACK_GAIN -8.31 dB REM REPLAYGAIN_TRACK_PEAK 1.000000 INDEX 00 03:45:08FILE "07 Juliette Greco - Les Enfants qui s'aiment.flac" WAVE INDEX 01 00:00:00 TRACK 08 AUDIO TITLE "Amours perdues" ISRC FRZ335008080 REM REPLAYGAIN_TRACK_GAIN -9.25 dB REM REPLAYGAIN_TRACK_PEAK 0.989014 INDEX 00 03:25:07FILE "08 Juliette Greco - Amours perdues.flac" WAVE INDEX 01 00:00:00 TRACK 09 AUDIO TITLE "Sous le ciel de Paris" ISRC FRZ335008090 REM REPLAYGAIN_TRACK_GAIN -11.12 dB REM REPLAYGAIN_TRACK_PEAK 1.000000 INDEX 00 03:21:11FILE "09 Juliette Greco - Sous le ciel de Paris.flac" WAVE INDEX 01 00:00:00 TRACK 10 AUDIO TITLE "Embrasse-moi" ISRC FRZ335008100 REM REPLAYGAIN_TRACK_GAIN -9.33 dB REM REPLAYGAIN_TRACK_PEAK 1.000000 INDEX 00 03:24:00FILE "10 Juliette Greco - Embrasse-moi.flac" WAVE INDEX 01 00:00:00 TRACK 11 AUDIO TITLE "Les feuilles mortes" ISRC FRZ335008110 REM REPLAYGAIN_TRACK_GAIN -8.54 dB REM REPLAYGAIN_TRACK_PEAK 0.999969 INDEX 00 03:06:00FILE "11 Juliette Greco - Les feuilles mortes.flac" WAVE INDEX 01 00:00:00 TRACK 12 AUDIO TITLE "Je hais les dimanches" ISRC FRZ335008120 REM REPLAYGAIN_TRACK_GAIN -11.82 dB REM REPLAYGAIN_TRACK_PEAK 1.000000 INDEX 00 03:00:50FILE "12 Juliette Greco - Je hais les dimanches.flac" WAVE INDEX 01 00:00:00 TRACK 13 AUDIO TITLE "Il y avait" ISRC FRZ335008130 REM REPLAYGAIN_TRACK_GAIN -10.00 dB REM REPLAYGAIN_TRACK_PEAK 0.979950 INDEX 00 03:40:66FILE "13 Juliette Greco - Il y avait.flac" WAVE INDEX 01 00:00:00 TRACK 14 AUDIO TITLE "Romance" ISRC FRZ335008140 REM REPLAYGAIN_TRACK_GAIN -7.99 dB REM REPLAYGAIN_TRACK_PEAK 0.999969 INDEX 00 03:32:60FILE "14 Juliette Greco - Romance.flac" WAVE INDEX 01 00:00:00 TRACK 15 AUDIO TITLE "La chanson de Catherine" ISRC FRZ335008150 REM REPLAYGAIN_TRACK_GAIN -4.29 dB REM REPLAYGAIN_TRACK_PEAK 0.944855 INDEX 00 03:01:58FILE "15 Juliette Greco - La chanson de Catherine.flac" WAVE INDEX 01 00:00:00 TRACK 16 AUDIO TITLE "Comme un enfant puni" ISRC FRZ335008160 REM REPLAYGAIN_TRACK_GAIN -4.10 dB REM REPLAYGAIN_TRACK_PEAK 0.919739 INDEX 00 03:22:32FILE "16 Juliette Greco - Comme un enfant puni.flac" WAVE INDEX 01 00:00:00 TRACK 17 AUDIO TITLE "Les dames de la poste" ISRC FRZ335008170 REM REPLAYGAIN_TRACK_GAIN -9.78 dB REM REPLAYGAIN_TRACK_PEAK 1.000000 INDEX 00 03:24:63FILE "17 Juliette Greco - Les dames de la poste.flac" WAVE INDEX 01 00:00:00 TRACK 18 AUDIO TITLE "La fiancee du pirate" ISRC FRZ335008180 REM REPLAYGAIN_TRACK_GAIN -10.87 dB REM REPLAYGAIN_TRACK_PEAK 0.917786 INDEX 00 03:25:70FILE "18 Juliette Greco - La fiancee du pirate.flac" WAVE INDEX 01 00:00:00 TRACK 19 AUDIO TITLE "Barabara-Song" ISRC FRZ335008190 REM REPLAYGAIN_TRACK_GAIN -10.78 dB REM REPLAYGAIN_TRACK_PEAK 1.000000 INDEX 00 02:56:12FILE "19 Juliette Greco - Barabara-Song.flac" WAVE INDEX 01 00:00:00 TRACK 20 AUDIO TITLE "L'amour est parti" ISRC FRZ335008200 REM REPLAYGAIN_TRACK_GAIN -3.79 dB REM REPLAYGAIN_TRACK_PEAK 0.958191 INDEX 00 04:21:33FILE "20 Juliette Greco - L'amour est parti.flac" WAVE INDEX 01 00:00:00 TRACK 21 AUDIO TITLE "Je mens" ISRC FRZ335008210 REM REPLAYGAIN_TRACK_GAIN -6.22 dB REM REPLAYGAIN_TRACK_PEAK 0.943970 INDEX 00 03:24:55FILE "21 Juliette Greco - Je mens.flac" WAVE INDEX 01 00:00:00 TRACK 22 AUDIO TITLE "L'ombre" ISRC FRZ335008220 REM REPLAYGAIN_TRACK_GAIN -6.87 dB REM REPLAYGAIN_TRACK_PEAK 0.982178 INDEX 00 02:34:65FILE "22 Juliette Greco - L'ombre.flac" WAVE INDEX 01 00:00:00 TRACK 23 AUDIO TITLE "Le coeur casse" ISRC FRZ335008230 REM REPLAYGAIN_TRACK_GAIN -3.60 dB REM REPLAYGAIN_TRACK_PEAK 0.960907 INDEX 00 02:48:10FILE "23 Juliette Greco - Le coeur casse.flac" WAVE INDEX 01 00:00:00 TRACK 24 AUDIO TITLE "Les roulottes" ISRC FRZ335008240 REM REPLAYGAIN_TRACK_GAIN -4.41 dB REM REPLAYGAIN_TRACK_PEAK 0.947693 INDEX 00 02:46:03FILE "24 Juliette Greco - Les roulottes.flac" WAVE INDEX 01 00:00:00

CD2

TITLE "Le siècle d'or disc 2"PERFORMER "Juliette Greco"CATALOG 0794881913220REM GENRE "Vocal"REM DATE "2009"REM DISCID 91124018REM REPLAYGAIN_ALBUM_GAIN -6.43 dBREM REPLAYGAIN_ALBUM_PEAK 1.000000FILE "01 Juliette Greco - Les croix.flac" WAVE TRACK 01 AUDIO TITLE "Les croix" ISRC FRZ335320010 REM REPLAYGAIN_TRACK_GAIN -10.38 dB REM REPLAYGAIN_TRACK_PEAK 0.978821 INDEX 01 00:00:00 TRACK 02 AUDIO TITLE "La chanson de Margaret" ISRC FRZ335320020 REM REPLAYGAIN_TRACK_GAIN -0.94 dB REM REPLAYGAIN_TRACK_PEAK 0.896118 INDEX 00 03:27:56FILE "02 Juliette Greco - La chanson de Margaret.flac" WAVE INDEX 01 00:00:00 TRACK 03 AUDIO TITLE "Ca va" ISRC FRZ335320030 REM REPLAYGAIN_TRACK_GAIN -5.43 dB REM REPLAYGAIN_TRACK_PEAK 0.966309 INDEX 00 04:45:04FILE "03 Juliette Greco - Ca va.flac" WAVE INDEX 01 00:00:00 TRACK 04 AUDIO TITLE "Coin de rue" ISRC FRZ335320040 REM REPLAYGAIN_TRACK_GAIN -3.84 dB REM REPLAYGAIN_TRACK_PEAK 0.966431 INDEX 00 02:49:47FILE "04 Juliette Greco - Coin de rue.flac" WAVE INDEX 01 00:00:00 TRACK 05 AUDIO TITLE "L'eternel feminin" ISRC FRZ335320050 REM REPLAYGAIN_TRACK_GAIN -4.44 dB REM REPLAYGAIN_TRACK_PEAK 0.978363 INDEX 00 03:23:12FILE "05 Juliette Greco - L'eternel feminin.flac" WAVE INDEX 01 00:00:00 TRACK 06 AUDIO TITLE "Chanson pour l'auvergnat" ISRC FRZ335320060 REM REPLAYGAIN_TRACK_GAIN -2.63 dB REM REPLAYGAIN_TRACK_PEAK 0.831940 INDEX 00 01:47:25FILE "06 Juliette Greco - Chanson pour l'auvergnat.flac" WAVE INDEX 01 00:00:00 TRACK 07 AUDIO TITLE "C'est a aimer que le temps passe " ISRC FRZ335320070 REM REPLAYGAIN_TRACK_GAIN -5.39 dB REM REPLAYGAIN_TRACK_PEAK 0.754211 INDEX 00 03:27:14FILE "07 Juliette Greco - C'est a aimer que le temps passe .flac" WAVE INDEX 01 00:00:00 TRACK 08 AUDIO TITLE "Sans vous aimer" ISRC FRZ335320080 REM REPLAYGAIN_TRACK_GAIN -4.61 dB REM REPLAYGAIN_TRACK_PEAK 0.996246 INDEX 00 03:07:57FILE "08 Juliette Greco - Sans vous aimer.flac" WAVE INDEX 01 00:00:00 TRACK 09 AUDIO TITLE "Le jour" ISRC FRZ335320090 REM REPLAYGAIN_TRACK_GAIN -9.58 dB REM REPLAYGAIN_TRACK_PEAK 0.999969 INDEX 00 03:58:40FILE "09 Juliette Greco - Le jour.flac" WAVE INDEX 01 00:00:00 TRACK 10 AUDIO TITLE "La valse" ISRC FRZ335320100 REM REPLAYGAIN_TRACK_GAIN -4.34 dB REM REPLAYGAIN_TRACK_PEAK 0.954193 INDEX 00 03:30:05FILE "10 Juliette Greco - La valse.flac" WAVE INDEX 01 00:00:00 TRACK 11 AUDIO TITLE "Vous mon coeur" ISRC FRZ335320110 REM REPLAYGAIN_TRACK_GAIN -2.41 dB REM REPLAYGAIN_TRACK_PEAK 0.945068 INDEX 00 04:11:25FILE "11 Juliette Greco - Vous mon coeur.flac" WAVE INDEX 01 00:00:00 TRACK 12 AUDIO TITLE "La guinche" ISRC FRZ335320120 REM REPLAYGAIN_TRACK_GAIN -7.91 dB REM REPLAYGAIN_TRACK_PEAK 0.872009 INDEX 00 03:12:38FILE "12 Juliette Greco - La guinche.flac" WAVE INDEX 01 00:00:00 TRACK 13 AUDIO TITLE "L'amour" ISRC FRZ335320130 REM REPLAYGAIN_TRACK_GAIN -3.83 dB REM REPLAYGAIN_TRACK_PEAK 0.987732 INDEX 00 03:39:62FILE "13 Juliette Greco - L'amour.flac" WAVE INDEX 01 00:00:00 TRACK 14 AUDIO TITLE "Guinguettes" ISRC FRZ335320140 REM REPLAYGAIN_TRACK_GAIN -3.20 dB REM REPLAYGAIN_TRACK_PEAK 0.989838 INDEX 00 02:53:30FILE "14 Juliette Greco - Guinguettes.flac" WAVE INDEX 01 00:00:00 TRACK 15 AUDIO TITLE "La valse de Gervais" ISRC FRZ335320150 REM REPLAYGAIN_TRACK_GAIN -0.81 dB REM REPLAYGAIN_TRACK_PEAK 0.957947 INDEX 00 02:52:40FILE "15 Juliette Greco - La valse de Gervais.flac" WAVE INDEX 01 00:00:00 TRACK 16 AUDIO TITLE "Miarka" ISRC FRZ335320160 REM REPLAYGAIN_TRACK_GAIN -6.15 dB REM REPLAYGAIN_TRACK_PEAK 0.952972 INDEX 00 03:34:30FILE "16 Juliette Greco - Miarka.flac" WAVE INDEX 01 00:00:00 TRACK 17 AUDIO TITLE "T'en as" ISRC FRZ335320170 REM REPLAYGAIN_TRACK_GAIN -6.87 dB REM REPLAYGAIN_TRACK_PEAK 0.795074 INDEX 00 03:20:08FILE "17 Juliette Greco - T'en as.flac" WAVE INDEX 01 00:00:00 TRACK 18 AUDIO TITLE "Mefiez-vous de Paris" ISRC FRZ335320180 REM REPLAYGAIN_TRACK_GAIN -6.39 dB REM REPLAYGAIN_TRACK_PEAK 0.861755 INDEX 00 02:42:33FILE "18 Juliette Greco - Mefiez-vous de Paris.flac" WAVE INDEX 01 00:00:00 TRACK 19 AUDIO TITLE "Mon coeur n'etait pas fait pour ca" ISRC FRZ335320190 REM REPLAYGAIN_TRACK_GAIN -5.12 dB REM REPLAYGAIN_TRACK_PEAK 0.955963 INDEX 00 02:43:57FILE "19 Juliette Greco - Mon coeur n'etait pas fait pour ca.flac" WAVE INDEX 01 00:00:00 TRACK 20 AUDIO TITLE "La complainte du telephone" ISRC FRZ335320200 REM REPLAYGAIN_TRACK_GAIN -9.45 dB REM REPLAYGAIN_TRACK_PEAK 0.991974 INDEX 00 02:59:62FILE "20 Juliette Greco - La complainte du telephone.flac" WAVE INDEX 01 00:00:00 TRACK 21 AUDIO TITLE "Musique mecanique" ISRC FRZ335320210 REM REPLAYGAIN_TRACK_GAIN -7.28 dB REM REPLAYGAIN_TRACK_PEAK 1.000000 INDEX 00 03:21:38FILE "21 Juliette Greco - Musique mecanique.flac" WAVE INDEX 01 00:00:00 TRACK 22 AUDIO TITLE "La fete est la" ISRC FRZ335320220 REM REPLAYGAIN_TRACK_GAIN -7.22 dB REM REPLAYGAIN_TRACK_PEAK 0.970184 INDEX 00 03:04:35FILE "22 Juliette Greco - La fete est la.flac" WAVE INDEX 01 00:00:00 TRACK 23 AUDIO TITLE "La valse brune" ISRC FRZ335320230 REM REPLAYGAIN_TRACK_GAIN -4.84 dB REM REPLAYGAIN_TRACK_PEAK 0.984528 INDEX 00 02:09:24FILE "23 Juliette Greco - La valse brune.flac" WAVE INDEX 01 00:00:00 TRACK 24 AUDIO TITLE "Madame Arthur" ISRC FRZ335320240 REM REPLAYGAIN_TRACK_GAIN -6.92 dB REM REPLAYGAIN_TRACK_PEAK 1.000000 INDEX 00 02:48:27FILE "24 Juliette Greco - Madame Arthur.flac" WAVE INDEX 01 00:00:00

Лог проверки качестваCD1

X Lossless Decoder version 20120609 (141.0)
XLD extraction logfile from 2012-06-20 11:37:31 +0400
Juliette Greco / Le siecle d'or disc1
Used drive : HL-DT-ST DVDRW GSA-S10N (revision BP10)
Ripper mode : XLD Secure RipperDisable audio cache : OK for the drive with a cache less than 1375KiBMake use of C2 pointers : NORead offset correction : 667Max retry count : 20Gap status : Analyzed, Appended
TOC of the extracted CD Track | Start | Length | Start sector | End sector --------------------------------------------------------- 1 | 00:00:00 | 03:18:02 | 0 | 14851 2 | 03:18:02 | 01:27:42 | 14852 | 21418 3 | 04:45:44 | 01:56:59 | 21419 | 30177 4 | 06:42:28 | 03:17:71 | 30178 | 45023 5 | 10:00:24 | 03:04:59 | 45024 | 58882 6 | 13:05:08 | 03:47:08 | 58883 | 75915 7 | 16:52:16 | 03:27:07 | 75916 | 91447 8 | 20:19:23 | 03:23:11 | 91448 | 106683 9 | 23:42:34 | 03:26:00 | 106684 | 122133 10 | 27:08:34 | 03:08:00 | 122134 | 136233 11 | 30:16:34 | 03:02:50 | 136234 | 149933 12 | 33:19:09 | 03:42:66 | 149934 | 166649 13 | 37:02:00 | 03:34:60 | 166650 | 182759 14 | 40:36:60 | 03:03:58 | 182760 | 196542 15 | 43:40:43 | 03:24:32 | 196543 | 211874 16 | 47:05:00 | 03:26:63 | 211875 | 227387 17 | 50:31:63 | 03:27:70 | 227388 | 242982 18 | 53:59:58 | 02:58:12 | 242983 | 256344 19 | 56:57:70 | 04:23:33 | 256345 | 276102 20 | 61:21:28 | 03:26:55 | 276103 | 291607 21 | 64:48:08 | 02:36:65 | 291608 | 303372 22 | 67:24:73 | 02:50:10 | 303373 | 316132 23 | 70:15:08 | 02:48:03 | 316133 | 328735 24 | 73:03:11 | 03:02:36 | 328736 | 342421
AccurateRip Summary Disc not found in AccurateRip DB.
All Tracks Album gain : -9.36 dB Peak : 1.000000 Statistics Read error : 0 Jitter error (maybe fixed) : 0 Retry sector count : 0 Damaged sector count : 0
Track 01 Filename : /Users/dimmac/Desktop/Greco/CD1/01 Juliette Greco - Si tu t'imagine.flac Pre-gap length : 00:02:00
Track gain : -9.18 dB Peak : 1.000000 CRC32 hash (test run) : 0E059F53 CRC32 hash : 0E059F53 CRC32 hash (skip zero) : E9C44CDA AccurateRip v1 signature : 427D8F5E AccurateRip v2 signature : 04981B44 ->Track not present in AccurateRip database. Statistics Read error : 0 Jitter error (maybe fixed) : 0 Retry sector count : 0 Damaged sector count : 0
Track 02 Filename : /Users/dimmac/Desktop/Greco/CD1/02 Juliette Greco - La fourmi.flac Pre-gap length : 00:02:00
Track gain : -7.01 dB Peak : 0.999573 CRC32 hash (test run) : 96E2B29A CRC32 hash : 96E2B29A CRC32 hash (skip zero) : C6DF93D8 AccurateRip v1 signature : 9B8DB3FD AccurateRip v2 signature : F0F81567 ->Track not present in AccurateRip database. Statistics Read error : 0 Jitter error (maybe fixed) : 0 Retry sector count : 0 Damaged sector count : 0
Track 03 Filename : /Users/dimmac/Desktop/Greco/CD1/03 Juliette Greco - Rue des Blancs-Manteaux.flac Pre-gap length : 00:02:00
Track gain : -9.38 dB Peak : 1.000000 CRC32 hash (test run) : CDE47415 CRC32 hash : CDE47415 CRC32 hash (skip zero) : 4E477F77 AccurateRip v1 signature : 7D404527 AccurateRip v2 signature : ECBD260D ->Track not present in AccurateRip database. Statistics Read error : 0 Jitter error (maybe fixed) : 0 Retry sector count : 0 Damaged sector count : 0
Track 04 Filename : /Users/dimmac/Desktop/Greco/CD1/04 Juliette Greco - La belle vie.flac Pre-gap length : 00:02:00
Track gain : -5.35 dB Peak : 0.922760 CRC32 hash (test run) : DF508278 CRC32 hash : DF508278 CRC32 hash (skip zero) : 8692CD53 AccurateRip v1 signature : FD69E34C AccurateRip v2 signature : C72B7ABE ->Track not present in AccurateRip database. Statistics Read error : 0 Jitter error (maybe fixed) : 0 Retry sector count : 0 Damaged sector count : 0
Track 05 Filename : /Users/dimmac/Desktop/Greco/CD1/05 Juliette Greco - Je suis comme je suis.flac Pre-gap length : 00:02:00
Track gain : -9.66 dB Peak : 1.000000 CRC32 hash (test run) : 77D446D7 CRC32 hash : 77D446D7 CRC32 hash (skip zero) : C46E2792 AccurateRip v1 signature : C7645369 AccurateRip v2 signature : 4FDBA5B2 ->Track not present in AccurateRip database. Statistics Read error : 0 Jitter error (maybe fixed) : 0 Retry sector count : 0 Damaged sector count : 0
Track 06 Filename : /Users/dimmac/Desktop/Greco/CD1/06 Juliette Greco - A la belle etoile.flac Pre-gap length : 00:02:00
Track gain : -9.30 dB Peak : 1.000000 CRC32 hash (test run) : 9214FCE2 CRC32 hash : 9214FCE2 CRC32 hash (skip zero) : E56DAD4C AccurateRip v1 signature : 2197585A AccurateRip v2 signature : F923605E ->Track not present in AccurateRip database. Statistics Read error : 0 Jitter error (maybe fixed) : 0 Retry sector count : 0 Damaged sector count : 0
Track 07 Filename : /Users/dimmac/Desktop/Greco/CD1/07 Juliette Greco - Les Enfants qui s'aiment.flac Pre-gap length : 00:02:00
Track gain : -8.31 dB Peak : 1.000000 CRC32 hash (test run) : F5A0E105 CRC32 hash : F5A0E105 CRC32 hash (skip zero) : 5E483324 AccurateRip v1 signature : 6F19B99B AccurateRip v2 signature : 791CE7EA ->Track not present in AccurateRip database. Statistics Read error : 0 Jitter error (maybe fixed) : 0 Retry sector count : 0 Damaged sector count : 0
Track 08 Filename : /Users/dimmac/Desktop/Greco/CD1/08 Juliette Greco - Amours perdues.flac Pre-gap length : 00:02:00
Track gain : -9.25 dB Peak : 0.989014 CRC32 hash (test run) : 4BC0DE48 CRC32 hash : 4BC0DE48 CRC32 hash (skip zero) : 864FB3DE AccurateRip v1 signature : 4417CD74 AccurateRip v2 signature : 9E6B68BE ->Track not present in AccurateRip database. Statistics Read error : 0 Jitter error (maybe fixed) : 0 Retry sector count : 0 Damaged sector count : 0
Track 09 Filename : /Users/dimmac/Desktop/Greco/CD1/09 Juliette Greco - Sous le ciel de Paris.flac Pre-gap length : 00:02:00
Track gain : -11.12 dB Peak : 1.000000 CRC32 hash (test run) : 9D5C0F25 CRC32 hash : 9D5C0F25 CRC32 hash (skip zero) : E4105147 AccurateRip v1 signature : A1C1DB91 AccurateRip v2 signature : 122FF12B ->Track not present in AccurateRip database. Statistics Read error : 0 Jitter error (maybe fixed) : 0 Retry sector count : 0 Damaged sector count : 0
Track 10 Filename : /Users/dimmac/Desktop/Greco/CD1/10 Juliette Greco - Embrasse-moi.flac Pre-gap length : 00:02:00
Track gain : -9.33 dB Peak : 1.000000 CRC32 hash (test run) : 8EFC2596 CRC32 hash : 8EFC2596 CRC32 hash (skip zero) : 5AED9E65 AccurateRip v1 signature : FF3F99DA AccurateRip v2 signature : CEDA95D5 ->Track not present in AccurateRip database. Statistics Read error : 0 Jitter error (maybe fixed) : 0 Retry sector count : 0 Damaged sector count : 0
Track 11 Filename : /Users/dimmac/Desktop/Greco/CD1/11 Juliette Greco - Les feuilles mortes.flac Pre-gap length : 00:02:00
Track gain : -8.54 dB Peak : 0.999969 CRC32 hash (test run) : F0A04CC0 CRC32 hash : F0A04CC0 CRC32 hash (skip zero) : 1A1571B8 AccurateRip v1 signature : 6D5DD560 AccurateRip v2 signature : 83D7D483 ->Track not present in AccurateRip database. Statistics Read error : 0 Jitter error (maybe fixed) : 0 Retry sector count : 0 Damaged sector count : 0
Track 12 Filename : /Users/dimmac/Desktop/Greco/CD1/12 Juliette Greco - Je hais les dimanches.flac Pre-gap length : 00:02:00
Track gain : -11.82 dB Peak : 1.000000 CRC32 hash (test run) : 01094BD8 CRC32 hash : 01094BD8 CRC32 hash (skip zero) : BF6407E7 AccurateRip v1 signature : D15B2E5E AccurateRip v2 signature : 5ED4900A ->Track not present in AccurateRip database. Statistics Read error : 0 Jitter error (maybe fixed) : 0 Retry sector count : 0 Damaged sector count : 0
Track 13 Filename : /Users/dimmac/Desktop/Greco/CD1/13 Juliette Greco - Il y avait.flac Pre-gap length : 00:02:00
Track gain : -10.00 dB Peak : 0.979950 CRC32 hash (test run) : EAA4FD98 CRC32 hash : EAA4FD98 CRC32 hash (skip zero) : CD1E9EC2 AccurateRip v1 signature : 5EC8F6E1 AccurateRip v2 signature : AFD8B32A ->Track not present in AccurateRip database. Statistics Read error : 0 Jitter error (maybe fixed) : 0 Retry sector count : 0 Damaged sector count : 0
Track 14 Filename : /Users/dimmac/Desktop/Greco/CD1/14 Juliette Greco - Romance.flac Pre-gap length : 00:02:00
Track gain : -7.99 dB Peak : 0.999969 CRC32 hash (test run) : 39D118E2 CRC32 hash : 39D118E2 CRC32 hash (skip zero) : EFCEB645 AccurateRip v1 signature : 4AEDBF13 AccurateRip v2 signature : 6664E225 ->Track not present in AccurateRip database. Statistics Read error : 0 Jitter error (maybe fixed) : 0 Retry sector count : 0 Damaged sector count : 0
Track 15 Filename : /Users/dimmac/Desktop/Greco/CD1/15 Juliette Greco - La chanson de Catherine.flac Pre-gap length : 00:02:00
Track gain : -4.29 dB Peak : 0.944855 CRC32 hash (test run) : 14EA51F1 CRC32 hash : 14EA51F1 CRC32 hash (skip zero) : 97EB8118 AccurateRip v1 signature : 3BF8B06D AccurateRip v2 signature : 0F9F474D ->Track not present in AccurateRip database. Statistics Read error : 0 Jitter error (maybe fixed) : 0 Retry sector count : 0 Damaged sector count : 0
Track 16 Filename : /Users/dimmac/Desktop/Greco/CD1/16 Juliette Greco - Comme un enfant puni.flac Pre-gap length : 00:02:00
Track gain : -4.10 dB Peak : 0.919739 CRC32 hash (test run) : ABD2558D CRC32 hash : ABD2558D CRC32 hash (skip zero) : 5F7E4292 AccurateRip v1 signature : 53ABFEDC AccurateRip v2 signature : E00A3F66 ->Track not present in AccurateRip database. Statistics Read error : 0 Jitter error (maybe fixed) : 0 Retry sector count : 0 Damaged sector count : 0
Track 17 Filename : /Users/dimmac/Desktop/Greco/CD1/17 Juliette Greco - Les dames de la poste.flac Pre-gap length : 00:02:00
Track gain : -9.78 dB Peak : 1.000000 CRC32 hash (test run) : DC23C82A CRC32 hash : DC23C82A CRC32 hash (skip zero) : A45B5E6E AccurateRip v1 signature : 6872519B AccurateRip v2 signature : B4FF8302 ->Track not present in AccurateRip database. Statistics Read error : 0 Jitter error (maybe fixed) : 0 Retry sector count : 0 Damaged sector count : 0
Track 18 Filename : /Users/dimmac/Desktop/Greco/CD1/18 Juliette Greco - La fiancee du pirate.flac Pre-gap length : 00:02:00
Track gain : -10.87 dB Peak : 0.917786 CRC32 hash (test run) : 1AA51391 CRC32 hash : 1AA51391 CRC32 hash (skip zero) : 17C78126 AccurateRip v1 signature : 71B90CFA AccurateRip v2 signature : 427BB7A8 ->Track not present in AccurateRip database. Statistics Read error : 0 Jitter error (maybe fixed) : 0 Retry sector count : 0 Damaged sector count : 0
Track 19 Filename : /Users/dimmac/Desktop/Greco/CD1/19 Juliette Greco - Barabara-Song.flac Pre-gap length : 00:02:00
Track gain : -10.78 dB Peak : 1.000000 CRC32 hash (test run) : 09DE45A6 CRC32 hash : 09DE45A6 CRC32 hash (skip zero) : 8A25AB80 AccurateRip v1 signature : F611E9E7 AccurateRip v2 signature : 1AF2F934 ->Track not present in AccurateRip database. Statistics Read error : 0 Jitter error (maybe fixed) : 0 Retry sector count : 0 Damaged sector count : 0
Track 20 Filename : /Users/dimmac/Desktop/Greco/CD1/20 Juliette Greco - L'amour est parti.flac Pre-gap length : 00:02:00
Track gain : -3.79 dB Peak : 0.958191 CRC32 hash (test run) : E8775643 CRC32 hash : E8775643 CRC32 hash (skip zero) : F721D7A4 AccurateRip v1 signature : 33D3DC16 AccurateRip v2 signature : CDE44E93 ->Track not present in AccurateRip database. Statistics Read error : 0 Jitter error (maybe fixed) : 0 Retry sector count : 0 Damaged sector count : 0
Track 21 Filename : /Users/dimmac/Desktop/Greco/CD1/21 Juliette Greco - Je mens.flac Pre-gap length : 00:02:00
Track gain : -6.22 dB Peak : 0.943970 CRC32 hash (test run) : 07CFC28D CRC32 hash : 07CFC28D CRC32 hash (skip zero) : EC379074 AccurateRip v1 signature : 72676F61 AccurateRip v2 signature : 2F6C72F3 ->Track not present in AccurateRip database. Statistics Read error : 0 Jitter error (maybe fixed) : 0 Retry sector count : 0 Damaged sector count : 0
Track 22 Filename : /Users/dimmac/Desktop/Greco/CD1/22 Juliette Greco - L'ombre.flac Pre-gap length : 00:02:00
Track gain : -6.87 dB Peak : 0.982178 CRC32 hash (test run) : BCB7BC3C CRC32 hash : BCB7BC3C CRC32 hash (skip zero) : 00C056A8 AccurateRip v1 signature : A22EC75B AccurateRip v2 signature : C8592D7F ->Track not present in AccurateRip database. Statistics Read error : 0 Jitter error (maybe fixed) : 0 Retry sector count : 0 Damaged sector count : 0
Track 23 Filename : /Users/dimmac/Desktop/Greco/CD1/23 Juliette Greco - Le coeur casse.flac Pre-gap length : 00:02:00
Track gain : -3.60 dB Peak : 0.960907 CRC32 hash (test run) : 74686672 CRC32 hash : 74686672 CRC32 hash (skip zero) : D87FC1D6 AccurateRip v1 signature : 2D7EE1D5 AccurateRip v2 signature : 57C9E05A ->Track not present in AccurateRip database. Statistics Read error : 0 Jitter error (maybe fixed) : 0 Retry sector count : 0 Damaged sector count : 0
Track 24 Filename : /Users/dimmac/Desktop/Greco/CD1/24 Juliette Greco - Les roulottes.flac Pre-gap length : 00:02:00
Track gain : -4.41 dB Peak : 0.947693 CRC32 hash (test run) : 642C9807 CRC32 hash : 642C9807 CRC32 hash (skip zero) : 2CAF5B86 AccurateRip v1 signature : B11BEABE AccurateRip v2 signature : EB98E050 ->Track not present in AccurateRip database. Statistics Read error : 0 Jitter error (maybe fixed) : 0 Retry sector count : 0 Damaged sector count : 0
No errors occurred
End of status report

CD2

X Lossless Decoder version 20120609 (141.0)
XLD extraction logfile from 2012-06-20 12:23:28 +0400
Juliette Greco / Le siècle d'or disc 2
Used drive : HL-DT-ST DVDRW GSA-S10N (revision BP10)
Ripper mode : XLD Secure RipperDisable audio cache : OK for the drive with a cache less than 1375KiBMake use of C2 pointers : NORead offset correction : 667Max retry count : 20Gap status : Analyzed, Appended
TOC of the extracted CD Track | Start | Length | Start sector | End sector --------------------------------------------------------- 1 | 00:00:00 | 03:28:56 | 0 | 15655 2 | 03:28:56 | 04:46:04 | 15656 | 37109 3 | 08:14:60 | 02:50:47 | 37110 | 49906 4 | 11:05:32 | 03:24:12 | 49907 | 65218 5 | 14:29:44 | 01:48:25 | 65219 | 73343 6 | 16:17:69 | 03:28:14 | 73344 | 88957 7 | 19:46:08 | 03:08:57 | 88958 | 103114 8 | 22:54:65 | 03:59:40 | 103115 | 121079 9 | 26:54:30 | 03:31:05 | 121080 | 136909 10 | 30:25:35 | 04:12:25 | 136910 | 155834 11 | 34:37:60 | 03:13:38 | 155835 | 170347 12 | 37:51:23 | 03:40:62 | 170348 | 186909 13 | 41:32:10 | 02:54:30 | 186910 | 199989 14 | 44:26:40 | 02:53:40 | 199990 | 213004 15 | 47:20:05 | 03:35:30 | 213005 | 229159 16 | 50:55:35 | 03:21:08 | 229160 | 244242 17 | 54:16:43 | 02:43:33 | 244243 | 256500 18 | 57:00:01 | 02:44:57 | 256501 | 268857 19 | 59:44:58 | 03:00:62 | 268858 | 282419 20 | 62:45:45 | 03:22:38 | 282420 | 297607 21 | 66:08:08 | 03:05:35 | 297608 | 311517 22 | 69:13:43 | 02:10:24 | 311518 | 321291 23 | 71:23:67 | 02:49:27 | 321292 | 333993 24 | 74:13:19 | 03:38:62 | 333994 | 350405
AccurateRip Summary Disc not found in AccurateRip DB.
All Tracks Album gain : -6.43 dB Peak : 1.000000 Statistics Read error : 0 Jitter error (maybe fixed) : 0 Retry sector count : 0 Damaged sector count : 0
Track 01 Filename : /Users/dimmac/Desktop/Greco/CD2/01 Juliette Greco - Les croix.flac Pre-gap length : 00:02:00
Track gain : -10.38 dB Peak : 0.978821 CRC32 hash (test run) : 5FD34EE7 CRC32 hash : 5FD34EE7 CRC32 hash (skip zero) : 6BE720E8 AccurateRip v1 signature : 1B6A72B5 AccurateRip v2 signature : ACECBFFD ->Track not present in AccurateRip database. Statistics Read error : 0 Jitter error (maybe fixed) : 0 Retry sector count : 0 Damaged sector count : 0
Track 02 Filename : /Users/dimmac/Desktop/Greco/CD2/02 Juliette Greco - La chanson de Margaret.flac Pre-gap length : 00:01:00
Track gain : -0.94 dB Peak : 0.896118 CRC32 hash (test run) : 51292A94 CRC32 hash : 51292A94 CRC32 hash (skip zero) : 63810FB3 AccurateRip v1 signature : FF1CCAB3 AccurateRip v2 signature : FB797CD8 ->Track not present in AccurateRip database. Statistics Read error : 0 Jitter error (maybe fixed) : 0 Retry sector count : 0 Damaged sector count : 0
Track 03 Filename : /Users/dimmac/Desktop/Greco/CD2/03 Juliette Greco - Ca va.flac Pre-gap length : 00:01:00
Track gain : -5.43 dB Peak : 0.966309 CRC32 hash (test run) : 8A5B6DDE CRC32 hash : 8A5B6DDE CRC32 hash (skip zero) : 5B2A5F8B AccurateRip v1 signature : 6F9DEFAC AccurateRip v2 signature : 6FDF5782 ->Track not present in AccurateRip database. Statistics Read error : 0 Jitter error (maybe fixed) : 0 Retry sector count : 0 Damaged sector count : 0
Track 04 Filename : /Users/dimmac/Desktop/Greco/CD2/04 Juliette Greco - Coin de rue.flac Pre-gap length : 00:01:00
Track gain : -3.84 dB Peak : 0.966431 CRC32 hash (test run) : E075346B CRC32 hash : E075346B CRC32 hash (skip zero) : AE5CF52C AccurateRip v1 signature : 3228C9D7 AccurateRip v2 signature : DB2F328E ->Track not present in AccurateRip database. Statistics Read error : 0 Jitter error (maybe fixed) : 0 Retry sector count : 0 Damaged sector count : 0
Track 05 Filename : /Users/dimmac/Desktop/Greco/CD2/05 Juliette Greco - L'eternel feminin.flac Pre-gap length : 00:01:00
Track gain : -4.44 dB Peak : 0.978363 CRC32 hash (test run) : 576337E5 CRC32 hash : 576337E5 CRC32 hash (skip zero) : 9945D2AA AccurateRip v1 signature : 35E4BA19 AccurateRip v2 signature : E8264094 ->Track not present in AccurateRip database. Statistics Read error : 0 Jitter error (maybe fixed) : 0 Retry sector count : 0 Damaged sector count : 0
Track 06 Filename : /Users/dimmac/Desktop/Greco/CD2/06 Juliette Greco - Chanson pour l'auvergnat.flac Pre-gap length : 00:01:00
Track gain : -2.63 dB Peak : 0.831940 CRC32 hash (test run) : AC1D8E81 CRC32 hash : AC1D8E81 CRC32 hash (skip zero) : 3299A479 AccurateRip v1 signature : 0439E949 AccurateRip v2 signature : 52425CCC ->Track not present in AccurateRip database. Statistics Read error : 0 Jitter error (maybe fixed) : 0 Retry sector count : 0 Damaged sector count : 0
Track 07 Filename : /Users/dimmac/Desktop/Greco/CD2/07 Juliette Greco - C'est a aimer que le temps passe.flac Pre-gap length : 00:01:00
Track gain : -5.39 dB Peak : 0.754211 CRC32 hash (test run) : 0E49344E CRC32 hash : 0E49344E CRC32 hash (skip zero) : 6402996C AccurateRip v1 signature : C85DEB1B AccurateRip v2 signature : 865795FF ->Track not present in AccurateRip database. Statistics Read error : 0 Jitter error (maybe fixed) : 0 Retry sector count : 0 Damaged sector count : 0
Track 08 Filename : /Users/dimmac/Desktop/Greco/CD2/08 Juliette Greco - Sans vous aimer.flac Pre-gap length : 00:01:00
Track gain : -4.61 dB Peak : 0.996246 CRC32 hash (test run) : 8198F14E CRC32 hash : 8198F14E CRC32 hash (skip zero) : 468ACD8E AccurateRip v1 signature : 6EA9C06C AccurateRip v2 signature : 96B04ABB ->Track not present in AccurateRip database. Statistics Read error : 0 Jitter error (maybe fixed) : 0 Retry sector count : 0 Damaged sector count : 0
Track 09 Filename : /Users/dimmac/Desktop/Greco/CD2/09 Juliette Greco - Le jour.flac Pre-gap length : 00:01:00
Track gain : -9.58 dB Peak : 0.999969 CRC32 hash (test run) : 10A4F7B7 CRC32 hash : 10A4F7B7 CRC32 hash (skip zero) : 0F933F14 AccurateRip v1 signature : D3758279 AccurateRip v2 signature : D3B808A4 ->Track not present in AccurateRip database. Statistics Read error : 0 Jitter error (maybe fixed) : 0 Retry sector count : 0 Damaged sector count : 0
Track 10 Filename : /Users/dimmac/Desktop/Greco/CD2/10 Juliette Greco - La valse.flac Pre-gap length : 00:01:00
Track gain : -4.34 dB Peak : 0.954193 CRC32 hash (test run) : D568C280 CRC32 hash : D568C280 CRC32 hash (skip zero) : B0AFD67C AccurateRip v1 signature : EBBB323D AccurateRip v2 signature : AF399D36 ->Track not present in AccurateRip database. Statistics Read error : 0 Jitter error (maybe fixed) : 0 Retry sector count : 0 Damaged sector count : 0
Track 11 Filename : /Users/dimmac/Desktop/Greco/CD2/11 Juliette Greco - Vous mon coeur.flac Pre-gap length : 00:01:00
Track gain : -2.41 dB Peak : 0.945068 CRC32 hash (test run) : D1609DB4 CRC32 hash : D1609DB4 CRC32 hash (skip zero) : 8D077FEF AccurateRip v1 signature : 19B9075F AccurateRip v2 signature : CEB33B97 ->Track not present in AccurateRip database. Statistics Read error : 0 Jitter error (maybe fixed) : 0 Retry sector count : 0 Damaged sector count : 0
Track 12 Filename : /Users/dimmac/Desktop/Greco/CD2/12 Juliette Greco - La guinche.flac Pre-gap length : 00:01:00
Track gain : -7.91 dB Peak : 0.872009 CRC32 hash (test run) : B62DCCD0 CRC32 hash : B62DCCD0 CRC32 hash (skip zero) : FD9C6602 AccurateRip v1 signature : 2F6AE2E3 AccurateRip v2 signature : EEF67F3C ->Track not present in AccurateRip database. Statistics Read error : 0 Jitter error (maybe fixed) : 0 Retry sector count : 0 Damaged sector count : 0
Track 13 Filename : /Users/dimmac/Desktop/Greco/CD2/13 Juliette Greco - L'amour.flac Pre-gap length : 00:01:00
Track gain : -3.83 dB Peak : 0.987732 CRC32 hash (test run) : D55B5BE0 CRC32 hash : D55B5BE0 CRC32 hash (skip zero) : 86195E9F AccurateRip v1 signature : A153BAD0 AccurateRip v2 signature : F1C23011 ->Track not present in AccurateRip database. Statistics Read error : 0 Jitter error (maybe fixed) : 0 Retry sector count : 0 Damaged sector count : 0
Track 14 Filename : /Users/dimmac/Desktop/Greco/CD2/14 Juliette Greco - Guinguettes.flac Pre-gap length : 00:01:00
Track gain : -3.20 dB Peak : 0.989838 CRC32 hash (test run) : CA7F9939 CRC32 hash : CA7F9939 CRC32 hash (skip zero) : 6199B870 AccurateRip v1 signature : 8D2C5FB5 AccurateRip v2 signature : 295FE46B ->Track not present in AccurateRip database. Statistics Read error : 0 Jitter error (maybe fixed) : 0 Retry sector count : 0 Damaged sector count : 0
Track 15 Filename : /Users/dimmac/Desktop/Greco/CD2/15 Juliette Greco - La valse de Gervais.flac Pre-gap length : 00:01:00
Track gain : -0.81 dB Peak : 0.957947 CRC32 hash (test run) : 002D810E CRC32 hash : 002D810E CRC32 hash (skip zero) : 0208DC7D AccurateRip v1 signature : EBFC9007 AccurateRip v2 signature : F997DB27 ->Track not present in AccurateRip database. Statistics Read error : 0 Jitter error (maybe fixed) : 0 Retry sector count : 0 Damaged sector count : 0
Track 16 Filename : /Users/dimmac/Desktop/Greco/CD2/16 Juliette Greco - Miarka.flac Pre-gap length : 00:01:00
Track gain : -6.15 dB Peak : 0.952972 CRC32 hash (test run) : 6FFB36A7 CRC32 hash : 6FFB36A7 CRC32 hash (skip zero) : A490D8C6 AccurateRip v1 signature : C20CE925 AccurateRip v2 signature : 567BF99F ->Track not present in AccurateRip database. Statistics Read error : 0 Jitter error (maybe fixed) : 0 Retry sector count : 0 Damaged sector count : 0
Track 17 Filename : /Users/dimmac/Desktop/Greco/CD2/17 Juliette Greco - T'en as.flac Pre-gap length : 00:01:00
Track gain : -6.87 dB Peak : 0.795074 CRC32 hash (test run) : 4F7BF543 CRC32 hash : 4F7BF543 CRC32 hash (skip zero) : 1C64D1F3 AccurateRip v1 signature : 3CBEC237 AccurateRip v2 signature : 55DCB330 ->Track not present in AccurateRip database. Statistics Read error : 0 Jitter error (maybe fixed) : 0 Retry sector count : 0 Damaged sector count : 0
Track 18 Filename : /Users/dimmac/Desktop/Greco/CD2/18 Juliette Greco - Mefiez-vous de Paris.flac Pre-gap length : 00:01:00
Track gain : -6.39 dB Peak : 0.861755 CRC32 hash (test run) : 8B27DBBB CRC32 hash : 8B27DBBB CRC32 hash (skip zero) : F605FD1D AccurateRip v1 signature : A7F922F8 AccurateRip v2 signature : 56BB96E7 ->Track not present in AccurateRip database. Statistics Read error : 0 Jitter error (maybe fixed) : 0 Retry sector count : 0 Damaged sector count : 0
Track 19 Filename : /Users/dimmac/Desktop/Greco/CD2/19 Juliette Greco - Mon coeur n'etait pas fait pour ca.flac Pre-gap length : 00:01:00
Track gain : -5.12 dB Peak : 0.955963 CRC32 hash (test run) : 7F09A4F1 CRC32 hash : 7F09A4F1 CRC32 hash (skip zero) : 5FEDBF05 AccurateRip v1 signature : E81807C9 AccurateRip v2 signature : D70698F1 ->Track not present in AccurateRip database. Statistics Read error : 0 Jitter error (maybe fixed) : 0 Retry sector count : 0 Damaged sector count : 0
Track 20 Filename : /Users/dimmac/Desktop/Greco/CD2/20 Juliette Greco - La complainte du telephone.flac Pre-gap length : 00:01:00
Track gain : -9.45 dB Peak : 0.991974 CRC32 hash (test run) : 85BCA292 CRC32 hash : 85BCA292 CRC32 hash (skip zero) : F380604A AccurateRip v1 signature : 83ECBC6E AccurateRip v2 signature : 9EFC96AB ->Track not present in AccurateRip database. Statistics Read error : 0 Jitter error (maybe fixed) : 0 Retry sector count : 0 Damaged sector count : 0
Track 21 Filename : /Users/dimmac/Desktop/Greco/CD2/21 Juliette Greco - Musique mecanique.flac Pre-gap length : 00:01:00
Track gain : -7.28 dB Peak : 1.000000 CRC32 hash (test run) : 9EFD6212 CRC32 hash : 9EFD6212 CRC32 hash (skip zero) : CE26B140 AccurateRip v1 signature : 18DEC0CD AccurateRip v2 signature : 92EA6A26 ->Track not present in AccurateRip database. Statistics Read error : 0 Jitter error (maybe fixed) : 0 Retry sector count : 0 Damaged sector count : 0
Track 22 Filename : /Users/dimmac/Desktop/Greco/CD2/22 Juliette Greco - La fete est la.flac Pre-gap length : 00:01:00
Track gain : -7.22 dB Peak : 0.970184 CRC32 hash (test run) : AF661A9E CRC32 hash : AF661A9E CRC32 hash (skip zero) : AA583F4F AccurateRip v1 signature : A83E1D20 AccurateRip v2 signature : C0496D52 ->Track not present in AccurateRip database. Statistics Read error : 0 Jitter error (maybe fixed) : 0 Retry sector count : 0 Damaged sector count : 0
Track 23 Filename : /Users/dimmac/Desktop/Greco/CD2/23 Juliette Greco - La valse brune.flac Pre-gap length : 00:01:00
Track gain : -4.84 dB Peak : 0.984528 CRC32 hash (test run) : B99BA40C CRC32 hash : B99BA40C CRC32 hash (skip zero) : D2ECD788 AccurateRip v1 signature : 73E3B08A AccurateRip v2 signature : D720668C ->Track not present in AccurateRip database. Statistics Read error : 0 Jitter error (maybe fixed) : 0 Retry sector count : 0 Damaged sector count : 0
Track 24 Filename : /Users/dimmac/Desktop/Greco/CD2/24 Juliette Greco - Madame Arthur.flac Pre-gap length : 00:01:00
Track gain : -6.92 dB Peak : 1.000000 CRC32 hash (test run) : 6FF229C9 CRC32 hash : 6FF229C9 CRC32 hash (skip zero) : B353ADDE AccurateRip v1 signature : 0D66D6D0 AccurateRip v2 signature : F5713CBA ->Track not present in AccurateRip database. Statistics Read error : 0 Jitter error (maybe fixed) : 0 Retry sector count : 0 Damaged sector count : 0
No errors occurred
End of status report

Об альбоме (сборнике)

Альбом предоставлен пользователем mcach
Точнее были предоставлены файлы. Рип делался пользователем mcach.

Для скачивания файла отключите блокировку рекламы и перезагрузите страницу.

disable adblock Как отключить блокировку рекламы?

Скачать по магнет ссылке 496 MB 

Войти с помощью:

Похожие раздачи

Внимание! Контент 18+ если вы младше данного возраста, НЕ переходите по ссылке!!!
(French Pop, Chanson) De Calm - Disparue Juliette - 2017, MP3, 320 kbps
 90 MB   0 | 0   25-Авг-17 12:50   2
(Chanson) Juliette - Mutatis Mutandis - 2005, FLAC (image+.cue), lossless
 328 MB   0 | 0   30-Апр-17 21:28   0


   
Текущее время: 14-Авг 19:38 :: Часовой пояс: UTC ± 0