Marika Cailly / Chante
Жанр: Chanson
Год издания: 2009
Издатель (лейбл): Meyer Records
Аудиокодек: FLAC (*.flac)
Тип рипа: tracks+.cue
Битрейт аудио: lossless
Продолжительность: 00:43:24
Источник (релизер): What.cd
Наличие сканов в содержимом раздачи: нет
Треклист:
01. Bonne nouvelle [04:17]
02. Cafe tabac [02:15]
03. Elle ecoute pousser les fleurs [02:42]
04. Je l'aime a mourir [03:48]
05. Les petits cafes [03:08]
06. Dominique [03:26]
07. Jardin d'hiver [04:55]
08. Un jour comme un autre [04:23]
09. Les chevaliers cathares [03:37]
10. La princesse et le troubadour live [02:52]
11. Octobre live [03:47]
12. Elle se reveille [04:09]

Лог создания рипа

Exact Audio Copy V1.0 beta 3 from 29. August 2011
EAC extraction logfile from 13. June 2012, 20:12
Marika Cailly / Chante
Used drive : PIONEER DVD-RW DVR-220L Adapter: 0 ID: 3
Read mode : SecureUtilize accurate stream : YesDefeat audio cache : YesMake use of C2 pointers : No
Read offset correction : 6Overread into Lead-In and Lead-Out : NoFill up missing offset samples with silence : YesDelete leading and trailing silent blocks : NoNull samples used in CRC calculations : YesUsed interface : Native Win32 interface for Win NT & 2000Gap handling : Appended to previous track
Used output format : User Defined EncoderSelected bitrate : 1024 kBit/sQuality : HighAdd ID3 tag : NoCommand line compressor : C:\Program Files (x86)\Exact Audio Copy\Flac\flac.exeAdditional command line options : -8 -V -T "ARTIST=%artist%" -T "TITLE=%title%" -T "ALBUM=%albumtitle%" -T "DATE=%year%" -T "TRACKNUMBER=%tracknr%" -T "GENRE=%genre%" -T "PERFORMER=%albuminterpret%" -T "COMPOSER=%composer%" %haslyrics%--tag-from-file=LYRICS="%lyricsfile%"%haslyrics% -T "ALBUMARTIST=%albumartist%" -T "DISCNUMBER=%cdnumber%" -T "TOTALDISCS=%totalcds%" -T "TOTALTRACKS=%numtracks%" -T "COMMENT=%comment%" %source% -o %dest%
TOC of the extracted CD
Track | Start | Length | Start sector | End sector --------------------------------------------------------- 1 | 0:00.00 | 4:17.55 | 0 | 19329 2 | 4:17.55 | 2:15.63 | 19330 | 29517 3 | 6:33.43 | 2:42.46 | 29518 | 41713 4 | 9:16.14 | 3:48.58 | 41714 | 58871 5 | 13:04.72 | 3:08.06 | 58872 | 72977 6 | 16:13.03 | 3:26.11 | 72978 | 88438 7 | 19:39.14 | 4:55.45 | 88439 | 110608 8 | 24:34.59 | 4:23.59 | 110609 | 130392 9 | 28:58.43 | 3:37.58 | 130393 | 146725 10 | 32:36.26 | 2:52.16 | 146726 | 159641 11 | 35:28.42 | 3:47.06 | 159642 | 176672 12 | 39:15.48 | 4:09.10 | 176673 | 195357
Track 1
Filename E:\Marika Cailly - Chante\01 - Bonne nouvelle.wav
Pre-gap length 0:00:02.00
Peak level 97.7 % Extraction speed 0.6 X Track quality 100.0 % Test CRC DCB10C2C Copy CRC DCB10C2C Accurately ripped (confidence 1) [73C80F6A] (AR v1) Copy OK
Track 2
Filename E:\Marika Cailly - Chante\02 - Café tabac.wav
Pre-gap length 0:00:02.26
Peak level 97.7 % Extraction speed 0.6 X Track quality 100.0 % Test CRC 4956BBCB Copy CRC 4956BBCB Accurately ripped (confidence 1) [305FF4C7] (AR v1) Copy OK
Track 3
Filename E:\Marika Cailly - Chante\03 - Elle ecoute pousser les fleurs.wav
Pre-gap length 0:00:03.00
Peak level 97.7 % Extraction speed 0.6 X Track quality 100.0 % Test CRC 2D6DF6C3 Copy CRC 2D6DF6C3 Accurately ripped (confidence 1) [652AF31C] (AR v1) Copy OK
Track 4
Filename E:\Marika Cailly - Chante\04 - Je l'aime à mourir.wav
Pre-gap length 0:00:04.18
Peak level 97.7 % Extraction speed 0.7 X Track quality 100.0 % Test CRC 10DB92E5 Copy CRC 10DB92E5 Accurately ripped (confidence 1) [7A51E0E2] (AR v1) Copy OK
Track 5
Filename E:\Marika Cailly - Chante\05 - Les petits cafès.wav
Pre-gap length 0:00:04.10
Peak level 97.7 % Extraction speed 0.7 X Track quality 100.0 % Test CRC 7BB96DAB Copy CRC 7BB96DAB Accurately ripped (confidence 1) [57D59A9F] (AR v1) Copy OK
Track 6
Filename E:\Marika Cailly - Chante\06 - Dominique.wav
Pre-gap length 0:00:02.61
Peak level 77.3 % Extraction speed 0.6 X Track quality 99.9 % Test CRC C30FAF86 Copy CRC C30FAF86 Accurately ripped (confidence 1) [C994BA1C] (AR v1) Copy OK
Track 7
Filename E:\Marika Cailly - Chante\07 - Jardin d'hiver.wav
Pre-gap length 0:00:03.40
Peak level 94.3 % Extraction speed 0.8 X Track quality 100.0 % Test CRC 49353E23 Copy CRC 49353E23 Accurately ripped (confidence 1) [F99AC1D2] (AR v1) Copy OK
Track 8
Filename E:\Marika Cailly - Chante\08 - Un jour comme un autre.wav
Pre-gap length 0:00:03.45
Peak level 97.7 % Extraction speed 0.8 X Track quality 100.0 % Test CRC F323FC76 Copy CRC F323FC76 Accurately ripped (confidence 1) [0E359B18] (AR v1) Copy OK
Track 9
Filename E:\Marika Cailly - Chante\09 - Les chevaliers cathares.wav
Pre-gap length 0:00:01.42
Peak level 97.7 % Extraction speed 0.7 X Track quality 99.9 % Test CRC 0497B525 Copy CRC 0497B525 Accurately ripped (confidence 1) [8539D50B] (AR v1) Copy OK
Track 10
Filename E:\Marika Cailly - Chante\10 - La princesse et le troubadour live.wav
Pre-gap length 0:00:03.06
Peak level 91.3 % Extraction speed 0.8 X Track quality 100.0 % Test CRC 9D1C0738 Copy CRC 9D1C0738 Accurately ripped (confidence 1) [61AD911E] (AR v1) Copy OK
Track 11
Filename E:\Marika Cailly - Chante\11 - Octobre live.wav
Peak level 89.3 % Extraction speed 0.7 X Track quality 99.9 % Test CRC 94A924F3 Copy CRC 94A924F3 Accurately ripped (confidence 1) [15829323] (AR v1) Copy OK
Track 12
Filename E:\Marika Cailly - Chante\12 - Elle se reveille.wav
Pre-gap length 0:00:03.78
Peak level 97.7 % Extraction speed 0.9 X Track quality 100.0 % Test CRC E3EE596C Copy CRC E3EE596C Accurately ripped (confidence 1) [460805B7] (AR v1) Copy OK
All tracks accurately ripped
No errors occurred
End of status report
---- CUETools DB Plugin V2.1.3
[CTDB TOCID: cCX_Ft96HyDojY.yyMVZ0.6Upug-] found, Submit result: cCX_Ft96HyDojY.yyMVZ0.6Upug- has been confirmed[ec959075] (1/1) Accurately ripped
==== Log checksum 858D75CFEEEFFE0FD3D132AD63D4A55DA5D6FD531517B3DF5B80CEDA8ECAFF33 ====

Содержание индексной карты (.CUE)

REM GENRE JazzREM DATE 2008REM DISCID B60A2C0CREM COMMENT "ExactAudioCopy v1.0b3"PERFORMER "Marika Cailly"TITLE "Chante"FILE "01 - Bonne nouvelle.wav" WAVE TRACK 01 AUDIO TITLE "Bonne nouvelle" PERFORMER "Marika Cailly" FLAGS DCP INDEX 01 00:00:00 TRACK 02 AUDIO TITLE "Cafe tabac" PERFORMER "Marika Cailly" FLAGS DCP INDEX 00 04:15:35FILE "02 - Cafe tabac.wav" WAVE INDEX 01 00:00:00 TRACK 03 AUDIO TITLE "Elle ecoute pousser les fleurs" PERFORMER "Marika Cailly" FLAGS DCP INDEX 00 02:12:63FILE "03 - Elle ecoute pousser les fleurs.wav" WAVE INDEX 01 00:00:00 TRACK 04 AUDIO TITLE "Je l'aime a mourir" PERFORMER "Marika Cailly" FLAGS DCP INDEX 00 02:38:32FILE "04 - Je l'aime a mourir.wav" WAVE INDEX 01 00:00:00 TRACK 05 AUDIO TITLE "Les petits cafes" PERFORMER "Marika Cailly" FLAGS DCP INDEX 00 03:44:50FILE "05 - Les petits cafes.wav" WAVE INDEX 01 00:00:00 TRACK 06 AUDIO TITLE "Dominique" PERFORMER "Marika Cailly" FLAGS DCP INDEX 00 03:05:35FILE "06 - Dominique.wav" WAVE INDEX 01 00:00:00 TRACK 07 AUDIO TITLE "Jardin d'hiver" PERFORMER "Marika Cailly" FLAGS DCP INDEX 00 03:22:56FILE "07 - Jardin d'hiver.wav" WAVE INDEX 01 00:00:00 TRACK 08 AUDIO TITLE "Un jour comme un autre" PERFORMER "Marika Cailly" FLAGS DCP INDEX 00 04:52:11FILE "08 - Un jour comme un autre.wav" WAVE INDEX 01 00:00:00 TRACK 09 AUDIO TITLE "Les chevaliers cathares" PERFORMER "Marika Cailly" FLAGS DCP INDEX 00 04:22:27FILE "09 - Les chevaliers cathares.wav" WAVE INDEX 01 00:00:00 TRACK 10 AUDIO TITLE "La princesse et le troubadour live" PERFORMER "Marika Cailly" FLAGS DCP INDEX 00 03:34:53FILE "10 - La princesse et le troubadour live.wav" WAVE INDEX 01 00:00:00FILE "11 - Octobre live.wav" WAVE TRACK 11 AUDIO TITLE "Octobre live" PERFORMER "Marika Cailly" FLAGS DCP INDEX 01 00:00:00 TRACK 12 AUDIO TITLE "Elle se reveille" PERFORMER "Marika Cailly" FLAGS DCP INDEX 00 03:43:22FILE "12 - Elle se reveille.wav" WAVE INDEX 01 00:00:00

To download the file disable ad blocking, and reload the page.

disable adblock How to disable ad blocking?

Download by magnet link 243 MB Download Torrent

Login using:

Similar topics

(French Chanson, Pop) Fishbach - A ta merci (deluxe) - 2018, MP3, 320 kbps
 170 MB   0 | 0   08-Feb-18 08:35   1


   
Current time is: 18-Oct 04:38 :: All times are UTC ± 0