VA - Pop à Paris - Psyché-rock et minijupes
Жанр: French Chanson
Страна-производитель диска: Germany
Год издания: 2003
Издатель (лейбл): Universal Music
Страна: France
Аудиокодек: FLAC (*.flac)
Тип рипа: tracks+.cue
Битрейт аудио: lossless
Источник (релизер): Диск из личной коллекции
Наличие сканов в содержимом раздачи: да
Продолжительность альбома: 01:38:56

Треклист CD 01

01. Johnny Hallyday – Mal.02. Brigitte Bardot – Tu veux ou tu veux pas.03. Michel Polnareff – Le roi des fourmis.04. Eileen – Ces bottes sont faites pour marcher.05. David Alexandre Winter – Qu'est-ce que j'ai dansé!.06. France Gall – Dady da da.flac07. Monty – Le collège.flac08. Marie Laforêt – Marie douceur - Marie colère.09. Claude François – Eloïse.flac10. Jacqueline Taïeb – 7 heures du matin.11. Dominique Walter – Les petits boudins.12. Valérie Lagrange – Ce que je suis.13. Henri Salvador – Carnaby Street.14. Delphine – La fermeture éclair.15. Eric Charden – Le monde est gris, le monde est bleu.16. Elsa – Ecoutez.flac17. Frank Alamo – Heureux tous les deux.18. Serge Gainsbourg – Marilu.

Треклист CD 02

01. Serge Gainsbourg – L'anamour.02. Brigitte Bardot – Contact.03. Charlotte Leslie – Les filles c'est fait....04. Claude Francois – Hip Hip Hip Hurrah.05. Annie Philippe – C'est la mode.06. Michel Polnareff – L'oiseau de nuit.07. France Gall – Teenie Weenie Boppie.08. Monique Thubert – Avec les oreilles.09. Eddy Mitchell – Et s'il n'en reste qu'un.10. Marie Laforêt – D'être à vous.11. Nino Ferrer – Le roi d'Angleterre.12. Anna Karina – Roller Girl.13. Johnny Halliday – Noir c'est noir.14. Nicoletta – Le grand amour.15. Messieurs Richard de Bordeaux et Daniel Beretta – La drague.16. Stone – L'antiquité.flac17. Yper-Sound (Les) – Psyché rock.

Лог создания рипа CD 01

Exact Audio Copy V1.0 beta 3 from 29. August 2011
EAC extraction logfile from 18. November 2012, 20:51
Various / Pop à Paris - Psyché-rock et minijupes (CD1)
Used drive : Optiarc DVD RW AD-7260S Adapter: 1 ID: 0
Read mode : SecureUtilize accurate stream : YesDefeat audio cache : YesMake use of C2 pointers : No
Read offset correction : 48Overread into Lead-In and Lead-Out : NoFill up missing offset samples with silence : YesDelete leading and trailing silent blocks : NoNull samples used in CRC calculations : YesUsed interface : Native Win32 interface for Win NT & 2000Gap handling : Appended to previous track
Used output format : User Defined EncoderSelected bitrate : 128 kBit/sQuality : HighAdd ID3 tag : NoCommand line compressor : C:\Program Files\Exact Audio Copy\Flac\flac.exeAdditional command line options : -8 -V -T "ARTIST=%artist%" -T "TITLE=%title%" -T "ALBUM=%albumtitle%" -T "DATE=%year%" -T "TRACKNUMBER=%tracknr%" -T "GENRE=%genre%" -T "COMMENT=EAC FLAC -8" %source%
TOC of the extracted CD
Track | Start | Length | Start sector | End sector --------------------------------------------------------- 1 | 0:00.00 | 2:40.19 | 0 | 12018 2 | 2:40.19 | 2:34.10 | 12019 | 23578 3 | 5:14.29 | 2:50.29 | 23579 | 36357 4 | 8:04.58 | 2:36.46 | 36358 | 48103 5 | 10:41.29 | 2:29.33 | 48104 | 59311 6 | 13:10.62 | 2:41.62 | 59312 | 71448 7 | 15:52.49 | 2:34.43 | 71449 | 83041 8 | 18:27.17 | 2:53.65 | 83042 | 96081 9 | 21:21.07 | 5:34.67 | 96082 | 121198 10 | 26:55.74 | 2:19.49 | 121199 | 131672 11 | 29:15.48 | 2:07.00 | 131673 | 141197 12 | 31:22.48 | 3:18.62 | 141198 | 156109 13 | 34:41.35 | 2:27.70 | 156110 | 167204 14 | 37:09.30 | 2:39.24 | 167205 | 179153 15 | 39:48.54 | 3:05.54 | 179154 | 193082 16 | 42:54.33 | 2:48.04 | 193083 | 205686 17 | 45:42.37 | 2:49.45 | 205687 | 218406 18 | 48:32.07 | 2:33.68 | 218407 | 229949
Track 1
Filename C:\Users\Димон\Desktop\123\01. Johnny Hallyday – Mal.wav
Pre-gap length 0:00:02.00
Peak level 96.0 % Extraction speed 2.1 X Track quality 100.0 % Test CRC F1A3E077 Copy CRC F1A3E077 Track not present in AccurateRip database Copy OK
Track 2
Filename C:\Users\Димон\Desktop\123\02. Brigitte Bardot – Tu veux ou tu veux pas.wav
Peak level 98.8 % Extraction speed 2.3 X Track quality 100.0 % Test CRC 574DC0E6 Copy CRC 574DC0E6 Track not present in AccurateRip database Copy OK
Track 3
Filename C:\Users\Димон\Desktop\123\03. Michel Polnareff – Le roi des fourmis.wav
Peak level 96.0 % Extraction speed 2.5 X Track quality 100.0 % Test CRC 752EFD92 Copy CRC 752EFD92 Track not present in AccurateRip database Copy OK
Track 4
Filename C:\Users\Димон\Desktop\123\04. Eileen – Ces bottes sont faites pour marcher.wav
Peak level 90.0 % Extraction speed 2.6 X Track quality 100.0 % Test CRC DF05E73F Copy CRC DF05E73F Track not present in AccurateRip database Copy OK
Track 5
Filename C:\Users\Димон\Desktop\123\05. David Alexandre Winter – Qu'est-ce que j'ai dansé!.wav
Peak level 98.8 % Extraction speed 2.7 X Track quality 100.0 % Test CRC BFC7CE33 Copy CRC BFC7CE33 Track not present in AccurateRip database Copy OK
Track 6
Filename C:\Users\Димон\Desktop\123\06. France Gall – Dady da da.wav
Peak level 98.8 % Extraction speed 2.9 X Track quality 100.0 % Test CRC CFBCA979 Copy CRC CFBCA979 Track not present in AccurateRip database Copy OK
Track 7
Filename C:\Users\Димон\Desktop\123\07. Monty – Le collège.wav
Peak level 98.8 % Extraction speed 3.0 X Track quality 100.0 % Test CRC 0A72DC8F Copy CRC 0A72DC8F Track not present in AccurateRip database Copy OK
Track 8
Filename C:\Users\Димон\Desktop\123\08. Marie Laforêt – Marie douceur - Marie colère.wav
Peak level 85.6 % Extraction speed 3.2 X Track quality 100.0 % Test CRC A664891C Copy CRC A664891C Track not present in AccurateRip database Copy OK
Track 9
Filename C:\Users\Димон\Desktop\123\09. Claude François – Eloïse.wav
Peak level 98.8 % Extraction speed 3.7 X Track quality 100.0 % Test CRC C5450C99 Copy CRC C5450C99 Track not present in AccurateRip database Copy OK
Track 10
Filename C:\Users\Димон\Desktop\123\10. Jacqueline Taïeb – 7 heures du matin.wav
Peak level 96.0 % Extraction speed 3.4 X Track quality 100.0 % Test CRC D4C08A2B Copy CRC D4C08A2B Track not present in AccurateRip database Copy OK
Track 11
Filename C:\Users\Димон\Desktop\123\11. Dominique Walter – Les petits boudins.wav
Peak level 98.8 % Extraction speed 3.4 X Track quality 100.0 % Test CRC BEA0EB01 Copy CRC BEA0EB01 Track not present in AccurateRip database Copy OK
Track 12
Filename C:\Users\Димон\Desktop\123\12. Valérie Lagrange – Ce que je suis.wav
Peak level 98.8 % Extraction speed 3.8 X Track quality 100.0 % Test CRC 1F5BC5BC Copy CRC 1F5BC5BC Track not present in AccurateRip database Copy OK
Track 13
Filename C:\Users\Димон\Desktop\123\13. Henri Salvador – Carnaby Street.wav
Peak level 90.6 % Extraction speed 3.7 X Track quality 100.0 % Test CRC 9BB66FD3 Copy CRC 9BB66FD3 Track not present in AccurateRip database Copy OK
Track 14
Filename C:\Users\Димон\Desktop\123\14. Delphine – La fermeture éclair.wav
Peak level 96.0 % Extraction speed 3.9 X Track quality 100.0 % Test CRC E4B65702 Copy CRC E4B65702 Track not present in AccurateRip database Copy OK
Track 15
Filename C:\Users\Димон\Desktop\123\15. Eric Charden – Le monde est gris, le monde est bleu.wav
Peak level 98.8 % Extraction speed 4.1 X Track quality 100.0 % Test CRC A2B5C22F Copy CRC A2B5C22F Track not present in AccurateRip database Copy OK
Track 16
Filename C:\Users\Димон\Desktop\123\16. Elsa – Ecoutez.wav
Peak level 98.8 % Extraction speed 4.2 X Track quality 100.0 % Test CRC AFF0C3E0 Copy CRC AFF0C3E0 Track not present in AccurateRip database Copy OK
Track 17
Filename C:\Users\Димон\Desktop\123\17. Frank Alamo – Heureux tous les deux.wav
Peak level 98.8 % Extraction speed 4.2 X Track quality 100.0 % Test CRC 22561069 Copy CRC 22561069 Track not present in AccurateRip database Copy OK
Track 18
Filename C:\Users\Димон\Desktop\123\18. Serge Gainsbourg – Marilu.wav
Peak level 98.8 % Extraction speed 4.2 X Track quality 100.0 % Test CRC 9F2D3784 Copy CRC 9F2D3784 Track not present in AccurateRip database Copy OK
None of the tracks are present in the AccurateRip database
No errors occurred
End of status report
---- CUETools DB Plugin V2.1.3
[CTDB TOCID: J3.Kz9g4inKiep.62EG1w_IEJPw-] found, Submit result: already submitted[f49da616] (1/1) Accurately ripped

Лог создания рипа CD 02

Exact Audio Copy V1.0 beta 3 from 29. August 2011
EAC extraction logfile from 18. November 2012, 21:28
Various / Pop à Paris - Psyché-rock et minijupes (CD2)
Used drive : Optiarc DVD RW AD-7260S Adapter: 1 ID: 0
Read mode : SecureUtilize accurate stream : YesDefeat audio cache : YesMake use of C2 pointers : No
Read offset correction : 48Overread into Lead-In and Lead-Out : NoFill up missing offset samples with silence : YesDelete leading and trailing silent blocks : NoNull samples used in CRC calculations : YesUsed interface : Native Win32 interface for Win NT & 2000Gap handling : Appended to previous track
Used output format : User Defined EncoderSelected bitrate : 128 kBit/sQuality : HighAdd ID3 tag : NoCommand line compressor : C:\Program Files\Exact Audio Copy\Flac\flac.exeAdditional command line options : -8 -V -T "ARTIST=%artist%" -T "TITLE=%title%" -T "ALBUM=%albumtitle%" -T "DATE=%year%" -T "TRACKNUMBER=%tracknr%" -T "GENRE=%genre%" -T "COMMENT=EAC FLAC -8" %source%
TOC of the extracted CD
Track | Start | Length | Start sector | End sector --------------------------------------------------------- 1 | 0:00.00 | 2:39.72 | 0 | 11996 2 | 2:39.72 | 2:22.70 | 11997 | 22716 3 | 5:02.67 | 3:00.30 | 22717 | 36246 4 | 8:03.22 | 2:51.03 | 36247 | 49074 5 | 10:54.25 | 2:40.31 | 49075 | 61105 6 | 13:34.56 | 2:54.22 | 61106 | 74177 7 | 16:29.03 | 3:01.35 | 74178 | 87787 8 | 19:30.38 | 2:14.38 | 87788 | 97875 9 | 21:45.01 | 3:14.50 | 97876 | 112475 10 | 24:59.51 | 2:53.03 | 112476 | 125453 11 | 27:52.54 | 2:53.23 | 125454 | 138451 12 | 30:46.02 | 2:26.56 | 138452 | 149457 13 | 33:12.58 | 3:16.61 | 149458 | 164218 14 | 36:29.44 | 2:13.44 | 164219 | 174237 15 | 38:43.13 | 2:55.39 | 174238 | 187401 16 | 41:38.52 | 3:33.70 | 187402 | 203446 17 | 45:12.47 | 2:37.28 | 203447 | 215249
Track 1
Filename C:\Users\Димон\Desktop\123\01. Serge Gainsbourg – L'anamour.wav
Pre-gap length 0:00:02.00
Peak level 98.8 % Extraction speed 2.1 X Track quality 100.0 % Test CRC 8B700139 Copy CRC 8B700139 Track not present in AccurateRip database Copy OK
Track 2
Filename C:\Users\Димон\Desktop\123\02. Brigitte Bardot – Contact.wav
Peak level 98.8 % Extraction speed 2.2 X Track quality 100.0 % Test CRC CB31AF98 Copy CRC CB31AF98 Track not present in AccurateRip database Copy OK
Track 3
Filename C:\Users\Димон\Desktop\123\03. Charlotte Leslie – Les filles c'est fait....wav
Peak level 90.6 % Extraction speed 2.5 X Track quality 100.0 % Test CRC 6163E1F0 Copy CRC 6163E1F0 Track not present in AccurateRip database Copy OK
Track 4
Filename C:\Users\Димон\Desktop\123\04. Claude Francois – Hip Hip Hip Hurrah.wav
Peak level 96.0 % Extraction speed 2.7 X Track quality 100.0 % Test CRC 97B7AFE0 Copy CRC 97B7AFE0 Track not present in AccurateRip database Copy OK
Track 5
Filename C:\Users\Димон\Desktop\123\05. Annie Philippe – C'est la mode.wav
Peak level 93.3 % Extraction speed 2.8 X Track quality 100.0 % Test CRC 466F2547 Copy CRC 466F2547 Track not present in AccurateRip database Copy OK
Track 6
Filename C:\Users\Димон\Desktop\123\06. Michel Polnareff – L'oiseau de nuit.wav
Peak level 98.8 % Extraction speed 2.5 X Track quality 99.9 % Test CRC E8EC6FF6 Copy CRC E8EC6FF6 Track not present in AccurateRip database Copy OK
Track 7
Filename C:\Users\Димон\Desktop\123\07. France Gall – Teenie Weenie Boppie.wav
Peak level 98.8 % Extraction speed 3.1 X Track quality 100.0 % Test CRC 87A8304F Copy CRC 87A8304F Track not present in AccurateRip database Copy OK
Track 8
Filename C:\Users\Димон\Desktop\123\08. Monique Thubert – Avec les oreilles.wav
Peak level 94.4 % Extraction speed 3.1 X Track quality 100.0 % Test CRC 80FC8BBE Copy CRC 80FC8BBE Track not present in AccurateRip database Copy OK
Track 9
Filename C:\Users\Димон\Desktop\123\09. Eddy Mitchell – Et s'il n'en reste qu'un.wav
Peak level 96.0 % Extraction speed 3.4 X Track quality 100.0 % Test CRC E4010272 Copy CRC E4010272 Track not present in AccurateRip database Copy OK
Track 10
Filename C:\Users\Димон\Desktop\123\10. Marie Laforêt – D'être à vous.wav
Peak level 88.7 % Extraction speed 3.5 X Track quality 100.0 % Test CRC 3C04098E Copy CRC 3C04098E Track not present in AccurateRip database Copy OK
Track 11
Filename C:\Users\Димон\Desktop\123\11. Nino Ferrer – Le roi d'Angleterre.wav
Peak level 96.0 % Extraction speed 3.0 X Track quality 99.9 % Test CRC 88080092 Copy CRC 88080092 Track not present in AccurateRip database Copy OK
Track 12
Filename C:\Users\Димон\Desktop\123\12. Anna Karina – Roller Girl.wav
Peak level 98.8 % Extraction speed 3.0 X Track quality 99.9 % Test CRC FD4E1B73 Copy CRC FD4E1B73 Track not present in AccurateRip database Copy OK
Track 13
Filename C:\Users\Димон\Desktop\123\13. Johnny Halliday – Noir c'est noir.wav
Peak level 98.8 % Extraction speed 3.9 X Track quality 100.0 % Test CRC FAD1C269 Copy CRC FAD1C269 Track not present in AccurateRip database Copy OK
Track 14
Filename C:\Users\Димон\Desktop\123\14. Nicoletta – Le grand amour.wav
Peak level 93.3 % Extraction speed 3.7 X Track quality 100.0 % Test CRC D1440D52 Copy CRC D1440D52 Track not present in AccurateRip database Copy OK
Track 15
Filename C:\Users\Димон\Desktop\123\15. Messieurs Richard de Bordeaux et Daniel Beretta – La drague.wav
Peak level 95.5 % Extraction speed 4.0 X Track quality 100.0 % Test CRC F14781DE Copy CRC F14781DE Track not present in AccurateRip database Copy OK
Track 16
Filename C:\Users\Димон\Desktop\123\16. Stone – L'antiquité.wav
Peak level 98.8 % Extraction speed 4.3 X Track quality 100.0 % Test CRC 84DFECBB Copy CRC 84DFECBB Track not present in AccurateRip database Copy OK
Track 17
Filename C:\Users\Димон\Desktop\123\17. Yper-Sound (Les) – Psyché rock.wav
Peak level 90.6 % Extraction speed 3.5 X Track quality 99.9 % Test CRC 8BB6BCDC Copy CRC 8BB6BCDC Track not present in AccurateRip database Copy OK
None of the tracks are present in the AccurateRip database
No errors occurred
End of status report
---- CUETools DB Plugin V2.1.3
[CTDB TOCID: 5HS7XClJ6iH6KZtoM36CH0pl8QA-] disk not present in database, Submit result: 5HS7XClJ6iH6KZtoM36CH0pl8QA- has been uploaded

Содержание индексной карты (.CUE) CD 01

REM GENRE "Chanson Francaise"REM DATE 2003REM DISCID 020BFA12REM COMMENT "ExactAudioCopy v1.0b3"PERFORMER "Various"TITLE "Pop a Paris - Psyche-rock et minijupes (CD1)"FILE "01. Johnny Hallyday – Mal.wav" WAVE TRACK 01 AUDIO TITLE "Mal" PERFORMER "Johnny Hallyday" FLAGS DCP INDEX 01 00:00:00FILE "02. Brigitte Bardot – Tu veux ou tu veux pas.wav" WAVE TRACK 02 AUDIO TITLE "Tu veux ou tu veux pas" PERFORMER "Brigitte Bardot" FLAGS DCP INDEX 01 00:00:00FILE "03. Michel Polnareff – Le roi des fourmis.wav" WAVE TRACK 03 AUDIO TITLE "Le roi des fourmis" PERFORMER "Michel Polnareff" FLAGS DCP INDEX 01 00:00:00FILE "04. Eileen – Ces bottes sont faites pour marcher.wav" WAVE TRACK 04 AUDIO TITLE "Ces bottes sont faites pour marcher" PERFORMER "Eileen" FLAGS DCP INDEX 01 00:00:00FILE "05. David Alexandre Winter – Qu'est-ce que j'ai danse!.wav" WAVE TRACK 05 AUDIO TITLE "Qu'est-ce que j'ai danse!" PERFORMER "David Alexandre Winter" FLAGS DCP INDEX 01 00:00:00FILE "06. France Gall – Dady da da.wav" WAVE TRACK 06 AUDIO TITLE "Dady da da" PERFORMER "France Gall" FLAGS DCP INDEX 01 00:00:00FILE "07. Monty – Le college.wav" WAVE TRACK 07 AUDIO TITLE "Le college" PERFORMER "Monty" FLAGS DCP INDEX 01 00:00:00FILE "08. Marie Laforet – Marie douceur - Marie colere.wav" WAVE TRACK 08 AUDIO TITLE "Marie douceur - Marie colere" PERFORMER "Marie Laforet" FLAGS DCP INDEX 01 00:00:00FILE "09. Claude Francois – Eloise.wav" WAVE TRACK 09 AUDIO TITLE "Eloise" PERFORMER "Claude Francois" FLAGS DCP INDEX 01 00:00:00FILE "10. Jacqueline Taieb – 7 heures du matin.wav" WAVE TRACK 10 AUDIO TITLE "7 heures du matin" PERFORMER "Jacqueline Taieb" FLAGS DCP INDEX 01 00:00:00FILE "11. Dominique Walter – Les petits boudins.wav" WAVE TRACK 11 AUDIO TITLE "Les petits boudins" PERFORMER "Dominique Walter" FLAGS DCP INDEX 01 00:00:00FILE "12. Valerie Lagrange – Ce que je suis.wav" WAVE TRACK 12 AUDIO TITLE "Ce que je suis" PERFORMER "Valerie Lagrange" FLAGS DCP INDEX 01 00:00:00FILE "13. Henri Salvador – Carnaby Street.wav" WAVE TRACK 13 AUDIO TITLE "Carnaby Street" PERFORMER "Henri Salvador" FLAGS DCP INDEX 01 00:00:00FILE "14. Delphine – La fermeture eclair.wav" WAVE TRACK 14 AUDIO TITLE "La fermeture eclair" PERFORMER "Delphine" FLAGS DCP INDEX 01 00:00:00FILE "15. Eric Charden – Le monde est gris, le monde est bleu.wav" WAVE TRACK 15 AUDIO TITLE "Le monde est gris, le monde est bleu" PERFORMER "Eric Charden" FLAGS DCP INDEX 01 00:00:00FILE "16. Elsa – Ecoutez.wav" WAVE TRACK 16 AUDIO TITLE "Ecoutez" PERFORMER "Elsa" FLAGS DCP INDEX 01 00:00:00FILE "17. Frank Alamo – Heureux tous les deux.wav" WAVE TRACK 17 AUDIO TITLE "Heureux tous les deux" PERFORMER "Frank Alamo" FLAGS DCP INDEX 01 00:00:00FILE "18. Serge Gainsbourg – Marilu.wav" WAVE TRACK 18 AUDIO TITLE "Marilu" PERFORMER "Serge Gainsbourg" FLAGS DCP INDEX 01 00:00:00

Содержание индексной карты (.CUE) CD 02

REM GENRE "Chanson Francaise"REM DATE 2003REM DISCID DE0B3611REM COMMENT "ExactAudioCopy v1.0b3"PERFORMER "Various"TITLE "Pop a Paris - Psyche-rock et minijupes (CD2)"FILE "01. Serge Gainsbourg – L'anamour.wav" WAVE TRACK 01 AUDIO TITLE "L'anamour" PERFORMER "Serge Gainsbourg" FLAGS DCP INDEX 01 00:00:00FILE "02. Brigitte Bardot – Contact.wav" WAVE TRACK 02 AUDIO TITLE "Contact" PERFORMER "Brigitte Bardot" FLAGS DCP INDEX 01 00:00:00FILE "03. Charlotte Leslie – Les filles c'est fait....wav" WAVE TRACK 03 AUDIO TITLE "Les filles c'est fait..." PERFORMER "Charlotte Leslie" FLAGS DCP INDEX 01 00:00:00FILE "04. Claude Francois – Hip Hip Hip Hurrah.wav" WAVE TRACK 04 AUDIO TITLE "Hip Hip Hip Hurrah" PERFORMER "Claude Francois" FLAGS DCP INDEX 01 00:00:00FILE "05. Annie Philippe – C'est la mode.wav" WAVE TRACK 05 AUDIO TITLE "C'est la mode" PERFORMER "Annie Philippe" FLAGS DCP INDEX 01 00:00:00FILE "06. Michel Polnareff – L'oiseau de nuit.wav" WAVE TRACK 06 AUDIO TITLE "L'oiseau de nuit" PERFORMER "Michel Polnareff" FLAGS DCP INDEX 01 00:00:00FILE "07. France Gall – Teenie Weenie Boppie.wav" WAVE TRACK 07 AUDIO TITLE "Teenie Weenie Boppie" PERFORMER "France Gall" FLAGS DCP INDEX 01 00:00:00FILE "08. Monique Thubert – Avec les oreilles.wav" WAVE TRACK 08 AUDIO TITLE "Avec les oreilles" PERFORMER "Monique Thubert" FLAGS DCP INDEX 01 00:00:00FILE "09. Eddy Mitchell – Et s'il n'en reste qu'un.wav" WAVE TRACK 09 AUDIO TITLE "Et s'il n'en reste qu'un" PERFORMER "Eddy Mitchell" FLAGS DCP INDEX 01 00:00:00FILE "10. Marie Laforet – D'etre a vous.wav" WAVE TRACK 10 AUDIO TITLE "D'etre a vous" PERFORMER "Marie Laforet" FLAGS DCP INDEX 01 00:00:00FILE "11. Nino Ferrer – Le roi d'Angleterre.wav" WAVE TRACK 11 AUDIO TITLE "Le roi d'Angleterre" PERFORMER "Nino Ferrer" FLAGS DCP INDEX 01 00:00:00FILE "12. Anna Karina – Roller Girl.wav" WAVE TRACK 12 AUDIO TITLE "Roller Girl" PERFORMER "Anna Karina" FLAGS DCP INDEX 01 00:00:00FILE "13. Johnny Halliday – Noir c'est noir.wav" WAVE TRACK 13 AUDIO TITLE "Noir c'est noir" PERFORMER "Johnny Halliday" FLAGS DCP INDEX 01 00:00:00FILE "14. Nicoletta – Le grand amour.wav" WAVE TRACK 14 AUDIO TITLE "Le grand amour" PERFORMER "Nicoletta" FLAGS DCP INDEX 01 00:00:00FILE "15. Messieurs Richard de Bordeaux et Daniel Beretta – La drague.wav" WAVE TRACK 15 AUDIO TITLE "La drague" PERFORMER "Messieurs Richard de Bordeaux et Daniel Beretta" FLAGS DCP INDEX 01 00:00:00FILE "16. Stone – L'antiquite.wav" WAVE TRACK 16 AUDIO TITLE "L'antiquite" PERFORMER "Stone" FLAGS DCP INDEX 01 00:00:00FILE "17. Yper-Sound (Les) – Psyche rock.wav" WAVE TRACK 17 AUDIO TITLE "Psyche rock" PERFORMER "Yper-Sound (Les)" FLAGS DCP INDEX 01 00:00:00

Для скачивания файла отключите блокировку рекламы и перезагрузите страницу.

disable adblock Как отключить блокировку рекламы?

Скачать по магнет ссылке 473 MB 

Войти с помощью:

Загрузка...
Загрузка...


   
Текущее время: 21-Июн 10:35 :: Часовой пояс: UTC ± 0