Amélie-les-crayons / La Porte Plume
Жанр: Pop, Chanson, Ballad, Indie
Страна-производитель диска: France
Год издания: 2007
Издатель (лейбл): Neomme
Номер по каталогу: OP10AC2295
Страна: France
Аудиокодек: FLAC (*.flac)
Тип рипа: tracks+.cue
Битрейт аудио: lossless
Продолжительность: 00:42:00
Источник (релизер): What.CD (James90)
Наличие сканов в содержимом раздачи: нет
Треклист:
01 - La maigrelette (2:51)
02 - Le Linge de Nos Mères (3:04)
03 - Le train trois (3:22)
04 - La Dernière des Filles du Monde (3:08)
05 - Les manteaux (2:52)
06 - L'errant (3:19)
07 - Les Pissotières (2:33)
08 - La fève (1:44)
09 - De nous non (1:55)
10 - Calées Sur La Lune (2:45)
11 - Le citronnier (3:52)
12 - Depuis (2:29)
13 - Chamelet (2:42)
14 - Marchons (3:29)
15 - Le gros costaud (1:55)

Лог создания рипа

Exact Audio Copy V0.99 prebeta 5 from 4. May 2009
EAC extraction logfile from 17. September 2011, 14:53
Les Pommes De Ma Douche / J'ai connu de vous... Monsieur Trenet
Used drive : ASUS DRW-24B3LT Adapter: 3 ID: 0
Read mode : SecureUtilize accurate stream : YesDefeat audio cache : YesMake use of C2 pointers : No
Read offset correction : 6Overread into Lead-In and Lead-Out : NoFill up missing offset samples with silence : YesDelete leading and trailing silent blocks : NoNull samples used in CRC calculations : YesUsed interface : Installed external ASPI interfaceGap handling : Appended to previous track
Used output format : Internal WAV RoutinesSample format : 44.100 Hz; 16 Bit; Stereo
TOC of the extracted CD
Track | Start | Length | Start sector | End sector --------------------------------------------------------- 1 | 0:00.00 | 3:49.46 | 0 | 17220 2 | 3:49.46 | 3:10.63 | 17221 | 31533 3 | 7:00.34 | 2:27.09 | 31534 | 42567 4 | 9:27.43 | 4:53.36 | 42568 | 64578 5 | 14:21.04 | 3:40.62 | 64579 | 81140 6 | 18:01.66 | 3:16.46 | 81141 | 95886 7 | 21:18.37 | 3:34.28 | 95887 | 111964 8 | 24:52.65 | 4:32.23 | 111965 | 132387 9 | 29:25.13 | 3:08.45 | 132388 | 146532 10 | 32:33.58 | 3:16.01 | 146533 | 161233 11 | 35:49.59 | 5:05.03 | 161234 | 184111 12 | 40:54.62 | 4:20.13 | 184112 | 203624 13 | 45:15.00 | 3:44.03 | 203625 | 220427 14 | 48:59.03 | 3:07.66 | 220428 | 234518 15 | 52:06.69 | 5:15.37 | 234519 | 258180
Track 1
Filename C:\Documents and Settings\Administrator\Desktop\WhatCD_uploads\Les Pommes De Ma Douche - 2004 - J'ai connu de vous... Monsieur Trenet\01. Boum !.wav
Pre-gap length 0:00:02.00
Peak level 92.9 % Track quality 100.0 % Test CRC 9CAAB22E Copy CRC 9CAAB22E Accurately ripped (confidence 3) [68ACB629] Copy OK
Track 2
Filename C:\Documents and Settings\Administrator\Desktop\WhatCD_uploads\Les Pommes De Ma Douche - 2004 - J'ai connu de vous... Monsieur Trenet\02. Fleur bleue.wav
Pre-gap length 0:00:03.37
Peak level 92.9 % Track quality 100.0 % Test CRC 3A92A534 Copy CRC 3A92A534 Accurately ripped (confidence 3) [2DE06F0D] Copy OK
Track 3
Filename C:\Documents and Settings\Administrator\Desktop\WhatCD_uploads\Les Pommes De Ma Douche - 2004 - J'ai connu de vous... Monsieur Trenet\03. Quand j'étais p'tit.wav
Pre-gap length 0:00:03.34
Peak level 100.0 % Track quality 100.0 % Test CRC 6DF541EB Copy CRC 6DF541EB Accurately ripped (confidence 3) [AEB28FD6] Copy OK
Track 4
Filename C:\Documents and Settings\Administrator\Desktop\WhatCD_uploads\Les Pommes De Ma Douche - 2004 - J'ai connu de vous... Monsieur Trenet\04. Ménilmontant.wav
Pre-gap length 0:00:03.63
Peak level 92.9 % Track quality 100.0 % Test CRC 2F3CC327 Copy CRC 2F3CC327 Accurately ripped (confidence 3) [A1EFBDD6] Copy OK
Track 5
Filename C:\Documents and Settings\Administrator\Desktop\WhatCD_uploads\Les Pommes De Ma Douche - 2004 - J'ai connu de vous... Monsieur Trenet\05. Bonsoir, jolie madame.wav
Pre-gap length 0:00:03.19
Peak level 92.9 % Track quality 99.9 % Test CRC B64280CB Copy CRC B64280CB Accurately ripped (confidence 3) [275E4DB4] Copy OK
Track 6
Filename C:\Documents and Settings\Administrator\Desktop\WhatCD_uploads\Les Pommes De Ma Douche - 2004 - J'ai connu de vous... Monsieur Trenet\06. Vous êtes jolie.wav
Pre-gap length 0:00:03.44
Peak level 92.9 % Track quality 100.0 % Test CRC 15F769A8 Copy CRC 15F769A8 Accurately ripped (confidence 3) [9D6AB8C2] Copy OK
Track 7
Filename C:\Documents and Settings\Administrator\Desktop\WhatCD_uploads\Les Pommes De Ma Douche - 2004 - J'ai connu de vous... Monsieur Trenet\07. Fidèle.wav
Pre-gap length 0:00:03.29
Peak level 92.9 % Track quality 100.0 % Test CRC 2D7F0825 Copy CRC 2D7F0825 Accurately ripped (confidence 3) [B0247117] Copy OK
Track 8
Filename C:\Documents and Settings\Administrator\Desktop\WhatCD_uploads\Les Pommes De Ma Douche - 2004 - J'ai connu de vous... Monsieur Trenet\08. J'ai connu de vous.wav
Pre-gap length 0:00:03.27
Peak level 92.9 % Track quality 99.9 % Test CRC 842E0D98 Copy CRC 842E0D98 Accurately ripped (confidence 3) [D627B4B0] Copy OK
Track 9
Filename C:\Documents and Settings\Administrator\Desktop\WhatCD_uploads\Les Pommes De Ma Douche - 2004 - J'ai connu de vous... Monsieur Trenet\09. Devant la mer.wav
Pre-gap length 0:00:03.42
Peak level 92.9 % Track quality 99.9 % Test CRC FC933C6B Copy CRC FC933C6B Accurately ripped (confidence 3) [B5417D80] Copy OK
Track 10
Filename C:\Documents and Settings\Administrator\Desktop\WhatCD_uploads\Les Pommes De Ma Douche - 2004 - J'ai connu de vous... Monsieur Trenet\10. N'y pensez pas trop.wav
Pre-gap length 0:00:03.38
Peak level 100.0 % Track quality 100.0 % Test CRC C82A55BE Copy CRC C82A55BE Accurately ripped (confidence 3) [4B3E55F9] Copy OK
Track 11
Filename C:\Documents and Settings\Administrator\Desktop\WhatCD_uploads\Les Pommes De Ma Douche - 2004 - J'ai connu de vous... Monsieur Trenet\11. Revoir Paris.wav
Pre-gap length 0:00:03.26
Peak level 92.9 % Track quality 100.0 % Test CRC 2B8897AD Copy CRC 2B8897AD Accurately ripped (confidence 3) [169F210C] Copy OK
Track 12
Filename C:\Documents and Settings\Administrator\Desktop\WhatCD_uploads\Les Pommes De Ma Douche - 2004 - J'ai connu de vous... Monsieur Trenet\12. Le soleil et la lune.wav
Pre-gap length 0:00:03.16
Peak level 92.9 % Track quality 100.0 % Test CRC A779F234 Copy CRC A779F234 Accurately ripped (confidence 3) [1F92D6A3] Copy OK
Track 13
Filename C:\Documents and Settings\Administrator\Desktop\WhatCD_uploads\Les Pommes De Ma Douche - 2004 - J'ai connu de vous... Monsieur Trenet\13. Vous, qui passez sans me voir.wav
Pre-gap length 0:00:03.51
Peak level 92.9 % Track quality 100.0 % Test CRC 80352DE0 Copy CRC 80352DE0 Accurately ripped (confidence 3) [E083EBEC] Copy OK
Track 14
Filename C:\Documents and Settings\Administrator\Desktop\WhatCD_uploads\Les Pommes De Ma Douche - 2004 - J'ai connu de vous... Monsieur Trenet\14. La vie qui va.wav
Pre-gap length 0:00:02.65
Peak level 99.7 % Track quality 100.0 % Test CRC F82F7AEB Copy CRC F82F7AEB Accurately ripped (confidence 3) [DF2D74DC] Copy OK
Track 15
Filename C:\Documents and Settings\Administrator\Desktop\WhatCD_uploads\Les Pommes De Ma Douche - 2004 - J'ai connu de vous... Monsieur Trenet\15. L'âme des poètes.wav
Pre-gap length 0:00:04.09
Peak level 92.9 % Track quality 100.0 % Test CRC 162B5FA0 Copy CRC 162B5FA0 Accurately ripped (confidence 3) [7211E840] Copy OK
All tracks accurately ripped
No errors occurred
End of status report

Содержание индексной карты (.CUE)

REM GENRE JazzREM DATE 2004REM DISCID D00D720FREM COMMENT "ExactAudioCopy v0.99pb5"PERFORMER "Les Pommes De Ma Douche"TITLE "J'ai connu de vous... Monsieur Trenet"FILE "01. Boum !.wav" WAVE TRACK 01 AUDIO TITLE "Boum !" PERFORMER "Les Pommes De Ma Douche" INDEX 01 00:00:00 TRACK 02 AUDIO TITLE "Fleur bleue" PERFORMER "Les Pommes De Ma Douche" INDEX 00 03:46:09FILE "02. Fleur bleue.wav" WAVE INDEX 01 00:00:00 TRACK 03 AUDIO TITLE "Quand j'étais p'tit" PERFORMER "Les Pommes De Ma Douche" INDEX 00 03:07:29FILE "03. Quand j'étais p'tit.wav" WAVE INDEX 01 00:00:00 TRACK 04 AUDIO TITLE "Ménilmontant" PERFORMER "Les Pommes De Ma Douche" INDEX 00 02:23:21FILE "04. Ménilmontant.wav" WAVE INDEX 01 00:00:00 TRACK 05 AUDIO TITLE "Bonsoir, jolie madame" PERFORMER "Les Pommes De Ma Douche" INDEX 00 04:50:17FILE "05. Bonsoir, jolie madame.wav" WAVE INDEX 01 00:00:00 TRACK 06 AUDIO TITLE "Vous êtes jolie" PERFORMER "Les Pommes De Ma Douche" INDEX 00 03:37:18FILE "06. Vous êtes jolie.wav" WAVE INDEX 01 00:00:00 TRACK 07 AUDIO TITLE "Fidèle" PERFORMER "Les Pommes De Ma Douche" INDEX 00 03:13:17FILE "07. Fidèle.wav" WAVE INDEX 01 00:00:00 TRACK 08 AUDIO TITLE "J'ai connu de vous" PERFORMER "Les Pommes De Ma Douche" INDEX 00 03:31:01FILE "08. J'ai connu de vous.wav" WAVE INDEX 01 00:00:00 TRACK 09 AUDIO TITLE "Devant la mer" PERFORMER "Les Pommes De Ma Douche" INDEX 00 04:28:56FILE "09. Devant la mer.wav" WAVE INDEX 01 00:00:00 TRACK 10 AUDIO TITLE "N'y pensez pas trop" PERFORMER "Les Pommes De Ma Douche" INDEX 00 03:05:07FILE "10. N'y pensez pas trop.wav" WAVE INDEX 01 00:00:00 TRACK 11 AUDIO TITLE "Revoir Paris" PERFORMER "Les Pommes De Ma Douche" INDEX 00 03:12:50FILE "11. Revoir Paris.wav" WAVE INDEX 01 00:00:00 TRACK 12 AUDIO TITLE "Le soleil et la lune" PERFORMER "Les Pommes De Ma Douche" INDEX 00 05:01:62FILE "12. Le soleil et la lune.wav" WAVE INDEX 01 00:00:00 TRACK 13 AUDIO TITLE "Vous, qui passez sans me voir" PERFORMER "Les Pommes De Ma Douche" INDEX 00 04:16:37FILE "13. Vous, qui passez sans me voir.wav" WAVE INDEX 01 00:00:00 TRACK 14 AUDIO TITLE "La vie qui va" PERFORMER "Les Pommes De Ma Douche" INDEX 00 03:41:13FILE "14. La vie qui va.wav" WAVE INDEX 01 00:00:00 TRACK 15 AUDIO TITLE "L'âme des poètes" PERFORMER "Les Pommes De Ma Douche" INDEX 00 03:03:57FILE "15. L'âme des poètes.wav" WAVE INDEX 01 00:00:00

To download the file disable ad blocking, and reload the page.

disable adblock How to disable ad blocking?

Download by magnet link 225 MB Download Torrent

Login using:

Загрузка...

Similar topics



   
Current time is: 16-Dec 17:43 :: All times are UTC + 3