Marc Lavoine - Je descends du singe- Жанр: Pop, Chanson
Год издания: 2012
Издатель (лейбл): Barclay
Номер по каталогу: 370 974 7
Страна: France
Аудиокодек: FLAC (*.flac)
Тип рипа: image+.cue
Битрейт аудио: lossless
Продолжительность: 36:29
Источник: собственный диск
Наличие сканов в содержимом раздачи: нет-Треклист:
01. Il Restera
02. Notre Histoire
03. Je Descends Du Singe
04. J'ai Vu La Lumiere
05. J'En Ai Rien A Foutre
06. Aupres De Toi Mon Frere
07. Avec Toi
08. Faut-Il Parler
09. Ballade Pour Michelle
10. Je Compte Les Jours-

Лог создания рипа

Exact Audio Copy V1.0 beta 3 from 29. August 2011
Отчёт EAC об извлечении, выполненном 24. ноября 2012, 18:08
Marc Lavoine / Je descends du singe
Дисковод: Optiarc DVD RW AD-5240S Adapter: 3 ID: 0
Режим чтения : ДостоверностьИспользование точного потока : ДаОтключение кэша аудио : ДаИспользование указателей C2 : Нет
Коррекция смещения при чтении : 48Способность читать области Lead-in и Lead-out : НетЗаполнение пропущенных сэмплов тишиной : ДаУдаление блоков с тишиной в начале и конце : НетПри вычислениях CRC использовались нулевые сэмплы : ДаИнтерфейс : Встроенный Win32-интерфейс для Win NT/2000
Выходной формат : Пользовательский кодировщикВыбранный битрейт : 128 kBit/sКачество : ВысокийДобавление ID3-тега : НетУтилита сжатия : C:\Program Files\Exact Audio Copy\Flac\flac.exeДополнительные параметры : -V -8 -T "Date=%year%" -T "Genre=%genre%" %source%
TOC извлечённого CD
Трек | Старт | Длительность | Начальный сектор | Конечный сектор --------------------------------------------------------------------- 1 | 0:00.00 | 2:57.53 | 0 | 13327 2 | 2:57.53 | 3:29.56 | 13328 | 29058 3 | 6:27.34 | 3:49.44 | 29059 | 46277 4 | 10:17.03 | 3:14.53 | 46278 | 60880 5 | 13:31.56 | 3:50.39 | 60881 | 78169 6 | 17:22.20 | 4:05.06 | 78170 | 96550 7 | 21:27.26 | 3:24.44 | 96551 | 111894 8 | 24:51.70 | 4:02.57 | 111895 | 130101 9 | 28:54.52 | 3:10.65 | 130102 | 144416 10 | 32:05.42 | 4:23.41 | 144417 | 164182
Характеристики диапазона извлечения и сообщения об ошибках
Выбранный диапазон
Имя файла C:\Users\home\Desktop\Marc Lavoine - Je descends du singe.wav
Пиковый уровень 99.8 % Скорость извлечения 3.6 X Качество диапазона 100.0 % CRC теста BFCCFE25 CRC копии BFCCFE25 Копирование... OK
Ошибок не произошло
Конец отчёта
==== Контрольная сумма отчёта F3BFECAD10759A0FB9797A54E2B4414B3A8E6F89DA87A20E35BA197E02A1F413 ====

Содержание индексной карты (.CUE)

REM DATE 2012REM DISCID 95088D0AREM COMMENT "ExactAudioCopy v1.0b3"CATALOG 0602537097470PERFORMER "Marc Lavoine"TITLE "Je descends du singe"FILE "Marc Lavoine - Je descends du singe.flac" WAVE TRACK 01 AUDIO TITLE "Il restera" PERFORMER "Marc Lavoine" ISRC FRUM71201737 INDEX 01 00:00:00 TRACK 02 AUDIO TITLE "Notre histoire" PERFORMER "Marc Lavoine" ISRC FRUM71201738 INDEX 01 02:57:53 TRACK 03 AUDIO TITLE "Je descends du singe" PERFORMER "Marc Lavoine" ISRC FRUM71201210 INDEX 01 06:27:34 TRACK 04 AUDIO TITLE "J'ai vu la lumiere" PERFORMER "Marc Lavoine" ISRC FRUM71201731 INDEX 00 10:14:44 INDEX 01 10:17:03 TRACK 05 AUDIO TITLE "J'en ai rien a foutre" PERFORMER "Marc Lavoine" ISRC FRUM71201732 INDEX 01 13:31:56 TRACK 06 AUDIO TITLE "Aupres de toi mon frere" PERFORMER "Marc Lavoine" ISRC FRUM71201733 INDEX 01 17:22:20 TRACK 07 AUDIO TITLE "Avec toi" PERFORMER "Marc Lavoine" ISRC FRUM71201734 INDEX 01 21:27:26 TRACK 08 AUDIO TITLE "Faut-il parler" PERFORMER "Marc Lavoine" ISRC FRUM71201735 INDEX 01 24:51:70 TRACK 09 AUDIO TITLE "Ballade pour Michelle" PERFORMER "Marc Lavoine" ISRC FR99U1280000 INDEX 01 28:54:52 TRACK 10 AUDIO TITLE "Je compte les jours" PERFORMER "Marc Lavoine" ISRC FRUM71201736 INDEX 01 32:05:42
-Скачали сами - помогите скачать другим!

Для скачивания файла отключите блокировку рекламы и перезагрузите страницу.

disable adblock Как отключить блокировку рекламы?

Скачать по магнет ссылке 242 MB 

Войти с помощью:

Похожие раздачи

Внимание! Контент 18+ если вы младше данного возраста, НЕ переходите по ссылке!!!
(French Chanson, Pop) Fishbach - A ta merci (deluxe) - 2018, MP3, 320 kbps
 170 MB   0 | 0   08-Фев-18 08:35   1


   
Текущее время: 14-Авг 19:38 :: Часовой пояс: UTC ± 0