Mireille Mathieu / Meine Welt ist die Musik
Жанр: POP-Folk
Страна-производитель диска: Германия
Год издания: 2007
Издатель (лейбл): Reader’s Digest Musik
Номер по каталогу: 0886971520927 (MMA 21 071887 71)
Аудиокодек: FLAC (*.flac)
Тип рипа: tracks+.cue
Битрейт аудио: lossless
Продолжительность: 3:46:40
Источник (релизер): CD (релиз мой)
Наличие сканов в содержимом раздачи: да

Треклист

CD1 - HANS IM GLUCK
01 - Hymne an die Liebe (93)
Michael Kunze - Marguerite Monnot
02 - Das Wunder aller Wunder ist die Liebe
Georg Buschor - Christian Bruhn
03 - Aber dich verge?' ich nie
Georg Buschor - Christian Bruhn
04 - Tarata-Ting, Tarata-Tong
Georg Buschor - Christian Bruhn
05 - Wenn es die Liebe will
Georg Buschor - Christian Bruhn
06 - Hans im Gluck
Georg Buschor - Christian Bruhn
07 - Tu es aus Liebe
Wolfgang Petry - Klause-Dieter Gebauer
08 - Abschied von Dir
Christian Bruhn - Christian Bruhn
09 - Die Liebe kennt nur der, der sie verloren hat
Gunther Behrle - Christian Bruhn
10 - Darum leg ich meinen Arm um dich
Michael Holm - Christian Bruhn
11 - Walzer der Liebe
Christian Bruhn / Robert Jung - (Trad.)
12 - Bleib noch da
Michael Kunze - Jean Claudric
13 - Die Liebe einer Frau
Bernd Meinunger - Ralph Siegel
14 - Du mu?t mir gar nichts von Liebe sagen
Michael Kunze - Joachim Heider
15 - Nur fur dich
Bernd Meinunger - Ralph Siegel
16 - Die Liebe zu dir (Chariots Of Fire)
Michael Kunze - Vangelis Papathanassiou
17 - Ich schau' in deine Augen
Engelbert Simons / Bernd Dietrich - Engelbert Simons / Gerd Grabowski / Bernd Dietrich
18 - Schau mich bitte nicht so an
Ralph Maria Siegel - Louiguy
19 - Zuruck zur zartlichkeit
Bernd Meinunger - Ralph Siegel
20 - Fur Liebe ist es nie zu spat
Bernd Meinunger - Christian Bruhn
21 - Together We're Strong (with Patrick Duffy)
Richard Palmer-James - Ralph Siegel
CD2 - HINTER DEN KULISSEN VON PARIS
22 - Plaisir d'amour (de)
Michael Kunze - Johannes Paul Martini
23 - An einem Sonntag in Avignon
Georg Buschor - Christian Bruhn
24 - Es geht mir gut, Cheri
Georg Buschor - Christian Bruhn
25 - Hinter den Kulissen von Paris
Georg Buschor - Christian Bruhn
26 - Sweet Souvenirs Of Stefan
Johnny Worth - Les Reed
27 - Die Spatzen von Paris
Georg Buschor - Christian Bruhn
28 - Akropolis adieu
Georg Buschor - Christian Bruhn
29 - Ganz Paris ist ein Theater
Georg Buschor - Christian Bruhn
30 - Vai colomba bianca
Michael Kunze - Michael Cretu
31 - Die Kinder von Montparnasse
Georg Buschor - Christian Bruhn
32 - Der Pariser Tango
Georg Buschor - Christian Bruhn
33 - Martin
Georg Buschor - Christian Bruhn
34 - Korsika
Georg Buschor - Christian Bruhn
35 - Roma, Roma, Roma
R. Bernet - Christian Bruhn
36 - Die Glocken von Notre Dame
Michael Kunze - Christian Bruhn
37 - Paris vor hundert Jahren
Georg Buschor - Christian Bruhn
38 - Sur le pont d'Avignon
Georg Buschor - (Trad.)
39 - Der Wein war aus Bordeaux
Kurt Hertha - Christian Bruhn
40 - Un dernier mot d'amour
Claude Lemesle - R. Carlos
41 - Mais toi
Eddy Marnay - Raymond Bernard
42 - Der Clochard
Candy De Rouge / Gunther Mende - Candy de Rouge / Gunther Mende
43 - Ein Lied aus Paris
Ralph Maria Siegel - Georges Auric
44 - Wenn es Nacht wird in Paris
Uwe Busse / Karlheinz Rupprich - Uwe Busse / Achim Slawik
45 - Parlez-moi d'amour (de)
Ernst Bader - Jean Lenoir
CD3 - SANTA MARIA
46 - Und der Wind wird ewig singen
Georg Buschor - Christian Bruhn
47 - Meine Welt ist die Musik
Georg Buschor - Christian Bruhn
48 - Santa Maria
Gunther Behrle - Christian Bruhn
49 - On verra
Fred Jay - Christian Bruhn
50 - Nimm noch einmal die Gitarre
Michael Kunze - Christian Bruhn
51 - Es geht auch ohne dich
Gunther Behrle - Christian Bruhn
52 - Kleine Schwalbe (Fur die Heimkehr ist es nie zu spat)
Gunther Behrle - Bryhn
53 - Santa Lucia
Teodoro Cottrau - (Trad.)
54 - Alle Kinder dieser Erde
Fred Jay - Christian Bruhn
55 - Winter In Canada
Georg Buschor - Christian Bruhn
56 - Der Zar und das Madchen
Georg Buschor - Christian Bruhn
57 - So ein schoner Abend
Charly Niessen - Christian Bruhn
58 - Das Riesenrad
Michael Kunze - Christian Bruhn
59 - La Paloma ade
Georg Buschor - S. Yradier
60 - Zuhause wartet Natascha
Gunther Behrle - Christian Bruhn
61 - Mein letzter Tanz
Georg Buschor - Christian Bruhn
62 - Aloa-he
Georg Buschor - (Trad.)
63 - Tage wie aus Glas
Wolfgang Murmann - Watson T. Brown
64 - Alles nur ein Spiel
Bernd Meinunger - Willy Kluter
65 - Abschiedslied (La Canzone di Orlando: from RAI-TV 'Orlando Furioso')
S. L. Goldfield - Giancarlo Chiaramello
66 - Good-Bye My Love (Verzeih My Love) (with Peter Alexander)
Richard Palmer-James / Bernd Meinunger - Ralph Siegel

Лог создания рипа

Exact Audio Copy V1.0 beta 3 from 29. August 2011
Отчёт EAC об извлечении, выполненном 11. ноября 2012, 17:20
Mireille Mathieu / Meine Welt ist die Musik
Дисковод: TSSTcorpCDDVDW SH-222BB Adapter: 0 ID: 2
Режим чтения : ДостоверностьИспользование точного потока : ДаОтключение кэша аудио : ДаИспользование указателей C2 : Нет
Коррекция смещения при чтении : 6Способность читать области Lead-in и Lead-out : НетЗаполнение пропущенных сэмплов тишиной : ДаУдаление блоков с тишиной в начале и конце : НетПри вычислениях CRC использовались нулевые сэмплы : ДаИнтерфейс : Установленный внешний ASPI-интерфейсОбработка зазоров : Добавлено к предыдущему треку
Выходной формат : Пользовательский кодировщикВыбранный битрейт : 768 kBit/sКачество : ВысокийДобавление ID3-тега : НетУтилита сжатия : C:\Program Files (x86)\Exact Audio Copy\FLAC\FLAC.EXEДополнительные параметры : -V -8 -T "Genre=%genre%" -T "Artist=%artist%" -T "Title=%title%" -T "Album=%albumtitle%" -T "Date=%year%" -T "Tracknumber=%tracknr%" -T "Comment=%comment%" %source%
TOC извлечённого CD
Трек | Старт | Длительность | Начальный сектор | Конечный сектор --------------------------------------------------------------------- 1 | 0:00.00 | 3:35.32 | 0 | 16156 2 | 3:35.32 | 2:28.39 | 16157 | 27295 3 | 6:03.71 | 3:02.19 | 27296 | 40964 4 | 9:06.15 | 3:05.74 | 40965 | 54913 5 | 12:12.14 | 3:07.31 | 54914 | 68969 6 | 15:19.45 | 2:57.16 | 68970 | 82260 7 | 18:16.61 | 3:44.72 | 82261 | 99132 8 | 22:01.58 | 3:57.66 | 99133 | 116973 9 | 25:59.49 | 3:15.37 | 116974 | 131635 10 | 29:15.11 | 3:44.16 | 131636 | 148451 11 | 32:59.27 | 3:31.68 | 148452 | 164344 12 | 36:31.20 | 4:11.07 | 164345 | 183176 13 | 40:42.27 | 3:31.11 | 183177 | 199012 14 | 44:13.38 | 3:43.50 | 199013 | 215787 15 | 47:57.13 | 3:31.68 | 215788 | 231680 16 | 51:29.06 | 3:33.30 | 231681 | 247685 17 | 55:02.36 | 4:34.24 | 247686 | 268259 18 | 59:36.60 | 3:30.57 | 268260 | 284066 19 | 63:07.42 | 3:49.56 | 284067 | 301297 20 | 66:57.23 | 4:04.29 | 301298 | 319626 21 | 71:01.52 | 3:55.53 | 319627 | 337304
Трек 1
Имя файла E:\FTP\PUB\Music\Worldmusic\Mireille Mathieu\2007 - Meine Welt ist die Musik (Reader’s Digest GER CD)\01 - Hymne an die Liebe (93).wav
Длина предзазора 0:00:02.00
Пиковый уровень 97.7 % Скорость извлечения 4.1 X Качество трека 99.9 % CRC теста A5088473 CRC копии A5088473 Копирование... OK
Трек 2
Имя файла E:\FTP\PUB\Music\Worldmusic\Mireille Mathieu\2007 - Meine Welt ist die Musik (Reader’s Digest GER CD)\02 - Das Wunder aller Wunder ist die Liebe.wav
Длина предзазора 0:00:02.02
Пиковый уровень 99.0 % Скорость извлечения 4.7 X Качество трека 100.0 % CRC теста 92E328EE CRC копии 92E328EE Копирование... OK
Трек 3
Имя файла E:\FTP\PUB\Music\Worldmusic\Mireille Mathieu\2007 - Meine Welt ist die Musik (Reader’s Digest GER CD)\03 - Aber dich vergess' ich nie.wav
Длина предзазора 0:00:01.65
Пиковый уровень 99.0 % Скорость извлечения 4.4 X Качество трека 99.9 % CRC теста 33F03953 CRC копии 33F03953 Копирование... OK
Трек 4
Имя файла E:\FTP\PUB\Music\Worldmusic\Mireille Mathieu\2007 - Meine Welt ist die Musik (Reader’s Digest GER CD)\04 - Tarata-Ting, Tarata-Tong.wav
Длина предзазора 0:00:01.63
Пиковый уровень 99.0 % Скорость извлечения 5.4 X Качество трека 100.0 % CRC теста 8E56CB28 CRC копии 8E56CB28 Копирование... OK
Трек 5
Имя файла E:\FTP\PUB\Music\Worldmusic\Mireille Mathieu\2007 - Meine Welt ist die Musik (Reader’s Digest GER CD)\05 - Wenn es die Liebe will.wav
Длина предзазора 0:00:01.48
Пиковый уровень 99.0 % Скорость извлечения 5.7 X Качество трека 100.0 % CRC теста 76361AE0 CRC копии 76361AE0 Копирование... OK
Трек 6
Имя файла E:\FTP\PUB\Music\Worldmusic\Mireille Mathieu\2007 - Meine Welt ist die Musik (Reader’s Digest GER CD)\06 - Hans im Gluck.wav
Длина предзазора 0:00:02.03
Пиковый уровень 99.0 % Скорость извлечения 5.9 X Качество трека 100.0 % CRC теста 9FFE893C CRC копии 9FFE893C Копирование... OK
Трек 7
Имя файла E:\FTP\PUB\Music\Worldmusic\Mireille Mathieu\2007 - Meine Welt ist die Musik (Reader’s Digest GER CD)\07 - Tu es aus Liebe.wav
Длина предзазора 0:00:02.01
Пиковый уровень 99.0 % Скорость извлечения 6.4 X Качество трека 100.0 % CRC теста 7E653A74 CRC копии 7E653A74 Копирование... OK
Трек 8
Имя файла E:\FTP\PUB\Music\Worldmusic\Mireille Mathieu\2007 - Meine Welt ist die Musik (Reader’s Digest GER CD)\08 - Abschied von Dir.wav
Длина предзазора 0:00:01.41
Пиковый уровень 99.0 % Скорость извлечения 6.6 X Качество трека 100.0 % CRC теста 2897377A CRC копии 2897377A Копирование... OK
Трек 9
Имя файла E:\FTP\PUB\Music\Worldmusic\Mireille Mathieu\2007 - Meine Welt ist die Musik (Reader’s Digest GER CD)\09 - Die Liebe kennt nur der, der sie verloren hat.wav
Длина предзазора 0:00:02.21
Пиковый уровень 99.0 % Скорость извлечения 6.8 X Качество трека 100.0 % CRC теста 4A171A4B CRC копии 4A171A4B Копирование... OK
Трек 10
Имя файла E:\FTP\PUB\Music\Worldmusic\Mireille Mathieu\2007 - Meine Welt ist die Musik (Reader’s Digest GER CD)\10 - Darum leg ich meinen Arm um dich.wav
Длина предзазора 0:00:02.17
Пиковый уровень 99.0 % Скорость извлечения 7.2 X Качество трека 100.0 % CRC теста 1625DF0F CRC копии 1625DF0F Копирование... OK
Трек 11
Имя файла E:\FTP\PUB\Music\Worldmusic\Mireille Mathieu\2007 - Meine Welt ist die Musik (Reader’s Digest GER CD)\11 - Walzer der Liebe.wav
Длина предзазора 0:00:00.29
Пиковый уровень 99.0 % Скорость извлечения 7.3 X Качество трека 100.0 % CRC теста BE818A9B CRC копии BE818A9B Копирование... OK
Трек 12
Имя файла E:\FTP\PUB\Music\Worldmusic\Mireille Mathieu\2007 - Meine Welt ist die Musik (Reader’s Digest GER CD)\12 - Bleib noch da.wav
Длина предзазора 0:00:01.57
Пиковый уровень 99.0 % Скорость извлечения 7.8 X Качество трека 100.0 % CRC теста 089B8ECE CRC копии 089B8ECE Копирование... OK
Трек 13
Имя файла E:\FTP\PUB\Music\Worldmusic\Mireille Mathieu\2007 - Meine Welt ist die Musik (Reader’s Digest GER CD)\13 - Die Liebe einer Frau.wav
Длина предзазора 0:00:01.57
Пиковый уровень 99.2 % Скорость извлечения 6.8 X Качество трека 99.9 % CRC теста AD66E215 CRC копии AD66E215 Копирование... OK
Трек 14
Имя файла E:\FTP\PUB\Music\Worldmusic\Mireille Mathieu\2007 - Meine Welt ist die Musik (Reader’s Digest GER CD)\14 - Du musst mir gar nichts von Liebe sagen.wav
Длина предзазора 0:00:01.40
Пиковый уровень 99.0 % Скорость извлечения 8.1 X Качество трека 100.0 % CRC теста D586210C CRC копии D586210C Копирование... OK
Трек 15
Имя файла E:\FTP\PUB\Music\Worldmusic\Mireille Mathieu\2007 - Meine Welt ist die Musik (Reader’s Digest GER CD)\15 - Nur fur dich.wav
Длина предзазора 0:00:01.14
Пиковый уровень 99.0 % Скорость извлечения 8.2 X Качество трека 100.0 % CRC теста CD9394BD CRC копии CD9394BD Копирование... OK
Трек 16
Имя файла E:\FTP\PUB\Music\Worldmusic\Mireille Mathieu\2007 - Meine Welt ist die Musik (Reader’s Digest GER CD)\16 - Die Liebe zu dir (Chariots Of Fire).wav
Длина предзазора 0:00:01.61
Пиковый уровень 99.0 % Скорость извлечения 8.4 X Качество трека 100.0 % CRC теста B74BDF73 CRC копии B74BDF73 Копирование... OK
Трек 17
Имя файла E:\FTP\PUB\Music\Worldmusic\Mireille Mathieu\2007 - Meine Welt ist die Musik (Reader’s Digest GER CD)\17 - Ich schau' in deine Augen.wav
Длина предзазора 0:00:02.03
Пиковый уровень 99.0 % Скорость извлечения 8.9 X Качество трека 100.0 % CRC теста 6A3EB4DB CRC копии 6A3EB4DB Копирование... OK
Трек 18
Имя файла E:\FTP\PUB\Music\Worldmusic\Mireille Mathieu\2007 - Meine Welt ist die Musik (Reader’s Digest GER CD)\18 - Schau mich bitte nicht so an.wav
Длина предзазора 0:00:00.66
Пиковый уровень 99.0 % Скорость извлечения 8.7 X Качество трека 100.0 % CRC теста 08FEE4F0 CRC копии 08FEE4F0 Копирование... OK
Трек 19
Имя файла E:\FTP\PUB\Music\Worldmusic\Mireille Mathieu\2007 - Meine Welt ist die Musik (Reader’s Digest GER CD)\19 - Zuruck zur zartlichkeit.wav
Длина предзазора 0:00:01.28
Пиковый уровень 99.0 % Скорость извлечения 8.0 X Качество трека 99.9 % CRC теста A1A42286 CRC копии A1A42286 Копирование... OK
Трек 20
Имя файла E:\FTP\PUB\Music\Worldmusic\Mireille Mathieu\2007 - Meine Welt ist die Musik (Reader’s Digest GER CD)\20 - Fur Liebe ist es nie zu spat.wav
Длина предзазора 0:00:01.55
Пиковый уровень 99.0 % Скорость извлечения 9.3 X Качество трека 100.0 % CRC теста C8DE6913 CRC копии C8DE6913 Копирование... OK
Трек 21
Имя файла E:\FTP\PUB\Music\Worldmusic\Mireille Mathieu\2007 - Meine Welt ist die Musik (Reader’s Digest GER CD)\21 - Together We're Strong (Avec Patrick Duffy).wav
Длина предзазора 0:00:01.27
Пиковый уровень 99.0 % Скорость извлечения 8.2 X Качество трека 99.9 % CRC теста 9B6B65FC CRC копии 9B6B65FC Копирование... OK
Ошибок не произошло
Конец отчёта
---- CUETools DB Plugin V2.1.3
[CTDB TOCID: t80DG92gR62Lt7WREIDl_NjvnnQ-] found, Submit result: t80DG92gR62Lt7WREIDl_NjvnnQ- has been confirmed[427d7e14] (1/1) Accurately ripped
==== Контрольная сумма отчёта 7377C50FE5AADDABA5B62F9CFAD72EEF50CC4F63957951AB56D84B32075A37CA ====
------------------------------------------------------------
Exact Audio Copy V1.0 beta 3 from 29. August 2011
Отчёт EAC об извлечении, выполненном 11. ноября 2012, 17:55
Mireille Mathieu / Meine Welt ist die Musik
Дисковод: TSSTcorpCDDVDW SH-222BB Adapter: 0 ID: 2
Режим чтения : ДостоверностьИспользование точного потока : ДаОтключение кэша аудио : ДаИспользование указателей C2 : Нет
Коррекция смещения при чтении : 6Способность читать области Lead-in и Lead-out : НетЗаполнение пропущенных сэмплов тишиной : ДаУдаление блоков с тишиной в начале и конце : НетПри вычислениях CRC использовались нулевые сэмплы : ДаИнтерфейс : Установленный внешний ASPI-интерфейсОбработка зазоров : Добавлено к предыдущему треку
Выходной формат : Пользовательский кодировщикВыбранный битрейт : 768 kBit/sКачество : ВысокийДобавление ID3-тега : НетУтилита сжатия : C:\Program Files (x86)\Exact Audio Copy\FLAC\FLAC.EXEДополнительные параметры : -V -8 -T "Genre=%genre%" -T "Artist=%artist%" -T "Title=%title%" -T "Album=%albumtitle%" -T "Date=%year%" -T "Tracknumber=%tracknr%" -T "Comment=%comment%" %source%
TOC извлечённого CD
Трек | Старт | Длительность | Начальный сектор | Конечный сектор --------------------------------------------------------------------- 1 | 0:00.00 | 2:31.38 | 0 | 11362 2 | 2:31.38 | 3:21.60 | 11363 | 26497 3 | 5:53.23 | 2:51.07 | 26498 | 39329 4 | 8:44.30 | 2:34.25 | 39330 | 50904 5 | 11:18.55 | 3:12.60 | 50905 | 65364 6 | 14:31.40 | 2:46.50 | 65365 | 77864 7 | 17:18.15 | 3:29.44 | 77865 | 93583 8 | 20:47.59 | 3:32.00 | 93584 | 109483 9 | 24:19.59 | 3:58.25 | 109484 | 127358 10 | 28:18.09 | 2:58.12 | 127359 | 140720 11 | 31:16.21 | 2:51.01 | 140721 | 153546 12 | 34:07.22 | 3:00.13 | 153547 | 167059 13 | 37:07.35 | 2:40.70 | 167060 | 179129 14 | 39:48.30 | 3:22.41 | 179130 | 194320 15 | 43:10.71 | 3:02.63 | 194321 | 208033 16 | 46:13.59 | 3:25.30 | 208034 | 223438 17 | 49:39.14 | 2:43.09 | 223439 | 235672 18 | 52:22.23 | 2:59.70 | 235673 | 249167 19 | 55:22.18 | 3:45.29 | 249168 | 266071 20 | 59:07.47 | 3:13.70 | 266072 | 280616 21 | 62:21.42 | 4:00.72 | 280617 | 298688 22 | 66:22.39 | 2:42.26 | 298689 | 310864 23 | 69:04.65 | 3:05.16 | 310865 | 324755 24 | 72:10.06 | 3:18.12 | 324756 | 339617
Трек 1
Имя файла E:\FTP\PUB\Music\Worldmusic\Mireille Mathieu\2007 - Meine Welt ist die Musik (Reader’s Digest GER CD)\22 - Plaisir d'amour (de).wav
Длина предзазора 0:00:02.00
Пиковый уровень 96.3 % Скорость извлечения 4.4 X Качество трека 100.0 % CRC теста BB766F38 CRC копии BB766F38 Копирование... OK
Трек 2
Имя файла E:\FTP\PUB\Music\Worldmusic\Mireille Mathieu\2007 - Meine Welt ist die Musik (Reader’s Digest GER CD)\23 - An einem Sonntag in Avignon.wav
Длина предзазора 0:00:01.47
Пиковый уровень 96.8 % Скорость извлечения 4.9 X Качество трека 100.0 % CRC теста E93C6B68 CRC копии E93C6B68 Копирование... OK
Трек 3
Имя файла E:\FTP\PUB\Music\Worldmusic\Mireille Mathieu\2007 - Meine Welt ist die Musik (Reader’s Digest GER CD)\24 - Es geht mir gut Cherie.wav
Длина предзазора 0:00:01.56
Пиковый уровень 99.0 % Скорость извлечения 5.1 X Качество трека 100.0 % CRC теста 29ECE346 CRC копии 29ECE346 Копирование... OK
Трек 4
Имя файла E:\FTP\PUB\Music\Worldmusic\Mireille Mathieu\2007 - Meine Welt ist die Musik (Reader’s Digest GER CD)\25 - Hinter den Kulissen von Paris.wav
Длина предзазора 0:00:01.41
Пиковый уровень 99.0 % Скорость извлечения 4.3 X Качество трека 99.9 % CRC теста 6D5B1C90 CRC копии 6D5B1C90 Копирование... OK
Трек 5
Имя файла E:\FTP\PUB\Music\Worldmusic\Mireille Mathieu\2007 - Meine Welt ist die Musik (Reader’s Digest GER CD)\26 - Sweet souvenirs of Stefan.wav
Длина предзазора 0:00:01.68
Пиковый уровень 99.0 % Скорость извлечения 5.7 X Качество трека 100.0 % CRC теста 1A39B6F1 CRC копии 1A39B6F1 Копирование... OK
Трек 6
Имя файла E:\FTP\PUB\Music\Worldmusic\Mireille Mathieu\2007 - Meine Welt ist die Musik (Reader’s Digest GER CD)\27 - Die Spatzen von Paris.wav
Длина предзазора 0:00:02.21
Пиковый уровень 99.0 % Скорость извлечения 4.8 X Качество трека 99.9 % CRC теста 6BECF03F CRC копии 6BECF03F Копирование... OK
Трек 7
Имя файла E:\FTP\PUB\Music\Worldmusic\Mireille Mathieu\2007 - Meine Welt ist die Musik (Reader’s Digest GER CD)\28 - Akropolis, adieu.wav
Длина предзазора 0:00:02.05
Пиковый уровень 99.0 % Скорость извлечения 6.2 X Качество трека 100.0 % CRC теста 3A86D297 CRC копии 3A86D297 Копирование... OK
Трек 8
Имя файла E:\FTP\PUB\Music\Worldmusic\Mireille Mathieu\2007 - Meine Welt ist die Musik (Reader’s Digest GER CD)\29 - Ganz Paris ist ein Theater.wav
Длина предзазора 0:00:01.70
Пиковый уровень 99.0 % Скорость извлечения 6.6 X Качество трека 100.0 % CRC теста C59F9679 CRC копии C59F9679 Копирование... OK
Трек 9
Имя файла E:\FTP\PUB\Music\Worldmusic\Mireille Mathieu\2007 - Meine Welt ist die Musik (Reader’s Digest GER CD)\30 - Via colomba bianca.wav
Длина предзазора 0:00:01.68
Пиковый уровень 99.0 % Скорость извлечения 6.9 X Качество трека 100.0 % CRC теста DBA226D4 CRC копии DBA226D4 Копирование... OK
Трек 10
Имя файла E:\FTP\PUB\Music\Worldmusic\Mireille Mathieu\2007 - Meine Welt ist die Musik (Reader’s Digest GER CD)\31 - Die Kinder von Montparnasse.wav
Длина предзазора 0:00:02.43
Пиковый уровень 99.0 % Скорость извлечения 6.8 X Качество трека 100.0 % CRC теста 0948F50F CRC копии 0948F50F Копирование... OK
Трек 11
Имя файла E:\FTP\PUB\Music\Worldmusic\Mireille Mathieu\2007 - Meine Welt ist die Musik (Reader’s Digest GER CD)\32 - Der Pariser Tango.wav
Длина предзазора 0:00:01.45
Пиковый уровень 99.0 % Скорость извлечения 6.9 X Качество трека 100.0 % CRC теста A2BC072D CRC копии A2BC072D Копирование... OK
Трек 12
Имя файла E:\FTP\PUB\Music\Worldmusic\Mireille Mathieu\2007 - Meine Welt ist die Musik (Reader’s Digest GER CD)\33 - Martin.wav
Длина предзазора 0:00:02.07
Пиковый уровень 99.0 % Скорость извлечения 7.1 X Качество трека 100.0 % CRC теста B8530079 CRC копии B8530079 Копирование... OK
Трек 13
Имя файла E:\FTP\PUB\Music\Worldmusic\Mireille Mathieu\2007 - Meine Welt ist die Musik (Reader’s Digest GER CD)\34 - Korsika.wav
Длина предзазора 0:00:01.54
Пиковый уровень 99.0 % Скорость извлечения 7.2 X Качество трека 100.0 % CRC теста E209D385 CRC копии E209D385 Копирование... OK
Трек 14
Имя файла E:\FTP\PUB\Music\Worldmusic\Mireille Mathieu\2007 - Meine Welt ist die Musik (Reader’s Digest GER CD)\35 - Roma, Roma, Roma.wav
Длина предзазора 0:00:02.27
Пиковый уровень 99.0 % Скорость извлечения 7.5 X Качество трека 100.0 % CRC теста 2FF32517 CRC копии 2FF32517 Копирование... OK
Трек 15
Имя файла E:\FTP\PUB\Music\Worldmusic\Mireille Mathieu\2007 - Meine Welt ist die Musik (Reader’s Digest GER CD)\36 - Die Glocken von Notre Dame.wav
Длина предзазора 0:00:03.00
Пиковый уровень 99.0 % Скорость извлечения 7.7 X Качество трека 100.0 % CRC теста 05B37E2F CRC копии 05B37E2F Копирование... OK
Трек 16
Имя файла E:\FTP\PUB\Music\Worldmusic\Mireille Mathieu\2007 - Meine Welt ist die Musik (Reader’s Digest GER CD)\37 - Paris vor hundert Jahren.wav
Длина предзазора 0:00:02.14
Пиковый уровень 93.7 % Скорость извлечения 8.0 X Качество трека 100.0 % CRC теста 0C3241A5 CRC копии 0C3241A5 Копирование... OK
Трек 17
Имя файла E:\FTP\PUB\Music\Worldmusic\Mireille Mathieu\2007 - Meine Welt ist die Musik (Reader’s Digest GER CD)\38 - Sur le pont d'Avignon.wav
Длина предзазора 0:00:01.35
Пиковый уровень 96.8 % Скорость извлечения 7.9 X Качество трека 100.0 % CRC теста D78F8865 CRC копии D78F8865 Копирование... OK
Трек 18
Имя файла E:\FTP\PUB\Music\Worldmusic\Mireille Mathieu\2007 - Meine Welt ist die Musik (Reader’s Digest GER CD)\39 - Der Wein war aus Bordeaux.wav
Длина предзазора 0:00:02.23
Пиковый уровень 96.8 % Скорость извлечения 6.9 X Качество трека 99.9 % CRC теста BD2B2846 CRC копии BD2B2846 Копирование... OK
Трек 19
Имя файла E:\FTP\PUB\Music\Worldmusic\Mireille Mathieu\2007 - Meine Welt ist die Musik (Reader’s Digest GER CD)\40 - Un dernier mot d'amour.wav
Длина предзазора 0:00:01.63
Пиковый уровень 99.0 % Скорость извлечения 8.7 X Качество трека 100.0 % CRC теста 10A2683A CRC копии 10A2683A Копирование... OK
Трек 20
Имя файла E:\FTP\PUB\Music\Worldmusic\Mireille Mathieu\2007 - Meine Welt ist die Musik (Reader’s Digest GER CD)\41 - Mais toi.wav
Длина предзазора 0:00:01.72
Пиковый уровень 99.0 % Скорость извлечения 8.6 X Качество трека 100.0 % CRC теста C8924B70 CRC копии C8924B70 Копирование... OK
Трек 21
Имя файла E:\FTP\PUB\Music\Worldmusic\Mireille Mathieu\2007 - Meine Welt ist die Musik (Reader’s Digest GER CD)\42 - Der Clochard.wav
Длина предзазора 0:00:02.34
Пиковый уровень 99.0 % Скорость извлечения 9.1 X Качество трека 100.0 % CRC теста D2FCCFF5 CRC копии D2FCCFF5 Копирование... OK
Трек 22
Имя файла E:\FTP\PUB\Music\Worldmusic\Mireille Mathieu\2007 - Meine Welt ist die Musik (Reader’s Digest GER CD)\43 - Ein Lied aus Paris.wav
Длина предзазора 0:00:01.05
Пиковый уровень 99.0 % Скорость извлечения 7.2 X Качество трека 99.9 % CRC теста 6950142F CRC копии 6950142F Копирование... OK
Трек 23
Имя файла E:\FTP\PUB\Music\Worldmusic\Mireille Mathieu\2007 - Meine Welt ist die Musik (Reader’s Digest GER CD)\44 - Wenn es Nacht wird in Paris.wav
Длина предзазора 0:00:02.52
Пиковый уровень 99.8 % Скорость извлечения 8.9 X Качество трека 100.0 % CRC теста EF12102E CRC копии EF12102E Копирование... OK
Трек 24
Имя файла E:\FTP\PUB\Music\Worldmusic\Mireille Mathieu\2007 - Meine Welt ist die Musik (Reader’s Digest GER CD)\45 - Parlez-moi d'amour (de).wav
Длина предзазора 0:00:02.22
Пиковый уровень 99.0 % Скорость извлечения 9.2 X Качество трека 100.0 % CRC теста 1B2A0485 CRC копии 1B2A0485 Копирование... OK
Ошибок не произошло
Конец отчёта
---- CUETools DB Plugin V2.1.3
[CTDB TOCID: lDIp1xxYNGUcQSk9xImZhPnXj5Q-] found, Submit result: lDIp1xxYNGUcQSk9xImZhPnXj5Q- has been confirmed[707a474d] (1/1) Accurately ripped
==== Контрольная сумма отчёта EA6D76A5D1AB9C0E874857F68E237CD2D64EFB3454B2482B1B1ACD3A8C67BF03 ====
------------------------------------------------------------
Exact Audio Copy V1.0 beta 3 from 29. August 2011
Отчёт EAC об извлечении, выполненном 11. ноября 2012, 18:57
Mireille Mathieu / Meine Welt ist die Musik
Дисковод: TSSTcorpCDDVDW SH-222BB Adapter: 0 ID: 2
Режим чтения : ДостоверностьИспользование точного потока : ДаОтключение кэша аудио : ДаИспользование указателей C2 : Нет
Коррекция смещения при чтении : 6Способность читать области Lead-in и Lead-out : НетЗаполнение пропущенных сэмплов тишиной : ДаУдаление блоков с тишиной в начале и конце : НетПри вычислениях CRC использовались нулевые сэмплы : ДаИнтерфейс : Установленный внешний ASPI-интерфейсОбработка зазоров : Добавлено к предыдущему треку
Выходной формат : Пользовательский кодировщикВыбранный битрейт : 768 kBit/sКачество : ВысокийДобавление ID3-тега : НетУтилита сжатия : C:\Program Files (x86)\Exact Audio Copy\FLAC\FLAC.EXEДополнительные параметры : -V -8 -T "Genre=%genre%" -T "Artist=%artist%" -T "Title=%title%" -T "Album=%albumtitle%" -T "Date=%year%" -T "Tracknumber=%tracknr%" -T "Comment=%comment%" %source%
TOC извлечённого CD
Трек | Старт | Длительность | Начальный сектор | Конечный сектор --------------------------------------------------------------------- 1 | 0:00.00 | 4:17.34 | 0 | 19308 2 | 4:17.34 | 3:04.64 | 19309 | 33172 3 | 7:22.23 | 3:40.25 | 33173 | 49697 4 | 11:02.48 | 3:02.07 | 49698 | 63354 5 | 14:04.55 | 3:52.41 | 63355 | 80795 6 | 17:57.21 | 3:19.56 | 80796 | 95776 7 | 21:17.02 | 3:47.69 | 95777 | 112870 8 | 25:04.71 | 3:18.23 | 112871 | 127743 9 | 28:23.19 | 3:44.71 | 127744 | 144614 10 | 32:08.15 | 3:56.36 | 144615 | 162350 11 | 36:04.51 | 3:01.47 | 162351 | 175972 12 | 39:06.23 | 2:26.38 | 175973 | 186960 13 | 41:32.61 | 4:09.19 | 186961 | 205654 14 | 45:42.05 | 3:51.70 | 205655 | 223049 15 | 49:34.00 | 3:09.00 | 223050 | 237224 16 | 52:43.00 | 3:46.50 | 237225 | 254224 17 | 56:29.50 | 3:29.59 | 254225 | 269958 18 | 59:59.34 | 4:45.42 | 269959 | 291375 19 | 64:45.01 | 3:43.32 | 291376 | 308132 20 | 68:28.33 | 3:54.43 | 308133 | 325725 21 | 72:23.01 | 3:51.73 | 325726 | 343123
Трек 1
Имя файла E:\FTP\PUB\Music\Worldmusic\Mireille Mathieu\2007 - Meine Welt ist die Musik (Reader’s Digest GER CD)\46 - Und der Wind wird ewig singen.wav
Длина предзазора 0:00:02.00
Пиковый уровень 99.0 % Скорость извлечения 4.9 X Качество трека 100.0 % CRC теста 849DFABC CRC копии 849DFABC Копирование... OK
Трек 2
Имя файла E:\FTP\PUB\Music\Worldmusic\Mireille Mathieu\2007 - Meine Welt ist die Musik (Reader’s Digest GER CD)\47 - Meine Welt ist die Musik.wav
Длина предзазора 0:00:01.31
Пиковый уровень 99.0 % Скорость извлечения 5.0 X Качество трека 100.0 % CRC теста CE825814 CRC копии CE825814 Копирование... OK
Трек 3
Имя файла E:\FTP\PUB\Music\Worldmusic\Mireille Mathieu\2007 - Meine Welt ist die Musik (Reader’s Digest GER CD)\48 - Santa Maria.wav
Длина предзазора 0:00:01.38
Пиковый уровень 99.0 % Скорость извлечения 5.4 X Качество трека 100.0 % CRC теста 1B24CBB3 CRC копии 1B24CBB3 Копирование... OK
Трек 4
Имя файла E:\FTP\PUB\Music\Worldmusic\Mireille Mathieu\2007 - Meine Welt ist die Musik (Reader’s Digest GER CD)\49 - On verra.wav
Длина предзазора 0:00:01.48
Пиковый уровень 99.0 % Скорость извлечения 5.5 X Качество трека 100.0 % CRC теста 6952F908 CRC копии 6952F908 Копирование... OK
Трек 5
Имя файла E:\FTP\PUB\Music\Worldmusic\Mireille Mathieu\2007 - Meine Welt ist die Musik (Reader’s Digest GER CD)\50 - Nimm noch einmal die Gitarre.wav
Длина предзазора 0:00:01.59
Пиковый уровень 99.0 % Скорость извлечения 6.1 X Качество трека 100.0 % CRC теста FAD5DAF0 CRC копии FAD5DAF0 Копирование... OK
Трек 6
Имя файла E:\FTP\PUB\Music\Worldmusic\Mireille Mathieu\2007 - Meine Welt ist die Musik (Reader’s Digest GER CD)\51 - Es geht auch ohne dich.wav
Длина предзазора 0:00:01.60
Пиковый уровень 99.0 % Скорость извлечения 6.2 X Качество трека 100.0 % CRC теста 2419924B CRC копии 2419924B Копирование... OK
Трек 7
Имя файла E:\FTP\PUB\Music\Worldmusic\Mireille Mathieu\2007 - Meine Welt ist die Musik (Reader’s Digest GER CD)\52 - Kleine Schwalbe (Fur die Heimkehr ist es nie zu spat).wav
Длина предзазора 0:00:01.57
Пиковый уровень 96.8 % Скорость извлечения 6.6 X Качество трека 100.0 % CRC теста 52014522 CRC копии 52014522 Копирование... OK
Трек 8
Имя файла E:\FTP\PUB\Music\Worldmusic\Mireille Mathieu\2007 - Meine Welt ist die Musik (Reader’s Digest GER CD)\53 - Santa Lucia.wav
Длина предзазора 0:00:01.59
Пиковый уровень 99.0 % Скорость извлечения 6.7 X Качество трека 100.0 % CRC теста EA553F6A CRC копии EA553F6A Копирование... OK
Трек 9
Имя файла E:\FTP\PUB\Music\Worldmusic\Mireille Mathieu\2007 - Meine Welt ist die Musik (Reader’s Digest GER CD)\54 - Alle Kinder dieser Erde.wav
Длина предзазора 0:00:02.13
Пиковый уровень 99.0 % Скорость извлечения 7.1 X Качество трека 100.0 % CRC теста 40F33316 CRC копии 40F33316 Копирование... OK
Трек 10
Имя файла E:\FTP\PUB\Music\Worldmusic\Mireille Mathieu\2007 - Meine Welt ist die Musik (Reader’s Digest GER CD)\55 - Winter In Canada.wav
Длина предзазора 0:00:01.50
Пиковый уровень 99.0 % Скорость извлечения 7.4 X Качество трека 100.0 % CRC теста 6B354ACE CRC копии 6B354ACE Копирование... OK
Трек 11
Имя файла E:\FTP\PUB\Music\Worldmusic\Mireille Mathieu\2007 - Meine Welt ist die Musik (Reader’s Digest GER CD)\56 - Der Zar und das Madchen.wav
Длина предзазора 0:00:01.64
Пиковый уровень 99.0 % Скорость извлечения 7.2 X Качество трека 100.0 % CRC теста 9F4A3499 CRC копии 9F4A3499 Копирование... OK
Трек 12
Имя файла E:\FTP\PUB\Music\Worldmusic\Mireille Mathieu\2007 - Meine Welt ist die Musik (Reader’s Digest GER CD)\57 - So ein schoner Abend.wav
Длина предзазора 0:00:02.53
Пиковый уровень 99.0 % Скорость извлечения 7.1 X Качество трека 100.0 % CRC теста AA74A183 CRC копии AA74A183 Копирование... OK
Трек 13
Имя файла E:\FTP\PUB\Music\Worldmusic\Mireille Mathieu\2007 - Meine Welt ist die Musik (Reader’s Digest GER CD)\58 - Das Riesenrad.wav
Длина предзазора 0:00:01.68
Пиковый уровень 99.0 % Скорость извлечения 8.0 X Качество трека 100.0 % CRC теста 647BA7AF CRC копии 647BA7AF Копирование... OK
Трек 14
Имя файла E:\FTP\PUB\Music\Worldmusic\Mireille Mathieu\2007 - Meine Welt ist die Musik (Reader’s Digest GER CD)\59 - La Paloma ade.wav
Длина предзазора 0:00:01.56
Пиковый уровень 99.0 % Скорость извлечения 8.2 X Качество трека 100.0 % CRC теста F036CDE4 CRC копии F036CDE4 Копирование... OK
Трек 15
Имя файла E:\FTP\PUB\Music\Worldmusic\Mireille Mathieu\2007 - Meine Welt ist die Musik (Reader’s Digest GER CD)\60 - Zuhause wartet Natascha.wav
Длина предзазора 0:00:01.67
Пиковый уровень 99.0 % Скорость извлечения 8.1 X Качество трека 100.0 % CRC теста 7BBF00C6 CRC копии 7BBF00C6 Копирование... OK
Трек 16
Имя файла E:\FTP\PUB\Music\Worldmusic\Mireille Mathieu\2007 - Meine Welt ist die Musik (Reader’s Digest GER CD)\61 - Mein letzter Tanz.wav
Длина предзазора 0:00:01.72
Пиковый уровень 99.0 % Скорость извлечения 8.5 X Качество трека 100.0 % CRC теста 5A003203 CRC копии 5A003203 Копирование... OK
Трек 17
Имя файла E:\FTP\PUB\Music\Worldmusic\Mireille Mathieu\2007 - Meine Welt ist die Musik (Reader’s Digest GER CD)\62 - Aloa-he.wav
Длина предзазора 0:00:01.33
Пиковый уровень 99.0 % Скорость извлечения 7.5 X Качество трека 99.9 % CRC теста 4BDA3C98 CRC копии 4BDA3C98 Копирование... OK
Трек 18
Имя файла E:\FTP\PUB\Music\Worldmusic\Mireille Mathieu\2007 - Meine Welt ist die Musik (Reader’s Digest GER CD)\63 - Tage wie aus Glas.wav
Длина предзазора 0:00:02.22
Пиковый уровень 99.0 % Скорость извлечения 9.2 X Качество трека 100.0 % CRC теста FD78F080 CRC копии FD78F080 Копирование... OK
Трек 19
Имя файла E:\FTP\PUB\Music\Worldmusic\Mireille Mathieu\2007 - Meine Welt ist die Musik (Reader’s Digest GER CD)\64 - Alles nur ein Spiel.wav
Длина предзазора 0:00:01.61
Пиковый уровень 99.0 % Скорость извлечения 7.8 X Качество трека 99.9 % CRC теста 5E8D0AC9 CRC копии 5E8D0AC9 Копирование... OK
Трек 20
Имя файла E:\FTP\PUB\Music\Worldmusic\Mireille Mathieu\2007 - Meine Welt ist die Musik (Reader’s Digest GER CD)\65 - Abschiedslied.wav
Длина предзазора 0:00:01.22
Пиковый уровень 99.0 % Скорость извлечения 9.3 X Качество трека 100.0 % CRC теста 91912AA9 CRC копии 91912AA9 Копирование... OK
Трек 21
Имя файла E:\FTP\PUB\Music\Worldmusic\Mireille Mathieu\2007 - Meine Welt ist die Musik (Reader’s Digest GER CD)\66 - Good-Bye My Love (Verzeih My Love) (with Peter Alexander).wav
Длина предзазора 0:00:01.53
Пиковый уровень 97.7 % Скорость извлечения 9.5 X Качество трека 100.0 % CRC теста 2A07D04A CRC копии 2A07D04A Копирование... OK
Ошибок не произошло
Конец отчёта
---- CUETools DB Plugin V2.1.3
[CTDB TOCID: 0cfvA0gsadP.aOdUQAKOVROzSLM-] found, Submit result: 0cfvA0gsadP.aOdUQAKOVROzSLM- has been confirmed[c1305974] (1/1) Accurately ripped
==== Контрольная сумма отчёта E6D4F70E6B34E156B19E27501CAEDFB10346BE61493F3E6D66608382EEED0391 ====

Содержание индексной карты (.CUE)CD1

REM GENRE Pop-FolkREM DATE 2007REM DISCID 44119115REM COMMENT "ExactAudioCopy v1.0b3"CATALOG 0886971520927PERFORMER "Mireille Mathieu"TITLE "Meine Welt ist die Musik"FILE "01 - Hymne an die Liebe (93).wav" WAVE TRACK 01 AUDIO TITLE "Hymne an die Liebe (93)" PERFORMER "Mireille Mathieu" ISRC DEC719300074 INDEX 01 00:00:00 TRACK 02 AUDIO TITLE "Das Wunder aller Wunder ist die Liebe" PERFORMER "Mireille Mathieu" ISRC DEA817300062 INDEX 00 03:33:30FILE "02 - Das Wunder aller Wunder ist die Liebe.wav" WAVE INDEX 01 00:00:00 TRACK 03 AUDIO TITLE "Aber dich vergess' ich nie" PERFORMER "Mireille Mathieu" ISRC DEA817100027 INDEX 00 02:26:49FILE "03 - Aber dich vergess' ich nie.wav" WAVE INDEX 01 00:00:00 TRACK 04 AUDIO TITLE "Tarata-Ting, Tarata-Tong" PERFORMER "Mireille Mathieu" ISRC DEC717300003 INDEX 00 03:00:31FILE "04 - Tarata-Ting, Tarata-Tong.wav" WAVE INDEX 01 00:00:00 TRACK 05 AUDIO TITLE "Wenn es die Liebe will" PERFORMER "Mireille Mathieu" ISRC DEA817400023 INDEX 00 03:04:26FILE "05 - Wenn es die Liebe will.wav" WAVE INDEX 01 00:00:00 TRACK 06 AUDIO TITLE "Hans im Gluck" PERFORMER "Mireille Mathieu" ISRC DEA810000896 INDEX 00 03:05:28FILE "06 - Hans im Gluck.wav" WAVE INDEX 01 00:00:00 TRACK 07 AUDIO TITLE "Tu es aus Liebe" PERFORMER "Mireille Mathieu" ISRC DEA810500021 INDEX 00 02:55:15FILE "07 - Tu es aus Liebe.wav" WAVE INDEX 01 00:00:00 TRACK 08 AUDIO TITLE "Abschied von Dir" PERFORMER "Mireille Mathieu" ISRC DEA810500040 INDEX 00 03:43:31FILE "08 - Abschied von Dir.wav" WAVE INDEX 01 00:00:00 TRACK 09 AUDIO TITLE "Die Liebe kennt nur der, der sie verloren hat" PERFORMER "Mireille Mathieu" ISRC DEA817700005 INDEX 00 03:55:45FILE "09 - Die Liebe kennt nur der, der sie verloren hat.wav" WAVE INDEX 01 00:00:00 TRACK 10 AUDIO TITLE "Darum leg ich meinen Arm um dich" PERFORMER "Mireille Mathieu" ISRC DEA817700087 INDEX 00 03:13:20FILE "10 - Darum leg ich meinen Arm um dich.wav" WAVE INDEX 01 00:00:00 TRACK 11 AUDIO TITLE "Walzer der Liebe" PERFORMER "Mireille Mathieu" ISRC DEA817700003 INDEX 00 03:43:62FILE "11 - Walzer der Liebe.wav" WAVE INDEX 01 00:00:00 TRACK 12 AUDIO TITLE "Bleib noch da" PERFORMER "Mireille Mathieu" ISRC DEA818600108 INDEX 00 03:30:11FILE "12 - Bleib noch da.wav" WAVE INDEX 01 00:00:00 TRACK 13 AUDIO TITLE "Die Liebe einer Frau" PERFORMER "Mireille Mathieu" ISRC DEA818000126 INDEX 00 04:09:25FILE "13 - Die Liebe einer Frau.wav" WAVE INDEX 01 00:00:00 TRACK 14 AUDIO TITLE "Du musst mir gar nichts von Liebe sagen" PERFORMER "Mireille Mathieu" ISRC DEA818100139 INDEX 00 03:29:46FILE "14 - Du musst mir gar nichts von Liebe sagen.wav" WAVE INDEX 01 00:00:00 TRACK 15 AUDIO TITLE "Nur fur dich" PERFORMER "Mireille Mathieu" ISRC DEC700000083 INDEX 00 03:42:36FILE "15 - Nur fur dich.wav" WAVE INDEX 01 00:00:00 TRACK 16 AUDIO TITLE "Die Liebe zu dir (Chariots Of Fire)" PERFORMER "Mireille Mathieu" ISRC DEA818200035 INDEX 00 03:30:07FILE "16 - Die Liebe zu dir (Chariots Of Fire).wav" WAVE INDEX 01 00:00:00 TRACK 17 AUDIO TITLE "Ich schau' in deine Augen" PERFORMER "Mireille Mathieu" ISRC DEA818500063 INDEX 00 03:31:27FILE "17 - Ich schau' in deine Augen.wav" WAVE INDEX 01 00:00:00 TRACK 18 AUDIO TITLE "Schau mich bitte nicht so an" PERFORMER "Mireille Mathieu" ISRC DEA818500077 INDEX 00 04:33:33FILE "18 - Schau mich bitte nicht so an.wav" WAVE INDEX 01 00:00:00 TRACK 19 AUDIO TITLE "Zuruck zur zartlichkeit" PERFORMER "Mireille Mathieu" ISRC DEA818400019 INDEX 00 03:29:29FILE "19 - Zuruck zur zartlichkeit.wav" WAVE INDEX 01 00:00:00 TRACK 20 AUDIO TITLE "Fur Liebe ist es nie zu spat" PERFORMER "Mireille Mathieu" ISRC DEA818700009 INDEX 00 03:48:01FILE "20 - Fur Liebe ist es nie zu spat.wav" WAVE INDEX 01 00:00:00 TRACK 21 AUDIO TITLE "Together We're Strong (Avec Patrick Duffy)" PERFORMER "Mireille Mathieu" ISRC DEA818300015 INDEX 00 04:03:02FILE "21 - Together We're Strong (Avec Patrick Duffy).wav" WAVE INDEX 01 00:00:00

CD2

REM GENRE Pop-FolkREM DATE 2007REM DISCID 5F11B018REM COMMENT "ExactAudioCopy v1.0b3"CATALOG 0886971520927PERFORMER "Mireille Mathieu"TITLE "Meine Welt ist die Musik"FILE "22 - Plaisir d'amour (de).wav" WAVE TRACK 01 AUDIO TITLE "Plaisir d'amour (de)" PERFORMER "Mireille Mathieu" ISRC DEA818500076 INDEX 01 00:00:00 TRACK 02 AUDIO TITLE "An einem Sonntag in Avignon" PERFORMER "Mireille Mathieu" ISRC DEC717000001 INDEX 00 02:29:66FILE "23 - An einem Sonntag in Avignon.wav" WAVE INDEX 01 00:00:00 TRACK 03 AUDIO TITLE "Es geht mir gut Cherie" PERFORMER "Mireille Mathieu" ISRC DEC717000002 INDEX 00 03:20:04FILE "24 - Es geht mir gut Cherie.wav" WAVE INDEX 01 00:00:00 TRACK 04 AUDIO TITLE "Hinter den Kulissen von Paris" PERFORMER "Mireille Mathieu" ISRC DEC716900003 INDEX 00 02:49:41FILE "25 - Hinter den Kulissen von Paris.wav" WAVE INDEX 01 00:00:00 TRACK 05 AUDIO TITLE "Sweet souvenirs of Stefan" PERFORMER "Mireille Mathieu" ISRC DEA810700987 INDEX 00 02:32:32FILE "26 - Sweet souvenirs of Stefan.wav" WAVE INDEX 01 00:00:00 TRACK 06 AUDIO TITLE "Die Spatzen von Paris" PERFORMER "Mireille Mathieu" ISRC DEA817100017 INDEX 00 03:10:39FILE "27 - Die Spatzen von Paris.wav" WAVE INDEX 01 00:00:00 TRACK 07 AUDIO TITLE "Akropolis, adieu" PERFORMER "Mireille Mathieu" ISRC DEC717100002 INDEX 00 02:44:45FILE "28 - Akropolis, adieu.wav" WAVE INDEX 01 00:00:00 TRACK 08 AUDIO TITLE "Ganz Paris ist ein Theater" PERFORMER "Mireille Mathieu" ISRC DEC717100001 INDEX 00 03:27:49FILE "29 - Ganz Paris ist ein Theater.wav" WAVE INDEX 01 00:00:00 TRACK 09 AUDIO TITLE "Via colomba bianca" PERFORMER "Mireille Mathieu" ISRC DEC700000084 INDEX 00 03:30:07FILE "30 - Via colomba bianca.wav" WAVE INDEX 01 00:00:00 TRACK 10 AUDIO TITLE "Die Kinder von Montparnasse" PERFORMER "Mireille Mathieu" ISRC DEA817000028 INDEX 00 03:55:57FILE "31 - Die Kinder von Montparnasse.wav" WAVE INDEX 01 00:00:00 TRACK 11 AUDIO TITLE "Der Pariser Tango" PERFORMER "Mireille Mathieu" ISRC DEC707100001 INDEX 00 02:56:42FILE "32 - Der Pariser Tango.wav" WAVE INDEX 01 00:00:00 TRACK 12 AUDIO TITLE "Martin" PERFORMER "Mireille Mathieu" ISRC DEC716900002 INDEX 00 02:48:69FILE "33 - Martin.wav" WAVE INDEX 01 00:00:00 TRACK 13 AUDIO TITLE "Korsika" PERFORMER "Mireille Mathieu" ISRC DEA817200006 INDEX 00 02:58:34FILE "34 - Korsika.wav" WAVE INDEX 01 00:00:00 TRACK 14 AUDIO TITLE "Roma, Roma, Roma" PERFORMER "Mireille Mathieu" ISRC DEA810400531 INDEX 00 02:38:43FILE "35 - Roma, Roma, Roma.wav" WAVE INDEX 01 00:00:00 TRACK 15 AUDIO TITLE "Die Glocken von Notre Dame" PERFORMER "Mireille Mathieu" ISRC DEA817500174 INDEX 00 03:19:41FILE "36 - Die Glocken von Notre Dame.wav" WAVE INDEX 01 00:00:00 TRACK 16 AUDIO TITLE "Paris vor hundert Jahren" PERFORMER "Mireille Mathieu" ISRC DEA810500044 INDEX 00 03:00:49FILE "37 - Paris vor hundert Jahren.wav" WAVE INDEX 01 00:00:00 TRACK 17 AUDIO TITLE "Sur le pont d'Avignon" PERFORMER "Mireille Mathieu" ISRC DEA817500252 INDEX 00 03:23:70FILE "38 - Sur le pont d'Avignon.wav" WAVE INDEX 01 00:00:00 TRACK 18 AUDIO TITLE "Der Wein war aus Bordeaux" PERFORMER "Mireille Mathieu" ISRC DEA817600049 INDEX 00 02:40:61FILE "39 - Der Wein war aus Bordeaux.wav" WAVE INDEX 01 00:00:00 TRACK 19 AUDIO TITLE "Un dernier mot d'amour" PERFORMER "Mireille Mathieu" ISRC DEA810500238 INDEX 00 02:58:07FILE "40 - Un dernier mot d'amour.wav" WAVE INDEX 01 00:00:00 TRACK 20 AUDIO TITLE "Mais toi" PERFORMER "Mireille Mathieu" ISRC DEA810500225 INDEX 00 03:43:32FILE "41 - Mais toi.wav" WAVE INDEX 01 00:00:00 TRACK 21 AUDIO TITLE "Der Clochard" PERFORMER "Mireille Mathieu" ISRC DEA818200033 INDEX 00 03:11:36FILE "42 - Der Clochard.wav" WAVE INDEX 01 00:00:00 TRACK 22 AUDIO TITLE "Ein Lied aus Paris" PERFORMER "Mireille Mathieu" ISRC DEA818500070 INDEX 00 03:59:67FILE "43 - Ein Lied aus Paris.wav" WAVE INDEX 01 00:00:00 TRACK 23 AUDIO TITLE "Wenn es Nacht wird in Paris" PERFORMER "Mireille Mathieu" ISRC DEA810500082 INDEX 00 02:39:49FILE "44 - Wenn es Nacht wird in Paris.wav" WAVE INDEX 01 00:00:00 TRACK 24 AUDIO TITLE "Parlez-moi d'amour (de)" PERFORMER "Mireille Mathieu" ISRC DEA818500075 INDEX 00 03:02:69FILE "45 - Parlez-moi d'amour (de).wav" WAVE INDEX 01 00:00:00

CD3

REM GENRE Pop-FolkREM DATE 2007REM DISCID 4011DE15REM COMMENT "ExactAudioCopy v1.0b3"CATALOG 0886971520927PERFORMER "Mireille Mathieu"TITLE "Meine Welt ist die Musik"FILE "46 - Und der Wind wird ewig singen.wav" WAVE TRACK 01 AUDIO TITLE "Und der Wind wird ewig singen" PERFORMER "Mireille Mathieu" ISRC DEA817400070 INDEX 01 00:00:00 TRACK 02 AUDIO TITLE "Meine Welt ist die Musik" PERFORMER "Mireille Mathieu" ISRC DEC717000003 INDEX 00 04:16:03FILE "47 - Meine Welt ist die Musik.wav" WAVE INDEX 01 00:00:00 TRACK 03 AUDIO TITLE "Santa Maria" PERFORMER "Mireille Mathieu" ISRC DEA818000030 INDEX 00 03:03:26FILE "48 - Santa Maria.wav" WAVE INDEX 01 00:00:00 TRACK 04 AUDIO TITLE "On verra" PERFORMER "Mireille Mathieu" ISRC DEA810500089 INDEX 00 03:38:52FILE "49 - On verra.wav" WAVE INDEX 01 00:00:00 TRACK 05 AUDIO TITLE "Nimm noch einmal die Gitarre" PERFORMER "Mireille Mathieu" ISRC DEA817700006 INDEX 00 03:00:23FILE "50 - Nimm noch einmal die Gitarre.wav" WAVE INDEX 01 00:00:00 TRACK 06 AUDIO TITLE "Es geht auch ohne dich" PERFORMER "Mireille Mathieu" ISRC DEA810500097 INDEX 00 03:50:56FILE "51 - Es geht auch ohne dich.wav" WAVE INDEX 01 00:00:00 TRACK 07 AUDIO TITLE "Kleine Schwalbe (Fur die Heimkehr ist es nie zu spat)" PERFORMER "Mireille Mathieu" ISRC DEC700000080 INDEX 00 03:17:74FILE "52 - Kleine Schwalbe (Fur die Heimkehr ist es nie zu spat).wav" WAVE INDEX 01 00:00:00 TRACK 08 AUDIO TITLE "Santa Lucia" PERFORMER "Mireille Mathieu" ISRC DEA810500131 INDEX 00 03:46:10FILE "53 - Santa Lucia.wav" WAVE INDEX 01 00:00:00 TRACK 09 AUDIO TITLE "Alle Kinder dieser Erde" PERFORMER "Mireille Mathieu" ISRC DEA817800020 INDEX 00 03:16:10FILE "54 - Alle Kinder dieser Erde.wav" WAVE INDEX 01 00:00:00 TRACK 10 AUDIO TITLE "Winter In Canada" PERFORMER "Mireille Mathieu" ISRC DEA817400022 INDEX 00 03:43:21FILE "55 - Winter In Canada.wav" WAVE INDEX 01 00:00:00 TRACK 11 AUDIO TITLE "Der Zar und das Madchen" PERFORMER "Mireille Mathieu" ISRC DEC717500002 INDEX 00 03:54:47FILE "56 - Der Zar und das Madchen.wav" WAVE INDEX 01 00:00:00 TRACK 12 AUDIO TITLE "So ein schoner Abend" PERFORMER "Mireille Mathieu" ISRC DEA810500144 INDEX 00 02:58:69FILE "57 - So ein schoner Abend.wav" WAVE INDEX 01 00:00:00 TRACK 13 AUDIO TITLE "Das Riesenrad" PERFORMER "Mireille Mathieu" ISRC DEA810500022 INDEX 00 02:24:45FILE "58 - Das Riesenrad.wav" WAVE INDEX 01 00:00:00 TRACK 14 AUDIO TITLE "La Paloma ade" PERFORMER "Mireille Mathieu" ISRC DEC717300002 INDEX 00 04:07:38FILE "59 - La Paloma ade.wav" WAVE INDEX 01 00:00:00 TRACK 15 AUDIO TITLE "Zuhause wartet Natascha" PERFORMER "Mireille Mathieu" ISRC DEA817900011 INDEX 00 03:50:03FILE "60 - Zuhause wartet Natascha.wav" WAVE INDEX 01 00:00:00 TRACK 16 AUDIO TITLE "Mein letzter Tanz" PERFORMER "Mireille Mathieu" ISRC DEA817300067 INDEX 00 03:07:03FILE "61 - Mein letzter Tanz.wav" WAVE INDEX 01 00:00:00 TRACK 17 AUDIO TITLE "Aloa-he" PERFORMER "Mireille Mathieu" ISRC DEC700000081 INDEX 00 03:45:17FILE "62 - Aloa-he.wav" WAVE INDEX 01 00:00:00 TRACK 18 AUDIO TITLE "Tage wie aus Glas" PERFORMER "Mireille Mathieu" ISRC DEA818000026 INDEX 00 03:27:37FILE "63 - Tage wie aus Glas.wav" WAVE INDEX 01 00:00:00 TRACK 19 AUDIO TITLE "Alles nur ein Spiel" PERFORMER "Mireille Mathieu" ISRC DEA819900534 INDEX 00 04:43:56FILE "64 - Alles nur ein Spiel.wav" WAVE INDEX 01 00:00:00 TRACK 20 AUDIO TITLE "Abschiedslied" PERFORMER "Mireille Mathieu" ISRC DEA810500038 INDEX 00 03:42:10FILE "65 - Abschiedslied.wav" WAVE INDEX 01 00:00:00 TRACK 21 AUDIO TITLE "Good-Bye My Love (Verzeih My Love) (with Peter Alexander) " PERFORMER "Mireille Mathieu" ISRC DEA818400107 INDEX 00 03:52:65FILE "66 - Good-Bye My Love (Verzeih My Love) (with Peter Alexander).wav" WAVE INDEX 01 00:00:00
Об альбоме:
Так же уникальный в своём роде сборник.
Есть редкие песни.
Es geht auch ohne dich, On verra, Santa Lucia и Das Riesenrad в CD качестве выходили только в этом сборнике!

If you like the topic, please click share to help develop our site.

To download the file disable ad blocking, and reload the page.

disable adblock How to disable ad blocking?

Download by magnet link 1.56 GB Download Torrent

Login using:

Similar topics

(Chanson française) Aldebert - Enfantillages Vol.2 - 2013, MP3, 320 kbps
 135 MB   0 | 0   30-Apr-17 20:01   80
(Pop | Chanson) Eddy de Pretto - Culte - 2018, MP3, 320 kbps
 175 MB   0 | 0   10-Nov-18 16:15   39


   
Current time is: 21-Mar 17:31 :: All times are UTC + 3