Mireille Mathieu / Und wieder wird es Weihnachtszeit
Жанр: POP-Folk
Страна-производитель диска: Германия
Год издания: 1993
Издатель (лейбл): BMG Ariola
Номер по каталогу: 74321 16866 2
Аудиокодек: FLAC (*.flac)
Тип рипа: tracks+.cue
Битрейт аудио: lossless
Продолжительность: 00:36:59
Источник (релизер): CD (релизер я)
Наличие сканов в содержимом раздачи: да
Треклист:
01 - Leise rieselt der Schnee
Eduard Ebel - Eduard Ebel
02 - Aber Heidschi Bumbeidschi
(Trad.) - (Trad.)
03 - Süßer die Glocken nie klingen
Friedrich Wilhelm Kritzinger - (Trad.)
04 - Es ist ein Ros' entsprungen
(Trad.) - (Trad.)
05 - Stille Nacht (Silent Night)
Joseph Mohr - Franz Xaver Gruber
06 - O du fröhliche (O sanctissima)
Johannes Daniel Falk - (Trad.)
07 - Weiße Weihnacht (White Christmas)
Irving Berlin - Irving Berlin
08 - Tochter Zion, Freue dich
(Trad.) - Georg Friedrich Händel
09 - Es wird schon bald dunkel
(Trad.) - (Trad.)
10 - Herbei, o Ihr gläubigen
(Trad.) - (Trad.)
11 - Weißer Winterwald (Winter Wonderland)
Knud Schwielow - Felix Bernard
12 - Du lieber Weihnachtsmann
Jörg von Schenckendorff - Henri Martinet

Лог создания рипа

Exact Audio Copy V1.0 beta 3 from 29. August 2011
Отчёт EAC об извлечении, выполненном 10. ноября 2012, 15:57
Mireille Mathieu / Und wieder wird es Weihnachtszeit
Дисковод: TSSTcorpCDDVDW SH-222BB Adapter: 0 ID: 2
Режим чтения : ДостоверностьИспользование точного потока : ДаОтключение кэша аудио : ДаИспользование указателей C2 : Нет
Коррекция смещения при чтении : 6Способность читать области Lead-in и Lead-out : НетЗаполнение пропущенных сэмплов тишиной : ДаУдаление блоков с тишиной в начале и конце : НетПри вычислениях CRC использовались нулевые сэмплы : ДаИнтерфейс : Установленный внешний ASPI-интерфейсОбработка зазоров : Добавлено к предыдущему треку
Выходной формат : Пользовательский кодировщикВыбранный битрейт : 768 kBit/sКачество : ВысокийДобавление ID3-тега : НетУтилита сжатия : C:\Program Files (x86)\Exact Audio Copy\FLAC\FLAC.EXEДополнительные параметры : -V -8 -T "Genre=%genre%" -T "Artist=%artist%" -T "Title=%title%" -T "Album=%albumtitle%" -T "Date=%year%" -T "Tracknumber=%tracknr%" -T "Comment=%comment%" %source%
TOC извлечённого CD
Трек | Старт | Длительность | Начальный сектор | Конечный сектор --------------------------------------------------------------------- 1 | 0:00.33 | 2:13.27 | 33 | 10034 2 | 2:13.60 | 3:14.40 | 10035 | 24624 3 | 5:28.25 | 2:51.65 | 24625 | 37514 4 | 8:20.15 | 3:09.18 | 37515 | 51707 5 | 11:29.33 | 3:18.65 | 51708 | 66622 6 | 14:48.23 | 3:58.20 | 66623 | 84492 7 | 18:46.43 | 3:17.32 | 84493 | 99299 8 | 22:04.00 | 2:46.13 | 99300 | 111762 9 | 24:50.13 | 2:56.42 | 111763 | 125004 10 | 27:46.55 | 2:47.63 | 125005 | 137592 11 | 30:34.43 | 2:44.30 | 137593 | 149922 12 | 33:18.73 | 3:40.35 | 149923 | 166457
Трек 1
Имя файла E:\FTP\PUB\Music\Worldmusic\Mireille Mathieu\1993 - Und wieder wird es Weihnachtszeit (BMG Ariola GER CD)\01 - Leise rieselt der Schnee.wav
Длина предзазора 0:00:02.33
Пиковый уровень 98.9 % Скорость извлечения 1.5 X Качество трека 100.0 % CRC теста E97004C1 CRC копии E97004C1 Копирование... OK
Трек 2
Имя файла E:\FTP\PUB\Music\Worldmusic\Mireille Mathieu\1993 - Und wieder wird es Weihnachtszeit (BMG Ariola GER CD)\02 - Aber Heidschi Bumbeidschi.wav
Длина предзазора 0:00:03.00
Пиковый уровень 98.9 % Скорость извлечения 1.5 X Качество трека 99.9 % CRC теста C9C5DF82 CRC копии C9C5DF82 Копирование... OK
Трек 3
Имя файла E:\FTP\PUB\Music\Worldmusic\Mireille Mathieu\1993 - Und wieder wird es Weihnachtszeit (BMG Ariola GER CD)\03 - Susser die Glocken nie klingen.wav
Длина предзазора 0:00:01.74
Пиковый уровень 88.9 % Скорость извлечения 1.9 X Качество трека 100.0 % CRC теста 301EABAC CRC копии 301EABAC Копирование... OK
Трек 4
Имя файла E:\FTP\PUB\Music\Worldmusic\Mireille Mathieu\1993 - Und wieder wird es Weihnachtszeit (BMG Ariola GER CD)\04 - Es ist ein Ros' entsprungen.wav
Длина предзазора 0:00:04.10
Пиковый уровень 98.9 % Скорость извлечения 1.7 X Качество трека 99.9 % CRC теста 88D99E22 CRC копии 88D99E22 Копирование... OK
Трек 5
Имя файла E:\FTP\PUB\Music\Worldmusic\Mireille Mathieu\1993 - Und wieder wird es Weihnachtszeit (BMG Ariola GER CD)\05 - Stille Nacht.wav
Длина предзазора 0:00:02.17
Пиковый уровень 93.4 % Скорость извлечения 1.9 X Качество трека 99.9 % CRC теста 18B40454 CRC копии 18B40454 Копирование... OK
Трек 6
Имя файла E:\FTP\PUB\Music\Worldmusic\Mireille Mathieu\1993 - Und wieder wird es Weihnachtszeit (BMG Ariola GER CD)\06 - O du frohliche (o sanctissima).wav
Длина предзазора 0:00:01.73
Пиковый уровень 96.0 % Скорость извлечения 2.4 X Качество трека 100.0 % CRC теста C00E50DA CRC копии C00E50DA Копирование... OK
Трек 7
Имя файла E:\FTP\PUB\Music\Worldmusic\Mireille Mathieu\1993 - Und wieder wird es Weihnachtszeit (BMG Ariola GER CD)\07 - Weisse Weihnacht (White Christmas).wav
Длина предзазора 0:00:02.54
Пиковый уровень 83.6 % Скорость извлечения 2.4 X Качество трека 100.0 % CRC теста 7C37C855 CRC копии 7C37C855 Копирование... OK
Трек 8
Имя файла E:\FTP\PUB\Music\Worldmusic\Mireille Mathieu\1993 - Und wieder wird es Weihnachtszeit (BMG Ariola GER CD)\08 - Tochter Zion, freue dich.wav
Длина предзазора 0:00:02.57
Пиковый уровень 98.9 % Скорость извлечения 2.5 X Качество трека 100.0 % CRC теста FFA9F77A CRC копии FFA9F77A Копирование... OK
Трек 9
Имя файла E:\FTP\PUB\Music\Worldmusic\Mireille Mathieu\1993 - Und wieder wird es Weihnachtszeit (BMG Ariola GER CD)\09 - Es wird schon bald dunkel.wav
Длина предзазора 0:00:02.45
Пиковый уровень 81.8 % Скорость извлечения 2.6 X Качество трека 100.0 % CRC теста F5329192 CRC копии F5329192 Копирование... OK
Трек 10
Имя файла E:\FTP\PUB\Music\Worldmusic\Mireille Mathieu\1993 - Und wieder wird es Weihnachtszeit (BMG Ariola GER CD)\10 - Herbei, o ihr Glaubigen.wav
Длина предзазора 0:00:02.52
Пиковый уровень 98.9 % Скорость извлечения 2.6 X Качество трека 100.0 % CRC теста ED6754B4 CRC копии ED6754B4 Копирование... OK
Трек 11
Имя файла E:\FTP\PUB\Music\Worldmusic\Mireille Mathieu\1993 - Und wieder wird es Weihnachtszeit (BMG Ariola GER CD)\11 - Weisser Winterwald (Winter Wonderland).wav
Длина предзазора 0:00:02.45
Пиковый уровень 94.5 % Скорость извлечения 2.7 X Качество трека 100.0 % CRC теста 7A2F21A6 CRC копии 7A2F21A6 Копирование... OK
Трек 12
Имя файла E:\FTP\PUB\Music\Worldmusic\Mireille Mathieu\1993 - Und wieder wird es Weihnachtszeit (BMG Ariola GER CD)\12 - Du lieber Weihnachtsmann.wav
Длина предзазора 0:00:02.60
Пиковый уровень 96.7 % Скорость извлечения 2.6 X Качество трека 99.9 % CRC теста 62AC0656 CRC копии 62AC0656 Копирование... OK
Ошибок не произошло
Конец отчёта
==== Контрольная сумма отчёта 97CF603D8A49705F32783931A652A79DB9F06AC24B9EEFFAF633930613618222 ====

Содержание индексной карты (.CUE)

REM GENRE Pop-FolkREM DATE 1993REM DISCID 8A08AB0CREM COMMENT "ExactAudioCopy v1.0b3"PERFORMER "Mireille Mathieu"TITLE "Und wieder wird es Weihnachtszeit"FILE "01 - Leise rieselt der Schnee.wav" WAVE TRACK 01 AUDIO TITLE "Leise rieselt der Schnee" PERFORMER "Mireille Mathieu" PREGAP 00:00:33 INDEX 01 00:00:00 TRACK 02 AUDIO TITLE "Aber Heidschi Bumbeidschi" PERFORMER "Mireille Mathieu" INDEX 00 02:10:27FILE "02 - Aber Heidschi Bumbeidschi.wav" WAVE INDEX 01 00:00:00 TRACK 03 AUDIO TITLE "Susser die Glocken nie klingen" PERFORMER "Mireille Mathieu" INDEX 00 03:12:41FILE "03 - Susser die Glocken nie klingen.wav" WAVE INDEX 01 00:00:00 TRACK 04 AUDIO TITLE "Es ist ein Ros' entsprungen" PERFORMER "Mireille Mathieu" INDEX 00 02:47:55FILE "04 - Es ist ein Ros' entsprungen.wav" WAVE INDEX 01 00:00:00 TRACK 05 AUDIO TITLE "Stille Nacht" PERFORMER "Mireille Mathieu" INDEX 00 03:07:01FILE "05 - Stille Nacht.wav" WAVE INDEX 01 00:00:00 TRACK 06 AUDIO TITLE "O du frohliche (o sanctissima)" PERFORMER "Mireille Mathieu" INDEX 00 03:16:67FILE "06 - O du frohliche (o sanctissima).wav" WAVE INDEX 01 00:00:00 TRACK 07 AUDIO TITLE "Weisse Weihnacht (White Christmas)" PERFORMER "Mireille Mathieu" INDEX 00 03:55:41FILE "07 - Weisse Weihnacht (White Christmas).wav" WAVE INDEX 01 00:00:00 TRACK 08 AUDIO TITLE "Tochter Zion, freue dich" PERFORMER "Mireille Mathieu" INDEX 00 03:14:50FILE "08 - Tochter Zion, freue dich.wav" WAVE INDEX 01 00:00:00 TRACK 09 AUDIO TITLE "Es wird schon bald dunkel" PERFORMER "Mireille Mathieu" INDEX 00 02:43:43FILE "09 - Es wird schon bald dunkel.wav" WAVE INDEX 01 00:00:00 TRACK 10 AUDIO TITLE "Herbei, o ihr Glaubigen" PERFORMER "Mireille Mathieu" INDEX 00 02:53:65FILE "10 - Herbei, o ihr Glaubigen.wav" WAVE INDEX 01 00:00:00 TRACK 11 AUDIO TITLE "Weisser Winterwald (Winter Wonderland)" PERFORMER "Mireille Mathieu" INDEX 00 02:45:18FILE "11 - Weisser Winterwald (Winter Wonderland).wav" WAVE INDEX 01 00:00:00 TRACK 12 AUDIO TITLE "Du lieber Weihnachtsmann" PERFORMER "Mireille Mathieu" INDEX 00 02:41:45FILE "12 - Du lieber Weihnachtsmann.wav" WAVE INDEX 01 00:00:00
Изначально альбом вышел на виниле в далёком 1976 году (Ariola 27 577 IU).
Это его точная копия в CD качестве.
Сей альбом уже представлен в качестве lossy 192kbps тут: http://********.org/forum/viewtopic.php?t=2472972

To download the file disable ad blocking, and reload the page.

disable adblock How to disable ad blocking?

Download by magnet link 220 MB Download Torrent

Login using:

Загрузка...

Similar topics



   
Current time is: 15-Dec 16:18 :: All times are UTC + 3