Mireille Mathieu / Mireille Mathieu
Жанр: Chanson
Страна-производитель диска: Франция
Год издания: 2003
Издатель (лейбл): Selection du Reader’s Digest
Номер по каталогу: 3340/1.a3, F 03009 FF/1.a3
Аудиокодек: FLAC (*.flac)
Тип рипа: tracks
Битрейт аудио: lossless
Продолжительность: 3:26:25
Источник (релизер): CD (релизер я)
Наличие сканов в содержимом раздачи: да

Треклист

01 - Mon credo
Andre Pascal - Paul Mauriat
02 - Cent fois ma vie
J. Brousolle - H. Giraud
03 - Mon bel amour d'ete
Jean Renard - Jacques Revaux
04 - L'aveugle
S. Saguy - (Trad.)
05 - La premiere danse
Catherine Desage - Christian Bruhn
06 - Qu'elle est belle (Rusty Bells)
Pierre Delanoe - Richard Ahlert / Eddie Snyder
07 - On a tous rendez-vous un jour
Pierre Andre Dousset - Christian Gaubert
08 - C'est dommage
Patricia Carli - Leo Missir
09 - Paris en colere
Maurice Vidalin - Maurice Jarre
10 - Pierrot la musique
Eddy Marnay - Jean Claudric
11 - Il me faut vivre
R. Bernet - Christian Bruhn
12 - Souviens-toi Maria
Catherine Desage - Christian Bruhn
13 - L'anniversaire
P. Giannoli - Alice Dona
14 - Le silence
Serge Lama - Alice Dona
15 - Le village oublie
Eddy Marnay - Christian Bruhn
16 - Par hasard
Claude Lemesle - Alice Dona
17 - Nous les romantiques
Claude Lemesle / Pierre Delanoe - Alice Dona
18 - Je n'ai qu'une vie
Eddy Marnay - Don Costa
19 - Danse la France
Eddy Marnay - Don Costa
20 - La derniere valse (The Last Waltz)
Hubert Ithier - Les Reed
21 - Une femme amoureuse (Woman in Love)
Eddy Marnay - R.H. et B.A. Gibb
22 - Un enfant blond, un enfant brun
J. Blot - S. Prisset / G. Marco
23 - Je ne suis que malheureuse
Pierre Delanoe / Yves Dessca - Yves Dessca / A. Frank
24 - On l'appelait Chicano
Eddy Marnay - Harold Faltermeier
25 - Le canotier de Maurice Chevalier
Eddy Marnay - Raymond Bernard
26 - Acropolis adieu
Catherine Desage - Christian Bruhn
27 - C'est peut-etre moi qui partirai
P. Sevran - S. Lebrail
28 - Plus jamais seule
Eddy Marnay - B. Zambrini
29 - Eternellement amoureuse
Didier Barbelivien - C. Assous
30 - Ces instants de ma vie
Didier Barbelivien - P. Auriat
31 - Tous les enfants chantent avec moi
Eddy Marnay - Bobby Goldsboro
32 - Ma chanson pour aujourd'hui
Eddy Marnay - Ralph Siegel
33 - Petersbourg
Eddy Marnay - Raymond Bernard
34 - Blue Paradise
H. Dumas - C. Assous
35 - Apres toi
Claude Lemesle - U. Balsamo
36 - Le strapontin
Claude Lemesle - Alice Dona
37 - Les violons de la Georgie
Eddy Marnay - Ted Tilson
38 - Mon Dieu c'est un homme
Claude Lemesle - Alice Dona
39 - Je t'ouvrirai encore les bras
Charles Level - Jean Claudric
40 - La paloma adieu
Catherine Desage - S. Yradier
41 - Mille colombes
Eddy Marnay - Christian Bruhn
42 - Tout simplement une femme
J.-L Chesnais - M. Carceles
43 - Je m'ennuie de toi
Eddy Marnay - M. Heinberg
44 - La star des annees trente
Claude Lemesle - Lother Bruhne
45 - Sur les bords du Yang-tse-Kiang
Pierre Delanoe - Wang Li Ping
46 - Ave Maria Norma
J. Dochene - M. Hadson
47 - Comment est-elle?
Didier Barbelivien - Jean Claudric
48 - Amour defendu
Eddy Marnay - (Trad.)
49 - Le jasmin qui parle
Louis Amade - (Trad.)
50 - L'homme en velours
Louis Amade - Francis Lai
51 - Reve ton reve
Eddy Marnay - Jean Claudric
52 - L'enfant volant
Eddy Marnay / V. Pallavicini / W. Molco - Gino Mescoli
53 - Rencontres de Femmes
Eddy Marnay / A. Cogliati - Piero Cassano
54 - L'Americain
Didier Barbelivien - Didier Barbelivien
55 - de Gaulle
Pierre Delanoe - Jacques Revaux
56 - La violence celle qui tue avec les mots
Didier Barbelivien - Didier Barbelivien
57 - Aux marches des eglises
Didier Barbelivien - Didier Barbelivien
58 - Adagio
Didier Barbelivien - Jean Claudric / C. Assous
59 - Santa Maria de la mer
Eddy Marnay - Christian Bruhn
60 - Viens chanter pour le Bon Dieu
Charles Level - Jean Claudric

Лог создания рипа

Exact Audio Copy V1.0 beta 3 from 29. August 2011
Отчёт EAC об извлечении, выполненном 9. ноября 2012, 15:36
Mireille Mathieu / Mireille Mathieu
Дисковод: TSSTcorpCDDVDW SH-222BB Adapter: 0 ID: 2
Режим чтения : ДостоверностьИспользование точного потока : ДаОтключение кэша аудио : ДаИспользование указателей C2 : Нет
Коррекция смещения при чтении : 6Способность читать области Lead-in и Lead-out : НетЗаполнение пропущенных сэмплов тишиной : ДаУдаление блоков с тишиной в начале и конце : НетПри вычислениях CRC использовались нулевые сэмплы : ДаИнтерфейс : Установленный внешний ASPI-интерфейсОбработка зазоров : Добавлено к предыдущему треку
Выходной формат : Пользовательский кодировщикВыбранный битрейт : 768 kBit/sКачество : ВысокийДобавление ID3-тега : НетУтилита сжатия : C:\Program Files (x86)\Exact Audio Copy\FLAC\FLAC.EXEДополнительные параметры : -V -8 -T "Genre=%genre%" -T "Artist=%artist%" -T "Title=%title%" -T "Album=%albumtitle%" -T "Totaldiscs=%totalcds%" -T "Discnumber=%cdnumber%" -T "Date=%year%" -T "Tracknumber=%tracknr%" -T "Comment=%comment%" %source%
TOC извлечённого CD
Трек | Старт | Длительность | Начальный сектор | Конечный сектор --------------------------------------------------------------------- 1 | 0:00.00 | 2:53.29 | 0 | 13003 2 | 2:53.29 | 2:32.29 | 13004 | 24432 3 | 5:25.58 | 3:03.46 | 24433 | 38203 4 | 8:29.29 | 2:56.29 | 38204 | 51432 5 | 11:25.58 | 3:47.40 | 51433 | 68497 6 | 15:13.23 | 2:17.36 | 68498 | 78808 7 | 17:30.59 | 2:23.53 | 78809 | 89586 8 | 19:54.37 | 3:06.29 | 89587 | 103565 9 | 23:00.66 | 2:37.15 | 103566 | 115355 10 | 25:38.06 | 3:07.39 | 115356 | 129419 11 | 28:45.45 | 3:05.10 | 129420 | 143304 12 | 31:50.55 | 3:01.36 | 143305 | 156915 13 | 34:52.16 | 3:48.58 | 156916 | 174073 14 | 38:40.74 | 3:37.59 | 174074 | 190407 15 | 42:18.58 | 3:39.45 | 190408 | 206877 16 | 45:58.28 | 2:25.18 | 206878 | 217770 17 | 48:23.46 | 4:01.09 | 217771 | 235854 18 | 52:24.55 | 3:14.20 | 235855 | 250424 19 | 55:39.00 | 3:02.74 | 250425 | 264148 20 | 58:41.74 | 3:07.55 | 264149 | 278228
Трек 1
Имя файла E:\FTP\PUB\Music\Worldmusic\Mireille Mathieu\2003 - Mireille Mathieu (Selection du Reader's Digest FRA CD)\01 - Mon credo.wav
Длина предзазора 0:00:02.00
Пиковый уровень 73.4 % Скорость извлечения 4.4 X Качество трека 100.0 % CRC теста E018786A CRC копии E018786A Копирование... OK
Трек 2
Имя файла E:\FTP\PUB\Music\Worldmusic\Mireille Mathieu\2003 - Mireille Mathieu (Selection du Reader's Digest FRA CD)\02 - Cent fois ma vie.wav
Длина предзазора 0:00:02.00
Пиковый уровень 81.3 % Скорость извлечения 3.9 X Качество трека 99.9 % CRC теста 0BD01FA9 CRC копии 0BD01FA9 Копирование... OK
Трек 3
Имя файла E:\FTP\PUB\Music\Worldmusic\Mireille Mathieu\2003 - Mireille Mathieu (Selection du Reader's Digest FRA CD)\03 - Mon bel amour d'ete.wav
Длина предзазора 0:00:02.00
Пиковый уровень 98.8 % Скорость извлечения 4.3 X Качество трека 99.9 % CRC теста 5C450ABE CRC копии 5C450ABE Копирование... OK
Трек 4
Имя файла E:\FTP\PUB\Music\Worldmusic\Mireille Mathieu\2003 - Mireille Mathieu (Selection du Reader's Digest FRA CD)\04 - L'aveugle.wav
Длина предзазора 0:00:02.00
Пиковый уровень 92.0 % Скорость извлечения 5.3 X Качество трека 100.0 % CRC теста B8DBD9E6 CRC копии B8DBD9E6 Копирование... OK
Трек 5
Имя файла E:\FTP\PUB\Music\Worldmusic\Mireille Mathieu\2003 - Mireille Mathieu (Selection du Reader's Digest FRA CD)\05 - Le premiere danse.wav
Длина предзазора 0:00:02.00
Пиковый уровень 95.8 % Скорость извлечения 5.8 X Качество трека 100.0 % CRC теста 3F42CE80 CRC копии 3F42CE80 Копирование... OK
Трек 6
Имя файла E:\FTP\PUB\Music\Worldmusic\Mireille Mathieu\2003 - Mireille Mathieu (Selection du Reader's Digest FRA CD)\06 - Qu'elle est belle.wav
Длина предзазора 0:00:02.00
Пиковый уровень 96.1 % Скорость извлечения 5.4 X Качество трека 100.0 % CRC теста 582A8136 CRC копии 582A8136 Копирование... OK
Трек 7
Имя файла E:\FTP\PUB\Music\Worldmusic\Mireille Mathieu\2003 - Mireille Mathieu (Selection du Reader's Digest FRA CD)\07 - On a tous rendez-vous un jour.wav
Длина предзазора 0:00:02.00
Пиковый уровень 85.7 % Скорость извлечения 5.6 X Качество трека 100.0 % CRC теста 798EB5CA CRC копии 798EB5CA Копирование... OK
Трек 8
Имя файла E:\FTP\PUB\Music\Worldmusic\Mireille Mathieu\2003 - Mireille Mathieu (Selection du Reader's Digest FRA CD)\08 - C'est dommage.wav
Длина предзазора 0:00:02.00
Пиковый уровень 97.2 % Скорость извлечения 6.2 X Качество трека 100.0 % CRC теста A7D96D8B CRC копии A7D96D8B Копирование... OK
Трек 9
Имя файла E:\FTP\PUB\Music\Worldmusic\Mireille Mathieu\2003 - Mireille Mathieu (Selection du Reader's Digest FRA CD)\09 - Paris en colere.wav
Длина предзазора 0:00:01.74
Пиковый уровень 98.8 % Скорость извлечения 6.3 X Качество трека 100.0 % CRC теста 982C9A8B CRC копии 982C9A8B Копирование... OK
Трек 10
Имя файла E:\FTP\PUB\Music\Worldmusic\Mireille Mathieu\2003 - Mireille Mathieu (Selection du Reader's Digest FRA CD)\10 - Pierrot la musique.wav
Длина предзазора 0:00:02.00
Пиковый уровень 73.8 % Скорость извлечения 6.6 X Качество трека 100.0 % CRC теста EC57CD23 CRC копии EC57CD23 Копирование... OK
Трек 11
Имя файла E:\FTP\PUB\Music\Worldmusic\Mireille Mathieu\2003 - Mireille Mathieu (Selection du Reader's Digest FRA CD)\11 - Il me faut vivre.wav
Длина предзазора 0:00:02.00
Пиковый уровень 72.9 % Скорость извлечения 6.9 X Качество трека 100.0 % CRC теста 8928A586 CRC копии 8928A586 Копирование... OK
Трек 12
Имя файла E:\FTP\PUB\Music\Worldmusic\Mireille Mathieu\2003 - Mireille Mathieu (Selection du Reader's Digest FRA CD)\12 - Souviens-toi Maria.wav
Длина предзазора 0:00:02.00
Пиковый уровень 90.0 % Скорость извлечения 7.0 X Качество трека 100.0 % CRC теста 1E6A2D75 CRC копии 1E6A2D75 Копирование... OK
Трек 13
Имя файла E:\FTP\PUB\Music\Worldmusic\Mireille Mathieu\2003 - Mireille Mathieu (Selection du Reader's Digest FRA CD)\13 - L'anniversaire.wav
Длина предзазора 0:00:02.00
Пиковый уровень 98.7 % Скорость извлечения 7.4 X Качество трека 100.0 % CRC теста 24564EA6 CRC копии 24564EA6 Копирование... OK
Трек 14
Имя файла E:\FTP\PUB\Music\Worldmusic\Mireille Mathieu\2003 - Mireille Mathieu (Selection du Reader's Digest FRA CD)\14 - Le silence.wav
Длина предзазора 0:00:02.00
Пиковый уровень 95.0 % Скорость извлечения 6.6 X Качество трека 99.9 % CRC теста 19C5B9B0 CRC копии 19C5B9B0 Копирование... OK
Трек 15
Имя файла E:\FTP\PUB\Music\Worldmusic\Mireille Mathieu\2003 - Mireille Mathieu (Selection du Reader's Digest FRA CD)\15 - Le village oublie.wav
Длина предзазора 0:00:02.00
Пиковый уровень 88.2 % Скорость извлечения 7.8 X Качество трека 100.0 % CRC теста 436AC116 CRC копии 436AC116 Копирование... OK
Трек 16
Имя файла E:\FTP\PUB\Music\Worldmusic\Mireille Mathieu\2003 - Mireille Mathieu (Selection du Reader's Digest FRA CD)\16 - Par hasard.wav
Длина предзазора 0:00:02.00
Пиковый уровень 89.7 % Скорость извлечения 7.5 X Качество трека 100.0 % CRC теста 4DE9ED02 CRC копии 4DE9ED02 Копирование... OK
Трек 17
Имя файла E:\FTP\PUB\Music\Worldmusic\Mireille Mathieu\2003 - Mireille Mathieu (Selection du Reader's Digest FRA CD)\17 - Nous, les romantiques.wav
Длина предзазора 0:00:02.00
Пиковый уровень 89.0 % Скорость извлечения 8.3 X Качество трека 100.0 % CRC теста 53DC01E2 CRC копии 53DC01E2 Копирование... OK
Трек 18
Имя файла E:\FTP\PUB\Music\Worldmusic\Mireille Mathieu\2003 - Mireille Mathieu (Selection du Reader's Digest FRA CD)\18 - Je n'ai qu'une vie.wav
Длина предзазора 0:00:02.00
Пиковый уровень 90.0 % Скорость извлечения 8.2 X Качество трека 100.0 % CRC теста ED08CE1F CRC копии ED08CE1F Копирование... OK
Трек 19
Имя файла E:\FTP\PUB\Music\Worldmusic\Mireille Mathieu\2003 - Mireille Mathieu (Selection du Reader's Digest FRA CD)\19 - Dans la France.wav
Длина предзазора 0:00:02.00
Пиковый уровень 81.2 % Скорость извлечения 8.3 X Качество трека 100.0 % CRC теста C16C9B0B CRC копии C16C9B0B Копирование... OK
Трек 20
Имя файла E:\FTP\PUB\Music\Worldmusic\Mireille Mathieu\2003 - Mireille Mathieu (Selection du Reader's Digest FRA CD)\20 - La derniere Valse.wav
Длина предзазора 0:00:02.00
Пиковый уровень 73.6 % Скорость извлечения 8.4 X Качество трека 100.0 % CRC теста 8370DE88 CRC копии 8370DE88 Копирование... OK
Ошибок не произошло
Конец отчёта
---- CUETools DB Plugin V2.1.3
[CTDB TOCID: ImqEhfI6o_3g8ocPNU6elUe5ymI-] disk not present in database, Submit result: ImqEhfI6o_3g8ocPNU6elUe5ymI- has been uploaded
==== Контрольная сумма отчёта FF1770C9BCD15E492F08A815590D52B120BE1192A23AAC80FBEF9AE177BE3BE6 ====
------------------------------------------------------------
Exact Audio Copy V1.0 beta 3 from 29. August 2011
Отчёт EAC об извлечении, выполненном 9. ноября 2012, 16:13
Mireille Mathieu / Mireille Mathieu
Дисковод: TSSTcorpCDDVDW SH-222BB Adapter: 0 ID: 2
Режим чтения : ДостоверностьИспользование точного потока : ДаОтключение кэша аудио : ДаИспользование указателей C2 : Нет
Коррекция смещения при чтении : 6Способность читать области Lead-in и Lead-out : НетЗаполнение пропущенных сэмплов тишиной : ДаУдаление блоков с тишиной в начале и конце : НетПри вычислениях CRC использовались нулевые сэмплы : ДаИнтерфейс : Установленный внешний ASPI-интерфейсОбработка зазоров : Добавлено к предыдущему треку
Выходной формат : Пользовательский кодировщикВыбранный битрейт : 768 kBit/sКачество : ВысокийДобавление ID3-тега : НетУтилита сжатия : C:\Program Files (x86)\Exact Audio Copy\FLAC\FLAC.EXEДополнительные параметры : -V -8 -T "Genre=%genre%" -T "Artist=%artist%" -T "Title=%title%" -T "Album=%albumtitle%" -T "Totaldiscs=%totalcds%" -T "Discnumber=%cdnumber%" -T "Date=%year%" -T "Tracknumber=%tracknr%" -T "Comment=%comment%" %source%
TOC извлечённого CD
Трек | Старт | Длительность | Начальный сектор | Конечный сектор --------------------------------------------------------------------- 1 | 0:00.00 | 4:13.37 | 0 | 19011 2 | 4:13.37 | 3:17.73 | 19012 | 33859 3 | 7:31.35 | 4:12.68 | 33860 | 52827 4 | 11:44.28 | 3:41.69 | 52828 | 69471 5 | 15:26.22 | 5:15.66 | 69472 | 93162 6 | 20:42.13 | 3:29.17 | 93163 | 108854 7 | 24:11.30 | 2:57.72 | 108855 | 122201 8 | 27:09.27 | 3:48.10 | 122202 | 139311 9 | 30:57.37 | 3:41.47 | 139312 | 155933 10 | 34:39.09 | 3:36.48 | 155934 | 172181 11 | 38:15.57 | 3:21.63 | 172182 | 187319 12 | 41:37.45 | 3:33.72 | 187320 | 203366 13 | 45:11.42 | 3:03.01 | 203367 | 217092 14 | 48:14.43 | 2:59.72 | 217093 | 230589 15 | 51:14.40 | 4:04.39 | 230590 | 248928 16 | 55:19.04 | 2:55.68 | 248929 | 262121 17 | 58:14.72 | 2:49.46 | 262122 | 274842 18 | 61:04.43 | 3:58.65 | 274843 | 292757 19 | 65:03.33 | 3:59.49 | 292758 | 310731 20 | 69:03.07 | 3:51.73 | 310732 | 328129
Трек 1
Имя файла E:\FTP\PUB\Music\Worldmusic\Mireille Mathieu\2003 - Mireille Mathieu (Selection du Reader's Digest FRA CD)\21 - Une femme amoureuse (Woman In Love).wav
Длина предзазора 0:00:02.00
Пиковый уровень 83.9 % Скорость извлечения 4.8 X Качество трека 100.0 % CRC теста EC63F590 CRC копии EC63F590 Копирование... OK
Трек 2
Имя файла E:\FTP\PUB\Music\Worldmusic\Mireille Mathieu\2003 - Mireille Mathieu (Selection du Reader's Digest FRA CD)\22 - Un enfant blond un enfant brun.wav
Длина предзазора 0:00:02.00
Пиковый уровень 76.1 % Скорость извлечения 5.0 X Качество трека 100.0 % CRC теста F393D5F4 CRC копии F393D5F4 Копирование... OK
Трек 3
Имя файла E:\FTP\PUB\Music\Worldmusic\Mireille Mathieu\2003 - Mireille Mathieu (Selection du Reader's Digest FRA CD)\23 - Je ne suis que malhereuse.wav
Длина предзазора 0:00:02.00
Пиковый уровень 98.9 % Скорость извлечения 5.5 X Качество трека 100.0 % CRC теста 5B4048CB CRC копии 5B4048CB Копирование... OK
Трек 4
Имя файла E:\FTP\PUB\Music\Worldmusic\Mireille Mathieu\2003 - Mireille Mathieu (Selection du Reader's Digest FRA CD)\24 - On l'appelait Chicano.wav
Длина предзазора 0:00:02.00
Пиковый уровень 78.5 % Скорость извлечения 5.8 X Качество трека 100.0 % CRC теста 4A8860CA CRC копии 4A8860CA Копирование... OK
Трек 5
Имя файла E:\FTP\PUB\Music\Worldmusic\Mireille Mathieu\2003 - Mireille Mathieu (Selection du Reader's Digest FRA CD)\25 - Le canotier de Maurice Chevalier.wav
Длина предзазора 0:00:02.00
Пиковый уровень 90.3 % Скорость извлечения 6.5 X Качество трека 100.0 % CRC теста 8ADEB32B CRC копии 8ADEB32B Копирование... OK
Трек 6
Имя файла E:\FTP\PUB\Music\Worldmusic\Mireille Mathieu\2003 - Mireille Mathieu (Selection du Reader's Digest FRA CD)\26 - Acropolis adieu.wav
Длина предзазора 0:00:02.00
Пиковый уровень 75.7 % Скорость извлечения 6.5 X Качество трека 100.0 % CRC теста 3BC5454D CRC копии 3BC5454D Копирование... OK
Трек 7
Имя файла E:\FTP\PUB\Music\Worldmusic\Mireille Mathieu\2003 - Mireille Mathieu (Selection du Reader's Digest FRA CD)\27 - C'est peut-etre moi qui partirai.wav
Длина предзазора 0:00:02.00
Пиковый уровень 98.8 % Скорость извлечения 5.6 X Качество трека 99.9 % CRC теста FC8EF1D1 CRC копии FC8EF1D1 Копирование... OK
Трек 8
Имя файла E:\FTP\PUB\Music\Worldmusic\Mireille Mathieu\2003 - Mireille Mathieu (Selection du Reader's Digest FRA CD)\28 - Plus jamais seule.wav
Длина предзазора 0:00:02.00
Пиковый уровень 87.9 % Скорость извлечения 7.0 X Качество трека 100.0 % CRC теста C0154211 CRC копии C0154211 Копирование... OK
Трек 9
Имя файла E:\FTP\PUB\Music\Worldmusic\Mireille Mathieu\2003 - Mireille Mathieu (Selection du Reader's Digest FRA CD)\29 - Eternellment amoureuse.wav
Длина предзазора 0:00:02.00
Пиковый уровень 84.4 % Скорость извлечения 7.2 X Качество трека 100.0 % CRC теста A3496C6B CRC копии A3496C6B Копирование... OK
Трек 10
Имя файла E:\FTP\PUB\Music\Worldmusic\Mireille Mathieu\2003 - Mireille Mathieu (Selection du Reader's Digest FRA CD)\30 - C'est instants de ma vie.wav
Длина предзазора 0:00:02.00
Пиковый уровень 78.3 % Скорость извлечения 7.4 X Качество трека 100.0 % CRC теста DC075EA9 CRC копии DC075EA9 Копирование... OK
Трек 11
Имя файла E:\FTP\PUB\Music\Worldmusic\Mireille Mathieu\2003 - Mireille Mathieu (Selection du Reader's Digest FRA CD)\31 - Tpus les enfants chantent avec moi.wav
Длина предзазора 0:00:02.00
Пиковый уровень 87.0 % Скорость извлечения 6.5 X Качество трека 99.9 % CRC теста B2F6F130 CRC копии B2F6F130 Копирование... OK
Трек 12
Имя файла E:\FTP\PUB\Music\Worldmusic\Mireille Mathieu\2003 - Mireille Mathieu (Selection du Reader's Digest FRA CD)\32 - Ma chanson pour ajourd'hui.wav
Длина предзазора 0:00:02.00
Пиковый уровень 83.0 % Скорость извлечения 7.8 X Качество трека 100.0 % CRC теста AEF5984F CRC копии AEF5984F Копирование... OK
Трек 13
Имя файла E:\FTP\PUB\Music\Worldmusic\Mireille Mathieu\2003 - Mireille Mathieu (Selection du Reader's Digest FRA CD)\33 - Petersbourg.wav
Длина предзазора 0:00:02.00
Пиковый уровень 80.4 % Скорость извлечения 7.8 X Качество трека 100.0 % CRC теста 5921B3B2 CRC копии 5921B3B2 Копирование... OK
Трек 14
Имя файла E:\FTP\PUB\Music\Worldmusic\Mireille Mathieu\2003 - Mireille Mathieu (Selection du Reader's Digest FRA CD)\34 - Bleu paradise.wav
Длина предзазора 0:00:02.00
Пиковый уровень 68.1 % Скорость извлечения 7.8 X Качество трека 100.0 % CRC теста D1447CF4 CRC копии D1447CF4 Копирование... OK
Трек 15
Имя файла E:\FTP\PUB\Music\Worldmusic\Mireille Mathieu\2003 - Mireille Mathieu (Selection du Reader's Digest FRA CD)\35 - Apres toi.wav
Длина предзазора 0:00:02.00
Пиковый уровень 83.0 % Скорость извлечения 8.5 X Качество трека 100.0 % CRC теста FDC98764 CRC копии FDC98764 Копирование... OK
Трек 16
Имя файла E:\FTP\PUB\Music\Worldmusic\Mireille Mathieu\2003 - Mireille Mathieu (Selection du Reader's Digest FRA CD)\36 - Le strapontin.wav
Длина предзазора 0:00:02.00
Пиковый уровень 96.7 % Скорость извлечения 8.2 X Качество трека 100.0 % CRC теста AB29F5DC CRC копии AB29F5DC Копирование... OK
Трек 17
Имя файла E:\FTP\PUB\Music\Worldmusic\Mireille Mathieu\2003 - Mireille Mathieu (Selection du Reader's Digest FRA CD)\37 - Les Violons de la Georgie.wav
Длина предзазора 0:00:02.00
Пиковый уровень 80.9 % Скорость извлечения 7.0 X Качество трека 99.9 % CRC теста 42EF088B CRC копии 42EF088B Копирование... OK
Трек 18
Имя файла E:\FTP\PUB\Music\Worldmusic\Mireille Mathieu\2003 - Mireille Mathieu (Selection du Reader's Digest FRA CD)\38 - Mon Dieu, c'est un homme.wav
Длина предзазора 0:00:02.00
Пиковый уровень 85.9 % Скорость извлечения 8.9 X Качество трека 100.0 % CRC теста 15C3965B CRC копии 15C3965B Копирование... OK
Трек 19
Имя файла E:\FTP\PUB\Music\Worldmusic\Mireille Mathieu\2003 - Mireille Mathieu (Selection du Reader's Digest FRA CD)\39 - Je t'ouvrirai encore le bras.wav
Длина предзазора 0:00:02.00
Пиковый уровень 77.8 % Скорость извлечения 8.0 X Качество трека 99.9 % CRC теста D95D8525 CRC копии D95D8525 Копирование... OK
Трек 20
Имя файла E:\FTP\PUB\Music\Worldmusic\Mireille Mathieu\2003 - Mireille Mathieu (Selection du Reader's Digest FRA CD)\40 - La palome adieu.wav
Длина предзазора 0:00:02.00
Пиковый уровень 65.7 % Скорость извлечения 9.3 X Качество трека 100.0 % CRC теста 7A5CFFA7 CRC копии 7A5CFFA7 Копирование... OK
Ошибок не произошло
Конец отчёта
---- CUETools DB Plugin V2.1.3
[CTDB TOCID: uT2wJo6yYzjQxLt.xooKLzgNuR4-] disk not present in database, Submit result: uT2wJo6yYzjQxLt.xooKLzgNuR4- has been uploaded
==== Контрольная сумма отчёта EE3701F6EE0537DBDF1DEFA0BDC5C151245086E093F8EE526D03B86FC8F16921 ====
------------------------------------------------------------
Exact Audio Copy V1.0 beta 3 from 29. August 2011
Отчёт EAC об извлечении, выполненном 9. ноября 2012, 16:45
Mireille Mathieu / Mireille Mathieu
Дисковод: TSSTcorpCDDVDW SH-222BB Adapter: 0 ID: 2
Режим чтения : ДостоверностьИспользование точного потока : ДаОтключение кэша аудио : ДаИспользование указателей C2 : Нет
Коррекция смещения при чтении : 6Способность читать области Lead-in и Lead-out : НетЗаполнение пропущенных сэмплов тишиной : ДаУдаление блоков с тишиной в начале и конце : НетПри вычислениях CRC использовались нулевые сэмплы : ДаИнтерфейс : Установленный внешний ASPI-интерфейсОбработка зазоров : Добавлено к предыдущему треку
Выходной формат : Пользовательский кодировщикВыбранный битрейт : 768 kBit/sКачество : ВысокийДобавление ID3-тега : НетУтилита сжатия : C:\Program Files (x86)\Exact Audio Copy\FLAC\FLAC.EXEДополнительные параметры : -V -8 -T "Genre=%genre%" -T "Artist=%artist%" -T "Title=%title%" -T "Album=%albumtitle%" -T "Totaldiscs=%totalcds%" -T "Discnumber=%cdnumber%" -T "Date=%year%" -T "Tracknumber=%tracknr%" -T "Comment=%comment%" %source%
TOC извлечённого CD
Трек | Старт | Длительность | Начальный сектор | Конечный сектор --------------------------------------------------------------------- 1 | 0:00.00 | 3:53.06 | 0 | 17480 2 | 3:53.06 | 3:16.64 | 17481 | 32244 3 | 7:09.70 | 3:09.25 | 32245 | 46444 4 | 10:19.20 | 3:17.61 | 46445 | 61280 5 | 13:37.06 | 3:28.10 | 61281 | 76890 6 | 17:05.16 | 4:18.12 | 76891 | 96252 7 | 21:23.28 | 4:37.40 | 96253 | 117067 8 | 26:00.68 | 3:29.74 | 117068 | 132816 9 | 29:30.67 | 2:36.26 | 132817 | 144542 10 | 32:07.18 | 3:51.73 | 144543 | 161940 11 | 35:59.16 | 3:28.02 | 161941 | 177542 12 | 39:27.18 | 2:49.61 | 177543 | 190278 13 | 42:17.04 | 3:58.70 | 190279 | 208198 14 | 46:15.74 | 2:49.19 | 208199 | 220892 15 | 49:05.18 | 3:50.62 | 220893 | 238204 16 | 52:56.05 | 3:53.40 | 238205 | 255719 17 | 56:49.45 | 3:17.00 | 255720 | 270494 18 | 60:06.45 | 4:14.16 | 270495 | 289560 19 | 64:20.61 | 3:40.56 | 289561 | 306116 20 | 68:01.42 | 3:39.31 | 306117 | 322572
Трек 1
Имя файла E:\FTP\PUB\Music\Worldmusic\Mireille Mathieu\2003 - Mireille Mathieu (Selection du Reader's Digest FRA CD)\41 - Mille colombes.wav
Длина предзазора 0:00:02.00
Пиковый уровень 93.3 % Скорость извлечения 4.7 X Качество трека 100.0 % CRC теста B2166B58 CRC копии B2166B58 Копирование... OK
Трек 2
Имя файла E:\FTP\PUB\Music\Worldmusic\Mireille Mathieu\2003 - Mireille Mathieu (Selection du Reader's Digest FRA CD)\42 - Tout simplement une femme.wav
Длина предзазора 0:00:02.00
Пиковый уровень 95.9 % Скорость извлечения 4.3 X Качество трека 99.9 % CRC теста 1F4E454F CRC копии 1F4E454F Копирование... OK
Трек 3
Имя файла E:\FTP\PUB\Music\Worldmusic\Mireille Mathieu\2003 - Mireille Mathieu (Selection du Reader's Digest FRA CD)\43 - Je m'ennuie de toi.wav
Длина предзазора 0:00:02.00
Пиковый уровень 94.6 % Скорость извлечения 5.2 X Качество трека 100.0 % CRC теста 6C30C103 CRC копии 6C30C103 Копирование... OK
Трек 4
Имя файла E:\FTP\PUB\Music\Worldmusic\Mireille Mathieu\2003 - Mireille Mathieu (Selection du Reader's Digest FRA CD)\44 - La star des annees trente.wav
Длина предзазора 0:00:02.00
Пиковый уровень 95.7 % Скорость извлечения 5.5 X Качество трека 100.0 % CRC теста 46DE3770 CRC копии 46DE3770 Копирование... OK
Трек 5
Имя файла E:\FTP\PUB\Music\Worldmusic\Mireille Mathieu\2003 - Mireille Mathieu (Selection du Reader's Digest FRA CD)\45 - Sur les bords du Yang-tse-Kiang.wav
Длина предзазора 0:00:02.00
Пиковый уровень 95.0 % Скорость извлечения 5.1 X Качество трека 99.9 % CRC теста CD11D10B CRC копии CD11D10B Копирование... OK
Трек 6
Имя файла E:\FTP\PUB\Music\Worldmusic\Mireille Mathieu\2003 - Mireille Mathieu (Selection du Reader's Digest FRA CD)\46 - Ave Maria Norma.wav
Длина предзазора 0:00:02.00
Пиковый уровень 94.1 % Скорость извлечения 6.4 X Качество трека 100.0 % CRC теста 4A2A920E CRC копии 4A2A920E Копирование... OK
Трек 7
Имя файла E:\FTP\PUB\Music\Worldmusic\Mireille Mathieu\2003 - Mireille Mathieu (Selection du Reader's Digest FRA CD)\47 - Comment est-elle.wav
Длина предзазора 0:00:02.00
Пиковый уровень 94.5 % Скорость извлечения 6.1 X Качество трека 99.9 % CRC теста 786B7116 CRC копии 786B7116 Копирование... OK
Трек 8
Имя файла E:\FTP\PUB\Music\Worldmusic\Mireille Mathieu\2003 - Mireille Mathieu (Selection du Reader's Digest FRA CD)\48 - Amour defendu.wav
Длина предзазора 0:00:02.00
Пиковый уровень 83.5 % Скорость извлечения 6.8 X Качество трека 100.0 % CRC теста 810BEC2C CRC копии 810BEC2C Копирование... OK
Трек 9
Имя файла E:\FTP\PUB\Music\Worldmusic\Mireille Mathieu\2003 - Mireille Mathieu (Selection du Reader's Digest FRA CD)\49 - Le jasmin qui parle.wav
Длина предзазора 0:00:02.00
Пиковый уровень 92.5 % Скорость извлечения 5.5 X Качество трека 99.9 % CRC теста AE830332 CRC копии AE830332 Копирование... OK
Трек 10
Имя файла E:\FTP\PUB\Music\Worldmusic\Mireille Mathieu\2003 - Mireille Mathieu (Selection du Reader's Digest FRA CD)\50 - L'homme en velours.wav
Длина предзазора 0:00:02.00
Пиковый уровень 95.7 % Скорость извлечения 7.3 X Качество трека 100.0 % CRC теста A93F1120 CRC копии A93F1120 Копирование... OK
Трек 11
Имя файла E:\FTP\PUB\Music\Worldmusic\Mireille Mathieu\2003 - Mireille Mathieu (Selection du Reader's Digest FRA CD)\51 - Reve ton reve.wav
Длина предзазора 0:00:02.00
Пиковый уровень 98.1 % Скорость извлечения 7.4 X Качество трека 100.0 % CRC теста 1B47D94D CRC копии 1B47D94D Копирование... OK
Трек 12
Имя файла E:\FTP\PUB\Music\Worldmusic\Mireille Mathieu\2003 - Mireille Mathieu (Selection du Reader's Digest FRA CD)\52 - L'enfant volant.wav
Длина предзазора 0:00:02.00
Пиковый уровень 78.5 % Скорость извлечения 7.3 X Качество трека 100.0 % CRC теста FFBB5CB8 CRC копии FFBB5CB8 Копирование... OK
Трек 13
Имя файла E:\FTP\PUB\Music\Worldmusic\Mireille Mathieu\2003 - Mireille Mathieu (Selection du Reader's Digest FRA CD)\53 - Rencontres de Femmes.wav
Длина предзазора 0:00:02.00
Пиковый уровень 78.5 % Скорость извлечения 8.0 X Качество трека 100.0 % CRC теста D752C238 CRC копии D752C238 Копирование... OK
Трек 14
Имя файла E:\FTP\PUB\Music\Worldmusic\Mireille Mathieu\2003 - Mireille Mathieu (Selection du Reader's Digest FRA CD)\54 - L'Americain.wav
Длина предзазора 0:00:02.00
Пиковый уровень 94.8 % Скорость извлечения 7.7 X Качество трека 100.0 % CRC теста 83D11EAF CRC копии 83D11EAF Копирование... OK
Трек 15
Имя файла E:\FTP\PUB\Music\Worldmusic\Mireille Mathieu\2003 - Mireille Mathieu (Selection du Reader's Digest FRA CD)\55 - de Gaulle.wav
Длина предзазора 0:00:02.00
Пиковый уровень 94.2 % Скорость извлечения 8.3 X Качество трека 100.0 % CRC теста 52DBD7D4 CRC копии 52DBD7D4 Копирование... OK
Трек 16
Имя файла E:\FTP\PUB\Music\Worldmusic\Mireille Mathieu\2003 - Mireille Mathieu (Selection du Reader's Digest FRA CD)\56 - La violence celle qui tue avec les mots.wav
Длина предзазора 0:00:02.00
Пиковый уровень 77.0 % Скорость извлечения 8.3 X Качество трека 100.0 % CRC теста 845FD5A1 CRC копии 845FD5A1 Копирование... OK
Трек 17
Имя файла E:\FTP\PUB\Music\Worldmusic\Mireille Mathieu\2003 - Mireille Mathieu (Selection du Reader's Digest FRA CD)\57 - Aux marches des eglises.wav
Длина предзазора 0:00:02.00
Пиковый уровень 77.9 % Скорость извлечения 8.4 X Качество трека 100.0 % CRC теста 6C35EF9A CRC копии 6C35EF9A Копирование... OK
Трек 18
Имя файла E:\FTP\PUB\Music\Worldmusic\Mireille Mathieu\2003 - Mireille Mathieu (Selection du Reader's Digest FRA CD)\58 - Adagio.wav
Длина предзазора 0:00:02.00
Пиковый уровень 76.7 % Скорость извлечения 8.9 X Качество трека 100.0 % CRC теста 16984EB6 CRC копии 16984EB6 Копирование... OK
Трек 19
Имя файла E:\FTP\PUB\Music\Worldmusic\Mireille Mathieu\2003 - Mireille Mathieu (Selection du Reader's Digest FRA CD)\59 - Santa Maria de la mer.wav
Длина предзазора 0:00:02.00
Пиковый уровень 88.1 % Скорость извлечения 7.8 X Качество трека 99.9 % CRC теста C6409F71 CRC копии C6409F71 Копирование... OK
Трек 20
Имя файла E:\FTP\PUB\Music\Worldmusic\Mireille Mathieu\2003 - Mireille Mathieu (Selection du Reader's Digest FRA CD)\60 - Viens chanter pour le Bon Dieu.wav
Длина предзазора 0:00:02.00
Пиковый уровень 98.9 % Скорость извлечения 9.2 X Качество трека 100.0 % CRC теста B3C2EFDF CRC копии B3C2EFDF Копирование... OK
Ошибок не произошло
Конец отчёта
---- CUETools DB Plugin V2.1.3
[CTDB TOCID: F3YkgJSgBznD9PfBwmMVW9lLDDI-] disk not present in database, Submit result: F3YkgJSgBznD9PfBwmMVW9lLDDI- has been uploaded
==== Контрольная сумма отчёта 41EDD85FD5BE877C86453EBED5EA3823BC4BAF275B38A58BE112E2627A18CA0E ====

Содержание индексной карты (.CUE)CD1

REM GENRE ChansonREM DATE 2003REM DISCID FD0E7D14REM COMMENT "ExactAudioCopy v1.0b3"PERFORMER "Mireille Mathieu"TITLE "Mireille Mathieu"FILE "01 - Mon credo.wav" WAVE TRACK 01 AUDIO TITLE "Mon credo" PERFORMER "Mireille Mathieu" ISRC FRW146600001 FLAGS DCP INDEX 01 00:00:00 TRACK 02 AUDIO TITLE "Cent fois ma vie" PERFORMER "Mireille Mathieu" ISRC FRW146800016 FLAGS DCP INDEX 00 02:51:29FILE "02 - Cent fois ma vie.wav" WAVE INDEX 01 00:00:00 TRACK 03 AUDIO TITLE "Mon bel amour d'ete" PERFORMER "Mireille Mathieu" ISRC FRW146900012 FLAGS DCP INDEX 00 02:30:29FILE "03 - Mon bel amour d'ete.wav" WAVE INDEX 01 00:00:00 TRACK 04 AUDIO TITLE "L'aveugle" PERFORMER "Mireille Mathieu" ISRC FRW146900013 FLAGS DCP INDEX 00 03:01:46FILE "04 - L'aveugle.wav" WAVE INDEX 01 00:00:00 TRACK 05 AUDIO TITLE "Le premiere danse" PERFORMER "Mireille Mathieu" ISRC FRW147400003 FLAGS DCP INDEX 00 02:54:29FILE "05 - Le premiere danse.wav" WAVE INDEX 01 00:00:00 TRACK 06 AUDIO TITLE "Qu'elle est belle" PERFORMER "Mireille Mathieu" ISRC FRW146600008 FLAGS DCP INDEX 00 03:45:40FILE "06 - Qu'elle est belle.wav" WAVE INDEX 01 00:00:00 TRACK 07 AUDIO TITLE "On a tous rendez-vous un jour" PERFORMER "Mireille Mathieu" ISRC FRW147100013 FLAGS DCP INDEX 00 02:15:36FILE "07 - On a tous rendez-vous un jour.wav" WAVE INDEX 01 00:00:00 TRACK 08 AUDIO TITLE "C'est dommage" PERFORMER "Mireille Mathieu" ISRC FRW147100014 FLAGS DCP INDEX 00 02:21:53FILE "08 - C'est dommage.wav" WAVE INDEX 01 00:00:00 TRACK 09 AUDIO TITLE "Paris en colere" PERFORMER "Mireille Mathieu" ISRC FRW146600007 FLAGS DCP INDEX 00 03:04:30FILE "09 - Paris en colere.wav" WAVE INDEX 01 00:00:00 TRACK 10 AUDIO TITLE "Pierrot la musique" PERFORMER "Mireille Mathieu" ISRC FRW148100013 FLAGS DCP INDEX 00 02:35:15FILE "10 - Pierrot la musique.wav" WAVE INDEX 01 00:00:00 TRACK 11 AUDIO TITLE "Il me faut vivre" PERFORMER "Mireille Mathieu" ISRC FRW147300007 FLAGS DCP INDEX 00 03:05:39FILE "11 - Il me faut vivre.wav" WAVE INDEX 01 00:00:00 TRACK 12 AUDIO TITLE "Souviens-toi Maria" PERFORMER "Mireille Mathieu" ISRC FRW147500004 FLAGS DCP INDEX 00 03:03:10FILE "12 - Souviens-toi Maria.wav" WAVE INDEX 01 00:00:00 TRACK 13 AUDIO TITLE "L'anniversaire" PERFORMER "Mireille Mathieu" ISRC FRW147600105 FLAGS DCP INDEX 00 02:59:36FILE "13 - L'anniversaire.wav" WAVE INDEX 01 00:00:00 TRACK 14 AUDIO TITLE "Le silence" PERFORMER "Mireille Mathieu" ISRC FRW147700076 FLAGS DCP INDEX 00 03:46:58FILE "14 - Le silence.wav" WAVE INDEX 01 00:00:00 TRACK 15 AUDIO TITLE "Le village oublie" PERFORMER "Mireille Mathieu" ISRC FRW147900008 FLAGS DCP INDEX 00 03:35:59FILE "15 - Le village oublie.wav" WAVE INDEX 01 00:00:00 TRACK 16 AUDIO TITLE "Par hasard" PERFORMER "Mireille Mathieu" ISRC FRW147900009 FLAGS DCP INDEX 00 03:37:45FILE "16 - Par hasard.wav" WAVE INDEX 01 00:00:00 TRACK 17 AUDIO TITLE "Nous, les romantiques" PERFORMER "Mireille Mathieu" ISRC FRW147900010 FLAGS DCP INDEX 00 02:23:18FILE "17 - Nous, les romantiques.wav" WAVE INDEX 01 00:00:00 TRACK 18 AUDIO TITLE "Je n'ai qu'une vie" PERFORMER "Mireille Mathieu" ISRC FRW147900011 FLAGS DCP INDEX 00 03:59:09FILE "18 - Je n'ai qu'une vie.wav" WAVE INDEX 01 00:00:00 TRACK 19 AUDIO TITLE "Dans la France" PERFORMER "Mireille Mathieu" ISRC FRW147900012 FLAGS DCP INDEX 00 03:12:20FILE "19 - Dans la France.wav" WAVE INDEX 01 00:00:00 TRACK 20 AUDIO TITLE "La derniere Valse" PERFORMER "Mireille Mathieu" ISRC FRW146700008 FLAGS DCP INDEX 00 03:00:74FILE "20 - La derniere Valse.wav" WAVE INDEX 01 00:00:00

CD2

REM GENRE ChansonREM DATE 2003REM DISCID 35111714REM COMMENT "ExactAudioCopy v1.0b3"PERFORMER "Mireille Mathieu"TITLE "Mireille Mathieu"FILE "21 - Une femme amoureuse (Woman In Love).wav" WAVE TRACK 01 AUDIO TITLE "Une femme amoureuse (Woman In Love)" PERFORMER "Mireille Mathieu" ISRC FRW148000097 FLAGS DCP INDEX 01 00:00:00 TRACK 02 AUDIO TITLE "Un enfant blond un enfant brun" PERFORMER "Mireille Mathieu" ISRC FRW148000098 FLAGS DCP INDEX 00 04:11:37FILE "22 - Un enfant blond un enfant brun.wav" WAVE INDEX 01 00:00:00 TRACK 03 AUDIO TITLE "Je ne suis que malhereuse" PERFORMER "Mireille Mathieu" ISRC FRW148000099 FLAGS DCP INDEX 00 03:15:73FILE "23 - Je ne suis que malhereuse.wav" WAVE INDEX 01 00:00:00 TRACK 04 AUDIO TITLE "On l'appelait Chicano" PERFORMER "Mireille Mathieu" ISRC FRW148000100 FLAGS DCP INDEX 00 04:10:68FILE "24 - On l'appelait Chicano.wav" WAVE INDEX 01 00:00:00 TRACK 05 AUDIO TITLE "Le canotier de Maurice Chevalier" PERFORMER "Mireille Mathieu" ISRC FRW148000101 FLAGS DCP INDEX 00 03:39:69FILE "25 - Le canotier de Maurice Chevalier.wav" WAVE INDEX 01 00:00:00 TRACK 06 AUDIO TITLE "Acropolis adieu" PERFORMER "Mireille Mathieu" ISRC FRW147100006 FLAGS DCP INDEX 00 05:13:66FILE "26 - Acropolis adieu.wav" WAVE INDEX 01 00:00:00 TRACK 07 AUDIO TITLE "C'est peut-etre moi qui partirai" PERFORMER "Mireille Mathieu" ISRC FRW148100011 FLAGS DCP INDEX 00 03:27:17FILE "27 - C'est peut-etre moi qui partirai.wav" WAVE INDEX 01 00:00:00 TRACK 08 AUDIO TITLE "Plus jamais seule" PERFORMER "Mireille Mathieu" ISRC FRW148100012 FLAGS DCP INDEX 00 02:55:72FILE "28 - Plus jamais seule.wav" WAVE INDEX 01 00:00:00 TRACK 09 AUDIO TITLE "Eternellment amoureuse" PERFORMER "Mireille Mathieu" ISRC FRW148300113 FLAGS DCP INDEX 00 03:46:10FILE "29 - Eternellment amoureuse.wav" WAVE INDEX 01 00:00:00 TRACK 10 AUDIO TITLE "C'est instants de ma vie" PERFORMER "Mireille Mathieu" ISRC FRW148300114 FLAGS DCP INDEX 00 03:39:47FILE "30 - C'est instants de ma vie.wav" WAVE INDEX 01 00:00:00 TRACK 11 AUDIO TITLE "Tpus les enfants chantent avec moi" PERFORMER "Mireille Mathieu" ISRC FRW147500003 FLAGS DCP INDEX 00 03:34:48FILE "31 - Tpus les enfants chantent avec moi.wav" WAVE INDEX 01 00:00:00 TRACK 12 AUDIO TITLE "Ma chanson pour ajourd'hui" PERFORMER "Mireille Mathieu" ISRC FRW148400009 FLAGS DCP INDEX 00 03:19:63FILE "32 - Ma chanson pour ajourd'hui.wav" WAVE INDEX 01 00:00:00 TRACK 13 AUDIO TITLE "Petersbourg" PERFORMER "Mireille Mathieu" ISRC FRW148400010 FLAGS DCP INDEX 00 03:31:72FILE "33 - Petersbourg.wav" WAVE INDEX 01 00:00:00 TRACK 14 AUDIO TITLE "Bleu paradise" PERFORMER "Mireille Mathieu" ISRC FRW148400011 FLAGS DCP INDEX 00 03:01:01FILE "34 - Bleu paradise.wav" WAVE INDEX 01 00:00:00 TRACK 15 AUDIO TITLE "Apres toi" PERFORMER "Mireille Mathieu" ISRC FRW148600004 FLAGS DCP INDEX 00 02:57:72FILE "35 - Apres toi.wav" WAVE INDEX 01 00:00:00 TRACK 16 AUDIO TITLE "Le strapontin" PERFORMER "Mireille Mathieu" ISRC FRW147700077 FLAGS DCP INDEX 00 04:02:39FILE "36 - Le strapontin.wav" WAVE INDEX 01 00:00:00 TRACK 17 AUDIO TITLE "Les Violons de la Georgie" PERFORMER "Mireille Mathieu" ISRC FRW147900009 FLAGS DCP INDEX 00 02:53:68FILE "37 - Les Violons de la Georgie.wav" WAVE INDEX 01 00:00:00 TRACK 18 AUDIO TITLE "Mon Dieu, c'est un homme" PERFORMER "Mireille Mathieu" ISRC FRW147900013 FLAGS DCP INDEX 00 02:47:46FILE "38 - Mon Dieu, c'est un homme.wav" WAVE INDEX 01 00:00:00 TRACK 19 AUDIO TITLE "Je t'ouvrirai encore le bras" PERFORMER "Mireille Mathieu" ISRC FRW148100013 FLAGS DCP INDEX 00 03:56:65FILE "39 - Je t'ouvrirai encore le bras.wav" WAVE INDEX 01 00:00:00 TRACK 20 AUDIO TITLE "La palome adieu" PERFORMER "Mireille Mathieu" ISRC FRW147300004 FLAGS DCP INDEX 00 03:57:49FILE "40 - La palome adieu.wav" WAVE INDEX 01 00:00:00

CD3

REM GENRE ChansonREM DATE 2003REM DISCID 2B10CC14REM COMMENT "ExactAudioCopy v1.0b3"PERFORMER "Mireille Mathieu"TITLE "Mireille Mathieu"FILE "41 - Mille colombes.wav" WAVE TRACK 01 AUDIO TITLE "Mille colombes" PERFORMER "Mireille Mathieu" ISRC FRW147700071 FLAGS DCP INDEX 01 00:00:00 TRACK 02 AUDIO TITLE "Tout simplement une femme" PERFORMER "Mireille Mathieu" ISRC FRW148500117 FLAGS DCP INDEX 00 03:51:06FILE "42 - Tout simplement une femme.wav" WAVE INDEX 01 00:00:00 TRACK 03 AUDIO TITLE "Je m'ennuie de toi" PERFORMER "Mireille Mathieu" ISRC FRW148500118 FLAGS DCP INDEX 00 03:14:64FILE "43 - Je m'ennuie de toi.wav" WAVE INDEX 01 00:00:00 TRACK 04 AUDIO TITLE "La star des annees trente" PERFORMER "Mireille Mathieu" ISRC FRW148500119 FLAGS DCP INDEX 00 03:07:25FILE "44 - La star des annees trente.wav" WAVE INDEX 01 00:00:00 TRACK 05 AUDIO TITLE "Sur les bords du Yang-tse-Kiang" PERFORMER "Mireille Mathieu" ISRC FRW148600005 FLAGS DCP INDEX 00 03:15:61FILE "45 - Sur les bords du Yang-tse-Kiang.wav" WAVE INDEX 01 00:00:00 TRACK 06 AUDIO TITLE "Ave Maria Norma" PERFORMER "Mireille Mathieu" ISRC FRW148600006 FLAGS DCP INDEX 00 03:26:10FILE "46 - Ave Maria Norma.wav" WAVE INDEX 01 00:00:00 TRACK 07 AUDIO TITLE "Comment est-elle" PERFORMER "Mireille Mathieu" ISRC FRW148500120 FLAGS DCP INDEX 00 04:16:12FILE "47 - Comment est-elle.wav" WAVE INDEX 01 00:00:00 TRACK 08 AUDIO TITLE "Amour defendu" PERFORMER "Mireille Mathieu" ISRC FRW147700073 FLAGS DCP INDEX 00 04:35:40FILE "48 - Amour defendu.wav" WAVE INDEX 01 00:00:00 TRACK 09 AUDIO TITLE "Le jasmin qui parle" PERFORMER "Mireille Mathieu" ISRC FRW148600007 FLAGS DCP INDEX 00 03:27:74FILE "49 - Le jasmin qui parle.wav" WAVE INDEX 01 00:00:00 TRACK 10 AUDIO TITLE "L'homme en velours" PERFORMER "Mireille Mathieu" ISRC FRW148600008 FLAGS DCP INDEX 00 02:34:26FILE "50 - L'homme en velours.wav" WAVE INDEX 01 00:00:00 TRACK 11 AUDIO TITLE "Reve ton reve" PERFORMER "Mireille Mathieu" ISRC FRW148700032 FLAGS DCP INDEX 00 03:49:73FILE "51 - Reve ton reve.wav" WAVE INDEX 01 00:00:00 TRACK 12 AUDIO TITLE "L'enfant volant" PERFORMER "Mireille Mathieu" ISRC FRW148700033 FLAGS DCP INDEX 00 03:26:02FILE "52 - L'enfant volant.wav" WAVE INDEX 01 00:00:00 TRACK 13 AUDIO TITLE "Rencontres de Femmes" PERFORMER "Mireille Mathieu" ISRC FRW148700034 FLAGS DCP INDEX 00 02:47:61FILE "53 - Rencontres de Femmes.wav" WAVE INDEX 01 00:00:00 TRACK 14 AUDIO TITLE "L'Americain" PERFORMER "Mireille Mathieu" ISRC FRW148900001 FLAGS DCP INDEX 00 03:56:70FILE "54 - L'Americain.wav" WAVE INDEX 01 00:00:00 TRACK 15 AUDIO TITLE "de Gaulle " PERFORMER "Mireille Mathieu" ISRC FRW148900003 FLAGS DCP INDEX 00 02:47:19FILE "55 - de Gaulle.wav" WAVE INDEX 01 00:00:00 TRACK 16 AUDIO TITLE "La violence celle qui tue avec les mots" PERFORMER "Mireille Mathieu" ISRC FRW148900005 FLAGS DCP INDEX 00 03:48:62FILE "56 - La violence celle qui tue avec les mots.wav" WAVE INDEX 01 00:00:00 TRACK 17 AUDIO TITLE "Aux marches des eglises" PERFORMER "Mireille Mathieu" ISRC FRW148900009 FLAGS DCP INDEX 00 03:51:40FILE "57 - Aux marches des eglises.wav" WAVE INDEX 01 00:00:00 TRACK 18 AUDIO TITLE "Adagio" PERFORMER "Mireille Mathieu" ISRC FRW148200087 FLAGS DCP INDEX 00 03:15:00FILE "58 - Adagio.wav" WAVE INDEX 01 00:00:00 TRACK 19 AUDIO TITLE "Santa Maria de la mer" PERFORMER "Mireille Mathieu" ISRC FRW147800001 FLAGS DCP INDEX 00 04:12:16FILE "59 - Santa Maria de la mer.wav" WAVE INDEX 01 00:00:00 TRACK 20 AUDIO TITLE "Viens chanter pour le Bon Dieu" PERFORMER "Mireille Mathieu" ISRC FRW148000102 FLAGS DCP INDEX 00 03:38:56FILE "60 - Viens chanter pour le Bon Dieu.wav" WAVE INDEX 01 00:00:00

Об альбоме (сборнике)

Уникальный в своём роде сборник.
Некоторые песни не издавались на CD до этого. И вот событие...........
А если иметь в виду что песни Petersbourg и Pierrot la musique выходили только лишь на EP'шках, то думаю любителям творчества Мирей, сборник сей определённо понравится.

Для скачивания файла отключите блокировку рекламы и перезагрузите страницу.

disable adblock Как отключить блокировку рекламы?

Скачать по магнет ссылке 1,29 GB 

Войти с помощью:

Загрузка...
Загрузка...


   
Текущее время: 21-Июн 10:34 :: Часовой пояс: UTC ± 0