VA - EMI Best Chanson 100 Vol.2- Страна: World
Жанр: Chanson, World
Год издания диска: 2006
Издатель (лейбл): EMI Group Ltd.
Аудиокодек: FLAC (*.flac)
Тип рипа: tracks+.cue
Битрейт аудио: lossless
Продолжительность: 04:47:56
Источник (релизер): what
Наличие сканов в содержимом раздачи: Нет
Об альбомеEMI's The Best 100 Series
-

CD1

Треклист:
01 Edith Piaf - C'est a Hambourg (3:01)
02 Georges Brassens - Je Suis Un Voyou (2:38)
03 Jean Constantin - Les Pantoufles a Papa (2:35)
04 Yves Montand - Girofle Girofla (2:01)
05 Lucette Raillat - La Mome Aux Boutons (3:24)
06 Mouloudji - Valse Jaune (3:44)
07 Charles Trenet - A La Porte Du Garage (2:32)
08 Andre Claveau - La Complainte De La Butte (3:07)
09 Lucienne Delyle - La Valse a Deux Sous (3:30)
10 Les Compagnons De La Chanson - L'objet (2:14)
11 Patrice & Mario - Monsieur Le Consul a Curityba (3:04)
12 Luis Mariano - Monastere De Santa Chiara (3:29)
13 Yvette Giraud - Joue Contre Joue (3:08)
14 Eddie Constantine - L'homme Et L'enfant (3:19)
15 Philippe Clay - Le Danseur De Charleston (3:30)
16 Line Renaud - Mister Banjo (2:30)
17 Henri Salvador - C'est Le Be-Bop (2:06)
18 Gloria Lasso - Ave Maria No Morro (3:34)
19 Francis Lemarque - La Grenouille (2:39)
20 Juliette Greco - Embrasse-Moi (3:01)
21 Jacques Brel - La Haine (1:55)
22 Leo Ferre - Monsieur Mon Passe (3:23)
23 Jacqueline Francois - La Fille D'Ipanema (2:48)
24 Gilbert Becaud - Laissez Faire, Laissez Dire (2:29)
25 Annie Cordy - Fleur De Papillon (2:02)-

Лог создания рипа

Exact Audio Copy V0.99 prebeta 5 from 4. May 2009
EAC extraction logfile from 12. September 2009, 20:45
Various / EMI Best Chanson 100 Vol.2_100 Chansons Francaises de Legende CD1
Used drive : HL-DT-STDVDRAM GSA-4163B Adapter: 1 ID: 1
Read mode : SecureUtilize accurate stream : YesDefeat audio cache : YesMake use of C2 pointers : No
Read offset correction : 667Overread into Lead-In and Lead-Out : NoFill up missing offset samples with silence : YesDelete leading and trailing silent blocks : NoNull samples used in CRC calculations : YesUsed interface : Native Win32 interface for Win NT & 2000Gap handling : Appended to previous track
Used output format : User Defined EncoderSelected bitrate : 1024 kBit/sQuality : HighAdd ID3 tag : NoCommand line compressor : C:\Program Files\Exact Audio Copy\_Flac.exe\flac_1.2.1.exeAdditional command line options : -8 -V -T "artist=%a" -T "title=%t" -T "album=%g" -T "date=%y" -T "tracknumber=%n" -T "genre=%m" %s
TOC of the extracted CD
Track | Start | Length | Start sector | End sector --------------------------------------------------------- 1 | 0:00.00 | 3:01.40 | 0 | 13614 2 | 3:01.40 | 2:38.54 | 13615 | 25518 3 | 5:40.19 | 2:35.05 | 25519 | 37148 4 | 8:15.24 | 2:01.55 | 37149 | 46278 5 | 10:17.04 | 3:24.49 | 46279 | 61627 6 | 13:41.53 | 3:44.67 | 61628 | 78494 7 | 17:26.45 | 2:32.28 | 78495 | 89922 8 | 19:58.73 | 3:07.69 | 89923 | 104016 9 | 23:06.67 | 3:30.39 | 104017 | 119805 10 | 26:37.31 | 2:14.57 | 119806 | 129912 11 | 28:52.13 | 3:04.43 | 129913 | 143755 12 | 31:56.56 | 3:29.49 | 143756 | 159479 13 | 35:26.30 | 3:08.36 | 159480 | 173615 14 | 38:34.66 | 3:19.37 | 173616 | 188577 15 | 41:54.28 | 3:30.45 | 188578 | 204372 16 | 45:24.73 | 2:30.55 | 204373 | 215677 17 | 47:55.53 | 2:06.33 | 215678 | 225160 18 | 50:02.11 | 3:34.01 | 225161 | 241211 19 | 53:36.12 | 2:39.21 | 241212 | 253157 20 | 56:15.33 | 3:01.74 | 253158 | 266806 21 | 59:17.32 | 1:55.45 | 266807 | 275476 22 | 61:13.02 | 3:23.20 | 275477 | 290721 23 | 64:36.22 | 2:48.45 | 290722 | 303366 24 | 67:24.67 | 2:29.72 | 303367 | 314613 25 | 69:54.64 | 2:02.47 | 314614 | 323810
Track 1
Filename L:\41_Music_Converter\03_GoldWave_Working\EMI Best Chanson 100 Vol.2_100 Chansons Francaises de Legende CD1-2006 - 01 Edith Piaf - C'est a Hambourg.wav
Pre-gap length 0:00:02.00
Peak level 68.3 % Track quality 100.0 % Test CRC 18B6D631 Copy CRC 18B6D631 Track not present in AccurateRip database Copy OK
Track 2
Filename L:\41_Music_Converter\03_GoldWave_Working\EMI Best Chanson 100 Vol.2_100 Chansons Francaises de Legende CD1-2006 - 02 Georges Brassens - Je Suis Un Voyou.wav
Peak level 73.0 % Track quality 99.9 % Test CRC 3940D13F Copy CRC 3940D13F Track not present in AccurateRip database Copy OK
Track 3
Filename L:\41_Music_Converter\03_GoldWave_Working\EMI Best Chanson 100 Vol.2_100 Chansons Francaises de Legende CD1-2006 - 03 Jean Constantin - Les Pantoufles a Papa.wav
Peak level 80.8 % Track quality 99.9 % Test CRC 80B21C35 Copy CRC 80B21C35 Track not present in AccurateRip database Copy OK
Track 4
Filename L:\41_Music_Converter\03_GoldWave_Working\EMI Best Chanson 100 Vol.2_100 Chansons Francaises de Legende CD1-2006 - 04 Yves Montand - Girofle Girofla.wav
Peak level 72.3 % Track quality 100.0 % Test CRC 740D52DD Copy CRC 740D52DD Track not present in AccurateRip database Copy OK
Track 5
Filename L:\41_Music_Converter\03_GoldWave_Working\EMI Best Chanson 100 Vol.2_100 Chansons Francaises de Legende CD1-2006 - 05 Lucette Raillat - La Mome Aux Boutons.wav
Peak level 78.6 % Track quality 100.0 % Test CRC AC39A2CC Copy CRC AC39A2CC Track not present in AccurateRip database Copy OK
Track 6
Filename L:\41_Music_Converter\03_GoldWave_Working\EMI Best Chanson 100 Vol.2_100 Chansons Francaises de Legende CD1-2006 - 06 Mouloudji - Valse Jaune.wav
Peak level 77.9 % Track quality 100.0 % Test CRC 7A7DFA3D Copy CRC 7A7DFA3D Track not present in AccurateRip database Copy OK
Track 7
Filename L:\41_Music_Converter\03_GoldWave_Working\EMI Best Chanson 100 Vol.2_100 Chansons Francaises de Legende CD1-2006 - 07 Charles Trenet - A La Porte Du Garage.wav
Peak level 82.1 % Track quality 100.0 % Test CRC 52498140 Copy CRC 52498140 Track not present in AccurateRip database Copy OK
Track 8
Filename L:\41_Music_Converter\03_GoldWave_Working\EMI Best Chanson 100 Vol.2_100 Chansons Francaises de Legende CD1-2006 - 08 Andre Claveau - La Complainte De La Butte.wav
Peak level 84.4 % Track quality 100.0 % Test CRC EF102BCC Copy CRC EF102BCC Track not present in AccurateRip database Copy OK
Track 9
Filename L:\41_Music_Converter\03_GoldWave_Working\EMI Best Chanson 100 Vol.2_100 Chansons Francaises de Legende CD1-2006 - 09 Lucienne Delyle - La Valse a Deux Sous.wav
Peak level 79.9 % Track quality 99.9 % Test CRC 5CB519E1 Copy CRC 5CB519E1 Track not present in AccurateRip database Copy OK
Track 10
Filename L:\41_Music_Converter\03_GoldWave_Working\EMI Best Chanson 100 Vol.2_100 Chansons Francaises de Legende CD1-2006 - 10 Les Compagnons De La Chanson - L'objet.wav
Peak level 79.8 % Track quality 100.0 % Test CRC 86B2E2F8 Copy CRC 86B2E2F8 Track not present in AccurateRip database Copy OK
Track 11
Filename L:\41_Music_Converter\03_GoldWave_Working\EMI Best Chanson 100 Vol.2_100 Chansons Francaises de Legende CD1-2006 - 11 Patrice & Mario - Monsieur Le Consul a Curityba.wav
Peak level 88.8 % Track quality 100.0 % Test CRC BC74D773 Copy CRC BC74D773 Track not present in AccurateRip database Copy OK
Track 12
Filename L:\41_Music_Converter\03_GoldWave_Working\EMI Best Chanson 100 Vol.2_100 Chansons Francaises de Legende CD1-2006 - 12 Luis Mariano - Monastere De Santa Chiara.wav
Peak level 75.8 % Track quality 100.0 % Test CRC 342F89C9 Copy CRC 342F89C9 Track not present in AccurateRip database Copy OK
Track 13
Filename L:\41_Music_Converter\03_GoldWave_Working\EMI Best Chanson 100 Vol.2_100 Chansons Francaises de Legende CD1-2006 - 13 Yvette Giraud - Joue Contre Joue.wav
Peak level 81.0 % Track quality 100.0 % Test CRC DFF5F5AC Copy CRC DFF5F5AC Track not present in AccurateRip database Copy OK
Track 14
Filename L:\41_Music_Converter\03_GoldWave_Working\EMI Best Chanson 100 Vol.2_100 Chansons Francaises de Legende CD1-2006 - 14 Eddie Constantine - L'homme Et L'enfant.wav
Peak level 79.6 % Track quality 100.0 % Test CRC 6C259A8C Copy CRC 6C259A8C Track not present in AccurateRip database Copy OK
Track 15
Filename L:\41_Music_Converter\03_GoldWave_Working\EMI Best Chanson 100 Vol.2_100 Chansons Francaises de Legende CD1-2006 - 15 Philippe Clay - Le Danseur De Charleston.wav
Peak level 67.2 % Track quality 100.0 % Test CRC 56099984 Copy CRC 56099984 Track not present in AccurateRip database Copy OK
Track 16
Filename L:\41_Music_Converter\03_GoldWave_Working\EMI Best Chanson 100 Vol.2_100 Chansons Francaises de Legende CD1-2006 - 16 Line Renaud - Mister Banjo.wav
Peak level 84.8 % Track quality 99.9 % Test CRC 1D973B77 Copy CRC 1D973B77 Track not present in AccurateRip database Copy OK
Track 17
Filename L:\41_Music_Converter\03_GoldWave_Working\EMI Best Chanson 100 Vol.2_100 Chansons Francaises de Legende CD1-2006 - 17 Henri Salvador - C'est Le Be-Bop.wav
Peak level 83.2 % Track quality 100.0 % Test CRC 5AB13505 Copy CRC 5AB13505 Track not present in AccurateRip database Copy OK
Track 18
Filename L:\41_Music_Converter\03_GoldWave_Working\EMI Best Chanson 100 Vol.2_100 Chansons Francaises de Legende CD1-2006 - 18 Gloria Lasso - Ave Maria No Morro.wav
Peak level 85.1 % Track quality 100.0 % Test CRC 17A1A715 Copy CRC 17A1A715 Track not present in AccurateRip database Copy OK
Track 19
Filename L:\41_Music_Converter\03_GoldWave_Working\EMI Best Chanson 100 Vol.2_100 Chansons Francaises de Legende CD1-2006 - 19 Francis Lemarque - La Grenouille.wav
Peak level 83.4 % Track quality 100.0 % Test CRC C426988F Copy CRC C426988F Track not present in AccurateRip database Copy OK
Track 20
Filename L:\41_Music_Converter\03_GoldWave_Working\EMI Best Chanson 100 Vol.2_100 Chansons Francaises de Legende CD1-2006 - 20 Juliette Greco - Embrasse-Moi.wav
Peak level 89.7 % Track quality 100.0 % Test CRC 5D4CF39F Copy CRC 5D4CF39F Track not present in AccurateRip database Copy OK
Track 21
Filename L:\41_Music_Converter\03_GoldWave_Working\EMI Best Chanson 100 Vol.2_100 Chansons Francaises de Legende CD1-2006 - 21 Jacques Brel - La Haine.wav
Peak level 81.0 % Track quality 100.0 % Test CRC 2A5A441D Copy CRC 2A5A441D Track not present in AccurateRip database Copy OK
Track 22
Filename L:\41_Music_Converter\03_GoldWave_Working\EMI Best Chanson 100 Vol.2_100 Chansons Francaises de Legende CD1-2006 - 22 Leo Ferre - Monsieur Mon Passe.wav
Peak level 75.0 % Track quality 100.0 % Test CRC DC845861 Copy CRC DC845861 Track not present in AccurateRip database Copy OK
Track 23
Filename L:\41_Music_Converter\03_GoldWave_Working\EMI Best Chanson 100 Vol.2_100 Chansons Francaises de Legende CD1-2006 - 23 Jacqueline Francois - La Fille D'Ipanema.wav
Peak level 80.2 % Track quality 100.0 % Test CRC D131DB42 Copy CRC D131DB42 Track not present in AccurateRip database Copy OK
Track 24
Filename L:\41_Music_Converter\03_GoldWave_Working\EMI Best Chanson 100 Vol.2_100 Chansons Francaises de Legende CD1-2006 - 24 Gilbert Becaud - Laissez Faire, Laissez Dire.wav
Peak level 85.1 % Track quality 100.0 % Test CRC B0C6C9AF Copy CRC B0C6C9AF Track not present in AccurateRip database Copy OK
Track 25
Filename L:\41_Music_Converter\03_GoldWave_Working\EMI Best Chanson 100 Vol.2_100 Chansons Francaises de Legende CD1-2006 - 25 Annie Cordy - Fleur De Papillon.wav
Peak level 72.5 % Track quality 100.0 % Test CRC EF395671 Copy CRC EF395671 Track not present in AccurateRip database Copy OK
None of the tracks are present in the AccurateRip database
No errors occurred
End of status report

-

Содержание индексной карты (.CUE)

REM GENRE ChansonREM DATE 2006REM DISCID 8710DD19REM COMMENT "ExactAudioCopy v0.99pb5"PERFORMER "Various"TITLE "EMI Best Chanson 100 Vol.2_100 Chansons Francaises de Legende CD1"FILE "EMI Best Chanson 100 Vol.2_100 Chansons Francaises de Legende CD1-2006 - 01 Edith Piaf - C'est a Hambourg.wav" WAVE TRACK 01 AUDIO TITLE "C'est a Hambourg" PERFORMER "Edith Piaf" INDEX 01 00:00:00FILE "EMI Best Chanson 100 Vol.2_100 Chansons Francaises de Legende CD1-2006 - 02 Georges Brassens - Je Suis Un Voyou.wav" WAVE TRACK 02 AUDIO TITLE "Je Suis Un Voyou" PERFORMER "Georges Brassens" INDEX 01 00:00:00FILE "EMI Best Chanson 100 Vol.2_100 Chansons Francaises de Legende CD1-2006 - 03 Jean Constantin - Les Pantoufles a Papa.wav" WAVE TRACK 03 AUDIO TITLE "Les Pantoufles a Papa" PERFORMER "Jean Constantin" INDEX 01 00:00:00FILE "EMI Best Chanson 100 Vol.2_100 Chansons Francaises de Legende CD1-2006 - 04 Yves Montand - Girofle Girofla.wav" WAVE TRACK 04 AUDIO TITLE "Girofle Girofla" PERFORMER "Yves Montand" INDEX 01 00:00:00FILE "EMI Best Chanson 100 Vol.2_100 Chansons Francaises de Legende CD1-2006 - 05 Lucette Raillat - La Mome Aux Boutons.wav" WAVE TRACK 05 AUDIO TITLE "La Mome Aux Boutons" PERFORMER "Lucette Raillat" INDEX 01 00:00:00FILE "EMI Best Chanson 100 Vol.2_100 Chansons Francaises de Legende CD1-2006 - 06 Mouloudji - Valse Jaune.wav" WAVE TRACK 06 AUDIO TITLE "Valse Jaune" PERFORMER "Mouloudji" INDEX 01 00:00:00FILE "EMI Best Chanson 100 Vol.2_100 Chansons Francaises de Legende CD1-2006 - 07 Charles Trenet - A La Porte Du Garage.wav" WAVE TRACK 07 AUDIO TITLE "A La Porte Du Garage" PERFORMER "Charles Trenet" INDEX 01 00:00:00FILE "EMI Best Chanson 100 Vol.2_100 Chansons Francaises de Legende CD1-2006 - 08 Andre Claveau - La Complainte De La Butte.wav" WAVE TRACK 08 AUDIO TITLE "La Complainte De La Butte" PERFORMER "Andre Claveau" INDEX 01 00:00:00FILE "EMI Best Chanson 100 Vol.2_100 Chansons Francaises de Legende CD1-2006 - 09 Lucienne Delyle - La Valse a Deux Sous.wav" WAVE TRACK 09 AUDIO TITLE "La Valse a Deux Sous" PERFORMER "Lucienne Delyle" INDEX 01 00:00:00FILE "EMI Best Chanson 100 Vol.2_100 Chansons Francaises de Legende CD1-2006 - 10 Les Compagnons De La Chanson - L'objet.wav" WAVE TRACK 10 AUDIO TITLE "L'objet" PERFORMER "Les Compagnons De La Chanson" INDEX 01 00:00:00FILE "EMI Best Chanson 100 Vol.2_100 Chansons Francaises de Legende CD1-2006 - 11 Patrice & Mario - Monsieur Le Consul a Curityba.wav" WAVE TRACK 11 AUDIO TITLE "Monsieur Le Consul a Curityba" PERFORMER "Patrice & Mario" INDEX 01 00:00:00FILE "EMI Best Chanson 100 Vol.2_100 Chansons Francaises de Legende CD1-2006 - 12 Luis Mariano - Monastere De Santa Chiara.wav" WAVE TRACK 12 AUDIO TITLE "Monastere De Santa Chiara" PERFORMER "Luis Mariano" INDEX 01 00:00:00FILE "EMI Best Chanson 100 Vol.2_100 Chansons Francaises de Legende CD1-2006 - 13 Yvette Giraud - Joue Contre Joue.wav" WAVE TRACK 13 AUDIO TITLE "Joue Contre Joue" PERFORMER "Yvette Giraud" INDEX 01 00:00:00FILE "EMI Best Chanson 100 Vol.2_100 Chansons Francaises de Legende CD1-2006 - 14 Eddie Constantine - L'homme Et L'enfant.wav" WAVE TRACK 14 AUDIO TITLE "L'homme Et L'enfant" PERFORMER "Eddie Constantine" INDEX 01 00:00:00FILE "EMI Best Chanson 100 Vol.2_100 Chansons Francaises de Legende CD1-2006 - 15 Philippe Clay - Le Danseur De Charleston.wav" WAVE TRACK 15 AUDIO TITLE "Le Danseur De Charleston" PERFORMER "Philippe Clay" INDEX 01 00:00:00FILE "EMI Best Chanson 100 Vol.2_100 Chansons Francaises de Legende CD1-2006 - 16 Line Renaud - Mister Banjo.wav" WAVE TRACK 16 AUDIO TITLE "Mister Banjo" PERFORMER "Line Renaud" INDEX 01 00:00:00FILE "EMI Best Chanson 100 Vol.2_100 Chansons Francaises de Legende CD1-2006 - 17 Henri Salvador - C'est Le Be-Bop.wav" WAVE TRACK 17 AUDIO TITLE "C'est Le Be-Bop" PERFORMER "Henri Salvador" INDEX 01 00:00:00FILE "EMI Best Chanson 100 Vol.2_100 Chansons Francaises de Legende CD1-2006 - 18 Gloria Lasso - Ave Maria No Morro.wav" WAVE TRACK 18 AUDIO TITLE "Ave Maria No Morro" PERFORMER "Gloria Lasso" INDEX 01 00:00:00FILE "EMI Best Chanson 100 Vol.2_100 Chansons Francaises de Legende CD1-2006 - 19 Francis Lemarque - La Grenouille.wav" WAVE TRACK 19 AUDIO TITLE "La Grenouille" PERFORMER "Francis Lemarque" INDEX 01 00:00:00FILE "EMI Best Chanson 100 Vol.2_100 Chansons Francaises de Legende CD1-2006 - 20 Juliette Greco - Embrasse-Moi.wav" WAVE TRACK 20 AUDIO TITLE "Embrasse-Moi" PERFORMER "Juliette Greco" INDEX 01 00:00:00FILE "EMI Best Chanson 100 Vol.2_100 Chansons Francaises de Legende CD1-2006 - 21 Jacques Brel - La Haine.wav" WAVE TRACK 21 AUDIO TITLE "La Haine" PERFORMER "Jacques Brel" INDEX 01 00:00:00FILE "EMI Best Chanson 100 Vol.2_100 Chansons Francaises de Legende CD1-2006 - 22 Leo Ferre - Monsieur Mon Passe.wav" WAVE TRACK 22 AUDIO TITLE "Monsieur Mon Passe" PERFORMER "Leo Ferre" INDEX 01 00:00:00FILE "EMI Best Chanson 100 Vol.2_100 Chansons Francaises de Legende CD1-2006 - 23 Jacqueline Francois - La Fille D'Ipanema.wav" WAVE TRACK 23 AUDIO TITLE "La Fille D'Ipanema" PERFORMER "Jacqueline Francois" INDEX 01 00:00:00FILE "EMI Best Chanson 100 Vol.2_100 Chansons Francaises de Legende CD1-2006 - 24 Gilbert Becaud - Laissez Faire, Laissez Dire.wav" WAVE TRACK 24 AUDIO TITLE "Laissez Faire, Laissez Dire" PERFORMER "Gilbert Becaud" INDEX 01 00:00:00FILE "EMI Best Chanson 100 Vol.2_100 Chansons Francaises de Legende CD1-2006 - 25 Annie Cordy - Fleur De Papillon.wav" WAVE TRACK 25 AUDIO TITLE "Fleur De Papillon" PERFORMER "Annie Cordy" INDEX 01 00:00:00

-

-

CD2

Треклист:
01 Tino Rossi - Mediterranee (3:06)
02 Philippe Clay - Les Voyous (2:50)
03 Juliette Greco - La Fourmi (1:19)
04 Line Renaud - Le Tango De L'elephant (2:44)
05 Charles Trenet - Route Nationale 7 (2:38)
06 Jacqueline Francois - La Fin D'un Roman D'amour (3:11)
07 Jean Sablon - Cette Chanson Est Pour Vous, Madame (3:05)
08 Georges Brassens - Ballade Des Dames Du Temps Jadis (2:02)
09 Yves Montand - La Butte Rouge (3:45)
10 Lucienne Delyle - Le Tango Des Jours Heureux (2:24)
11 Francis Blanche - Idylle En Foret (3:22)
12 Bourvil - La Mome Rustine (2:37)
13 Les Freres Jacques - General a Vendre (5:01)
14 Mouloudji - Cinematographe (3:02)
15 Edith Piaf - Je T'ai Dans La Peau (2:48)
16 Les Ferre - La Grande Vie (3:18)
17 Francis Lemarque - Mon Copain D'Pekin (2:12)
18 Catherine Sauvage - Barbarie (2:56)
19 Andre Claveau - Je T'attendrai (2:52)
20 Jacques Brel - Grand Jacques (1:49)
21 Gilbert Becaud - Accroche-Toi a Ton Etoile (2:40)
22 Eddie Constantine - Ca Bardait (2:44)
23 Suzy Delair - Y'avait Du Printemps Partout (3:14)
24 Gloria Lasso - Etranger Au Paradis (2:32)
25 Jean Constantin - Quand Vient Le 1er Janvier (1:36)-

Лог создания рипа

Exact Audio Copy V0.99 prebeta 5 from 4. May 2009
EAC extraction logfile from 12. September 2009, 21:31
Various / EMI Best Chanson 100 Vol.2_100 Chansons Francaises de Legende CD2
Used drive : HL-DT-STDVDRAM GSA-4163B Adapter: 1 ID: 1
Read mode : SecureUtilize accurate stream : YesDefeat audio cache : YesMake use of C2 pointers : No
Read offset correction : 667Overread into Lead-In and Lead-Out : NoFill up missing offset samples with silence : YesDelete leading and trailing silent blocks : NoNull samples used in CRC calculations : YesUsed interface : Native Win32 interface for Win NT & 2000Gap handling : Appended to previous track
Used output format : User Defined EncoderSelected bitrate : 1024 kBit/sQuality : HighAdd ID3 tag : NoCommand line compressor : C:\Program Files\Exact Audio Copy\_Flac.exe\flac_1.2.1.exeAdditional command line options : -8 -V -T "artist=%a" -T "title=%t" -T "album=%g" -T "date=%y" -T "tracknumber=%n" -T "genre=%m" %s
TOC of the extracted CD
Track | Start | Length | Start sector | End sector --------------------------------------------------------- 1 | 0:00.00 | 3:06.57 | 0 | 14006 2 | 3:06.57 | 2:50.19 | 14007 | 26775 3 | 5:57.01 | 1:19.43 | 26776 | 32743 4 | 7:16.44 | 2:44.35 | 32744 | 45078 5 | 10:01.04 | 2:38.25 | 45079 | 56953 6 | 12:39.29 | 3:11.68 | 56954 | 71346 7 | 15:51.22 | 3:05.29 | 71347 | 85250 8 | 18:56.51 | 2:02.04 | 85251 | 94404 9 | 20:58.55 | 3:45.21 | 94405 | 111300 10 | 24:44.01 | 2:24.66 | 111301 | 122166 11 | 27:08.67 | 3:22.53 | 122167 | 137369 12 | 30:31.45 | 2:37.11 | 137370 | 149155 13 | 33:08.56 | 5:01.55 | 149156 | 171785 14 | 38:10.36 | 3:02.68 | 171786 | 185503 15 | 41:13.29 | 2:48.39 | 185504 | 198142 16 | 44:01.68 | 3:18.06 | 198143 | 212998 17 | 47:19.74 | 2:12.63 | 212999 | 222961 18 | 49:32.62 | 2:56.14 | 222962 | 236175 19 | 52:29.01 | 2:52.42 | 236176 | 249117 20 | 55:21.43 | 1:49.03 | 249118 | 257295 21 | 57:10.46 | 2:40.55 | 257296 | 269350 22 | 59:51.26 | 2:44.60 | 269351 | 281710 23 | 62:36.11 | 3:14.68 | 281711 | 296328 24 | 65:51.04 | 2:32.16 | 296329 | 307744 25 | 68:23.20 | 1:36.20 | 307745 | 314964
Track 1
Filename L:\41_Music_Converter\03_GoldWave_Working\EMI Best Chanson 100 Vol.2_100 Chansons Francaises de Legende CD2-2006 - 01 Tino Rossi - Mediterranee.wav
Pre-gap length 0:00:02.00
Peak level 85.6 % Track quality 100.0 % Test CRC B1075C2F Copy CRC B1075C2F Track not present in AccurateRip database Copy OK
Track 2
Filename L:\41_Music_Converter\03_GoldWave_Working\EMI Best Chanson 100 Vol.2_100 Chansons Francaises de Legende CD2-2006 - 02 Philippe Clay - Les Voyous.wav
Peak level 100.0 % Track quality 100.0 % Test CRC 2AE7CF92 Copy CRC 2AE7CF92 Track not present in AccurateRip database Copy OK
Track 3
Filename L:\41_Music_Converter\03_GoldWave_Working\EMI Best Chanson 100 Vol.2_100 Chansons Francaises de Legende CD2-2006 - 03 Juliette Greco - La Fourmi.wav
Peak level 98.5 % Track quality 100.0 % Test CRC C20084E3 Copy CRC C20084E3 Track not present in AccurateRip database Copy OK
Track 4
Filename L:\41_Music_Converter\03_GoldWave_Working\EMI Best Chanson 100 Vol.2_100 Chansons Francaises de Legende CD2-2006 - 04 Line Renaud - Le Tango De L'elephant.wav
Peak level 78.3 % Track quality 100.0 % Test CRC E5347F45 Copy CRC E5347F45 Track not present in AccurateRip database Copy OK
Track 5
Filename L:\41_Music_Converter\03_GoldWave_Working\EMI Best Chanson 100 Vol.2_100 Chansons Francaises de Legende CD2-2006 - 05 Charles Trenet - Route Nationale 7.wav
Peak level 83.4 % Track quality 100.0 % Test CRC 01F7D41E Copy CRC 01F7D41E Track not present in AccurateRip database Copy OK
Track 6
Filename L:\41_Music_Converter\03_GoldWave_Working\EMI Best Chanson 100 Vol.2_100 Chansons Francaises de Legende CD2-2006 - 06 Jacqueline Francois - La Fin D'un Roman D'amour.wav
Peak level 80.8 % Track quality 99.9 % Test CRC 335319D3 Copy CRC 335319D3 Track not present in AccurateRip database Copy OK
Track 7
Filename L:\41_Music_Converter\03_GoldWave_Working\EMI Best Chanson 100 Vol.2_100 Chansons Francaises de Legende CD2-2006 - 07 Jean Sablon - Cette Chanson Est Pour Vous, Madame.wav
Peak level 83.3 % Track quality 100.0 % Test CRC C8BD8FE4 Copy CRC C8BD8FE4 Track not present in AccurateRip database Copy OK
Track 8
Filename L:\41_Music_Converter\03_GoldWave_Working\EMI Best Chanson 100 Vol.2_100 Chansons Francaises de Legende CD2-2006 - 08 Georges Brassens - Ballade Des Dames Du Temps Jadis.wav
Peak level 82.8 % Track quality 100.0 % Test CRC 1B94B15F Copy CRC 1B94B15F Track not present in AccurateRip database Copy OK
Track 9
Filename L:\41_Music_Converter\03_GoldWave_Working\EMI Best Chanson 100 Vol.2_100 Chansons Francaises de Legende CD2-2006 - 09 Yves Montand - La Butte Rouge.wav
Peak level 83.7 % Track quality 100.0 % Test CRC 264C9353 Copy CRC 264C9353 Track not present in AccurateRip database Copy OK
Track 10
Filename L:\41_Music_Converter\03_GoldWave_Working\EMI Best Chanson 100 Vol.2_100 Chansons Francaises de Legende CD2-2006 - 10 Lucienne Delyle - Le Tango Des Jours Heureux.wav
Peak level 86.6 % Track quality 100.0 % Test CRC 7D056FE3 Copy CRC 7D056FE3 Track not present in AccurateRip database Copy OK
Track 11
Filename L:\41_Music_Converter\03_GoldWave_Working\EMI Best Chanson 100 Vol.2_100 Chansons Francaises de Legende CD2-2006 - 11 Francis Blanche - Idylle En Foret.wav
Peak level 77.8 % Track quality 100.0 % Test CRC C993D430 Copy CRC C993D430 Track not present in AccurateRip database Copy OK
Track 12
Filename L:\41_Music_Converter\03_GoldWave_Working\EMI Best Chanson 100 Vol.2_100 Chansons Francaises de Legende CD2-2006 - 12 Bourvil - La Mome Rustine.wav
Peak level 73.7 % Track quality 100.0 % Test CRC 36FE6BE0 Copy CRC 36FE6BE0 Track not present in AccurateRip database Copy OK
Track 13
Filename L:\41_Music_Converter\03_GoldWave_Working\EMI Best Chanson 100 Vol.2_100 Chansons Francaises de Legende CD2-2006 - 13 Les Freres Jacques - General a Vendre.wav
Peak level 79.2 % Track quality 100.0 % Test CRC E284F8A5 Copy CRC E284F8A5 Track not present in AccurateRip database Copy OK
Track 14
Filename L:\41_Music_Converter\03_GoldWave_Working\EMI Best Chanson 100 Vol.2_100 Chansons Francaises de Legende CD2-2006 - 14 Mouloudji - Cinematographe.wav
Peak level 80.0 % Track quality 100.0 % Test CRC E3CC0CCC Copy CRC E3CC0CCC Track not present in AccurateRip database Copy OK
Track 15
Filename L:\41_Music_Converter\03_GoldWave_Working\EMI Best Chanson 100 Vol.2_100 Chansons Francaises de Legende CD2-2006 - 15 Edith Piaf - Je T'ai Dans La Peau.wav
Peak level 87.5 % Track quality 100.0 % Test CRC 01D08A12 Copy CRC 01D08A12 Track not present in AccurateRip database Copy OK
Track 16
Filename L:\41_Music_Converter\03_GoldWave_Working\EMI Best Chanson 100 Vol.2_100 Chansons Francaises de Legende CD2-2006 - 16 Les Ferre - La Grande Vie.wav
Peak level 83.2 % Track quality 100.0 % Test CRC BBF12741 Copy CRC BBF12741 Track not present in AccurateRip database Copy OK
Track 17
Filename L:\41_Music_Converter\03_GoldWave_Working\EMI Best Chanson 100 Vol.2_100 Chansons Francaises de Legende CD2-2006 - 17 Francis Lemarque - Mon Copain D'Pekin.wav
Peak level 84.5 % Track quality 99.9 % Test CRC 3149A7DA Copy CRC 3149A7DA Track not present in AccurateRip database Copy OK
Track 18
Filename L:\41_Music_Converter\03_GoldWave_Working\EMI Best Chanson 100 Vol.2_100 Chansons Francaises de Legende CD2-2006 - 18 Catherine Sauvage - Barbarie.wav
Peak level 82.2 % Track quality 100.0 % Test CRC 85F39838 Copy CRC 85F39838 Track not present in AccurateRip database Copy OK
Track 19
Filename L:\41_Music_Converter\03_GoldWave_Working\EMI Best Chanson 100 Vol.2_100 Chansons Francaises de Legende CD2-2006 - 19 Andre Claveau - Je T'attendrai.wav
Peak level 82.2 % Track quality 100.0 % Test CRC 3882E83B Copy CRC 3882E83B Track not present in AccurateRip database Copy OK
Track 20
Filename L:\41_Music_Converter\03_GoldWave_Working\EMI Best Chanson 100 Vol.2_100 Chansons Francaises de Legende CD2-2006 - 20 Jacques Brel - Grand Jacques.wav
Peak level 85.1 % Track quality 100.0 % Test CRC C6DAC163 Copy CRC C6DAC163 Track not present in AccurateRip database Copy OK
Track 21
Filename L:\41_Music_Converter\03_GoldWave_Working\EMI Best Chanson 100 Vol.2_100 Chansons Francaises de Legende CD2-2006 - 21 Gilbert Becaud - Accroche-Toi a Ton Etoile.wav
Peak level 82.0 % Track quality 99.9 % Test CRC EBE9F836 Copy CRC EBE9F836 Track not present in AccurateRip database Copy OK
Track 22
Filename L:\41_Music_Converter\03_GoldWave_Working\EMI Best Chanson 100 Vol.2_100 Chansons Francaises de Legende CD2-2006 - 22 Eddie Constantine - Ca Bardait.wav
Peak level 79.3 % Track quality 100.0 % Test CRC 430102DF Copy CRC 430102DF Track not present in AccurateRip database Copy OK
Track 23
Filename L:\41_Music_Converter\03_GoldWave_Working\EMI Best Chanson 100 Vol.2_100 Chansons Francaises de Legende CD2-2006 - 23 Suzy Delair - Y'avait Du Printemps Partout.wav
Peak level 85.3 % Track quality 99.9 % Test CRC F910D359 Copy CRC F910D359 Track not present in AccurateRip database Copy OK
Track 24
Filename L:\41_Music_Converter\03_GoldWave_Working\EMI Best Chanson 100 Vol.2_100 Chansons Francaises de Legende CD2-2006 - 24 Gloria Lasso - Etranger Au Paradis.wav
Peak level 85.1 % Track quality 100.0 % Test CRC C21C93A1 Copy CRC C21C93A1 Track not present in AccurateRip database Copy OK
Track 25
Filename L:\41_Music_Converter\03_GoldWave_Working\EMI Best Chanson 100 Vol.2_100 Chansons Francaises de Legende CD2-2006 - 25 Jean Constantin - Quand Vient Le 1er Janvier.wav
Peak level 77.2 % Track quality 100.0 % Test CRC DCA515F6 Copy CRC DCA515F6 Track not present in AccurateRip database Copy OK
None of the tracks are present in the AccurateRip database
No errors occurred
End of status report

-

Содержание индексной карты (.CUE)

REM GENRE ChansonREM DATE 2006REM DISCID 70106719REM COMMENT "ExactAudioCopy v0.99pb5"PERFORMER "Various"TITLE "EMI Best Chanson 100 Vol.2_100 Chansons Francaises de Legende CD2"FILE "EMI Best Chanson 100 Vol.2_100 Chansons Francaises de Legende CD2-2006 - 01 Tino Rossi - Mediterranee.wav" WAVE TRACK 01 AUDIO TITLE "Mediterranee" PERFORMER "Tino Rossi" INDEX 01 00:00:00FILE "EMI Best Chanson 100 Vol.2_100 Chansons Francaises de Legende CD2-2006 - 02 Philippe Clay - Les Voyous.wav" WAVE TRACK 02 AUDIO TITLE "Les Voyous" PERFORMER "Philippe Clay" INDEX 01 00:00:00FILE "EMI Best Chanson 100 Vol.2_100 Chansons Francaises de Legende CD2-2006 - 03 Juliette Greco - La Fourmi.wav" WAVE TRACK 03 AUDIO TITLE "La Fourmi" PERFORMER "Juliette Greco" INDEX 01 00:00:00FILE "EMI Best Chanson 100 Vol.2_100 Chansons Francaises de Legende CD2-2006 - 04 Line Renaud - Le Tango De L'elephant.wav" WAVE TRACK 04 AUDIO TITLE "Le Tango De L'elephant" PERFORMER "Line Renaud" INDEX 01 00:00:00FILE "EMI Best Chanson 100 Vol.2_100 Chansons Francaises de Legende CD2-2006 - 05 Charles Trenet - Route Nationale 7.wav" WAVE TRACK 05 AUDIO TITLE "Route Nationale 7" PERFORMER "Charles Trenet" INDEX 01 00:00:00FILE "EMI Best Chanson 100 Vol.2_100 Chansons Francaises de Legende CD2-2006 - 06 Jacqueline Francois - La Fin D'un Roman D'amour.wav" WAVE TRACK 06 AUDIO TITLE "La Fin D'un Roman D'amour" PERFORMER "Jacqueline Francois" INDEX 01 00:00:00FILE "EMI Best Chanson 100 Vol.2_100 Chansons Francaises de Legende CD2-2006 - 07 Jean Sablon - Cette Chanson Est Pour Vous, Madame.wav" WAVE TRACK 07 AUDIO TITLE "Cette Chanson Est Pour Vous, Madame" PERFORMER "Jean Sablon" INDEX 01 00:00:00FILE "EMI Best Chanson 100 Vol.2_100 Chansons Francaises de Legende CD2-2006 - 08 Georges Brassens - Ballade Des Dames Du Temps Jadis.wav" WAVE TRACK 08 AUDIO TITLE "Ballade Des Dames Du Temps Jadis" PERFORMER "Georges Brassens" INDEX 01 00:00:00FILE "EMI Best Chanson 100 Vol.2_100 Chansons Francaises de Legende CD2-2006 - 09 Yves Montand - La Butte Rouge.wav" WAVE TRACK 09 AUDIO TITLE "La Butte Rouge" PERFORMER "Yves Montand" INDEX 01 00:00:00FILE "EMI Best Chanson 100 Vol.2_100 Chansons Francaises de Legende CD2-2006 - 10 Lucienne Delyle - Le Tango Des Jours Heureux.wav" WAVE TRACK 10 AUDIO TITLE "Le Tango Des Jours Heureux" PERFORMER "Lucienne Delyle" INDEX 01 00:00:00FILE "EMI Best Chanson 100 Vol.2_100 Chansons Francaises de Legende CD2-2006 - 11 Francis Blanche - Idylle En Foret.wav" WAVE TRACK 11 AUDIO TITLE "Idylle En Foret" PERFORMER "Francis Blanche" INDEX 01 00:00:00FILE "EMI Best Chanson 100 Vol.2_100 Chansons Francaises de Legende CD2-2006 - 12 Bourvil - La Mome Rustine.wav" WAVE TRACK 12 AUDIO TITLE "La Mome Rustine" PERFORMER "Bourvil" INDEX 01 00:00:00FILE "EMI Best Chanson 100 Vol.2_100 Chansons Francaises de Legende CD2-2006 - 13 Les Freres Jacques - General a Vendre.wav" WAVE TRACK 13 AUDIO TITLE "General a Vendre" PERFORMER "Les Freres Jacques" INDEX 01 00:00:00FILE "EMI Best Chanson 100 Vol.2_100 Chansons Francaises de Legende CD2-2006 - 14 Mouloudji - Cinematographe.wav" WAVE TRACK 14 AUDIO TITLE "Cinematographe" PERFORMER "Mouloudji" INDEX 01 00:00:00FILE "EMI Best Chanson 100 Vol.2_100 Chansons Francaises de Legende CD2-2006 - 15 Edith Piaf - Je T'ai Dans La Peau.wav" WAVE TRACK 15 AUDIO TITLE "Je T'ai Dans La Peau" PERFORMER "Edith Piaf" INDEX 01 00:00:00FILE "EMI Best Chanson 100 Vol.2_100 Chansons Francaises de Legende CD2-2006 - 16 Les Ferre - La Grande Vie.wav" WAVE TRACK 16 AUDIO TITLE "La Grande Vie" PERFORMER "Les Ferre" INDEX 01 00:00:00FILE "EMI Best Chanson 100 Vol.2_100 Chansons Francaises de Legende CD2-2006 - 17 Francis Lemarque - Mon Copain D'Pekin.wav" WAVE TRACK 17 AUDIO TITLE "Mon Copain D'Pekin" PERFORMER "Francis Lemarque" INDEX 01 00:00:00FILE "EMI Best Chanson 100 Vol.2_100 Chansons Francaises de Legende CD2-2006 - 18 Catherine Sauvage - Barbarie.wav" WAVE TRACK 18 AUDIO TITLE "Barbarie" PERFORMER "Catherine Sauvage" INDEX 01 00:00:00FILE "EMI Best Chanson 100 Vol.2_100 Chansons Francaises de Legende CD2-2006 - 19 Andre Claveau - Je T'attendrai.wav" WAVE TRACK 19 AUDIO TITLE "Je T'attendrai" PERFORMER "Andre Claveau" INDEX 01 00:00:00FILE "EMI Best Chanson 100 Vol.2_100 Chansons Francaises de Legende CD2-2006 - 20 Jacques Brel - Grand Jacques.wav" WAVE TRACK 20 AUDIO TITLE "Grand Jacques" PERFORMER "Jacques Brel" INDEX 01 00:00:00FILE "EMI Best Chanson 100 Vol.2_100 Chansons Francaises de Legende CD2-2006 - 21 Gilbert Becaud - Accroche-Toi a Ton Etoile.wav" WAVE TRACK 21 AUDIO TITLE "Accroche-Toi a Ton Etoile" PERFORMER "Gilbert Becaud" INDEX 01 00:00:00FILE "EMI Best Chanson 100 Vol.2_100 Chansons Francaises de Legende CD2-2006 - 22 Eddie Constantine - Ca Bardait.wav" WAVE TRACK 22 AUDIO TITLE "Ca Bardait" PERFORMER "Eddie Constantine" INDEX 01 00:00:00FILE "EMI Best Chanson 100 Vol.2_100 Chansons Francaises de Legende CD2-2006 - 23 Suzy Delair - Y'avait Du Printemps Partout.wav" WAVE TRACK 23 AUDIO TITLE "Y'avait Du Printemps Partout" PERFORMER "Suzy Delair" INDEX 01 00:00:00FILE "EMI Best Chanson 100 Vol.2_100 Chansons Francaises de Legende CD2-2006 - 24 Gloria Lasso - Etranger Au Paradis.wav" WAVE TRACK 24 AUDIO TITLE "Etranger Au Paradis" PERFORMER "Gloria Lasso" INDEX 01 00:00:00FILE "EMI Best Chanson 100 Vol.2_100 Chansons Francaises de Legende CD2-2006 - 25 Jean Constantin - Quand Vient Le 1er Janvier.wav" WAVE TRACK 25 AUDIO TITLE "Quand Vient Le 1er Janvier" PERFORMER "Jean Constantin" INDEX 01 00:00:00

-

-

CD3

Треклист:
01 Charles Trenet - Moi, J'aime Le Music-Hall (3:40)
02 Leo Ferre - Ma Vieille Branche (4:30)
03 Suzy Delair - J'suis Pas Paf (3:44)
04 Yves Montand - Le Temps Des Cerises (4:37)
05 Jean Constantin - Ma Petite Rime (3:54)
06 Francis Blanche - Soeur Marie-Louise (2:30)
07 Line Renaud Relax-Ay-Voo - En duo avec Dean Martin (2:55)
08 Tino Rossi - Coeur Solitaire (2:41)
09 Edddie Constantine - Pleure Pas, Nelly (3:33)
10 Annie Cordy - A Compostelle (2:50)
11 Jean Sablon - Voyage a Cuba [[Miami Beach Rumba]] (3:26)
12 Gloria Lasso - Bonne Chance (3:06)
13 Luis Mariano - Pour T'aimer [[Be My Love]] (2:17)
14 Juliette Greco - Dieu Est Negre (3:46)
15 Gilbert Becaud - Les Enfants Oublies (3:34)
16 Georges Brassens - Le Petit Cheval (2:19)
17 Andre Claveau - Noel Blanc (2:52)
18 Philippe Clay - Moi, J'fais Mon Rond (2:46)
19 Jacqueline Francois - Bilbao Song (2:58)
20 Lucienne Delyle - Java (2:06)
21 Patrice Et Mario - Les Yeux D'Angeline (2:43)
22 Andre Bourvil - Odile (3:16)
23 Edith Piaf - Valse De L'amour (2:20)
24 Yvette Giraud - Elisabeth Schwarzkopf - Les Lavandieres Du Portugal (3:04)
25 Jacques Brel - Ca va [[Le Diable]] (2:24)-

Лог создания рипа

Exact Audio Copy V0.99 prebeta 5 from 4. May 2009
EAC extraction logfile from 12. September 2009, 22:25
Various / EMI Best Chanson 100 Vol.2_100 Chansons Francaises de Legende CD3
Used drive : HL-DT-STDVDRAM GSA-4163B Adapter: 1 ID: 1
Read mode : SecureUtilize accurate stream : YesDefeat audio cache : YesMake use of C2 pointers : No
Read offset correction : 667Overread into Lead-In and Lead-Out : NoFill up missing offset samples with silence : YesDelete leading and trailing silent blocks : NoNull samples used in CRC calculations : YesUsed interface : Native Win32 interface for Win NT & 2000Gap handling : Appended to previous track
Used output format : User Defined EncoderSelected bitrate : 1024 kBit/sQuality : HighAdd ID3 tag : NoCommand line compressor : C:\Program Files\Exact Audio Copy\_Flac.exe\flac_1.2.1.exeAdditional command line options : -8 -V -T "artist=%a" -T "title=%t" -T "album=%g" -T "date=%y" -T "tracknumber=%n" -T "genre=%m" %s
TOC of the extracted CD
Track | Start | Length | Start sector | End sector --------------------------------------------------------- 1 | 0:00.00 | 3:40.72 | 0 | 16571 2 | 3:40.72 | 4:30.56 | 16572 | 36877 3 | 8:11.53 | 3:44.33 | 36878 | 53710 4 | 11:56.11 | 4:37.11 | 53711 | 74496 5 | 16:33.22 | 3:54.07 | 74497 | 92053 6 | 20:27.29 | 2:30.61 | 92054 | 103364 7 | 22:58.15 | 2:55.02 | 103365 | 116491 8 | 25:53.17 | 2:41.68 | 116492 | 128634 9 | 28:35.10 | 3:33.42 | 128635 | 144651 10 | 32:08.52 | 2:50.53 | 144652 | 157454 11 | 34:59.30 | 3:26.00 | 157455 | 172904 12 | 38:25.30 | 3:06.33 | 172905 | 186887 13 | 41:31.63 | 2:17.73 | 186888 | 197235 14 | 43:49.61 | 3:46.60 | 197236 | 214245 15 | 47:36.46 | 3:34.11 | 214246 | 230306 16 | 51:10.57 | 2:19.39 | 230307 | 240770 17 | 53:30.21 | 2:52.52 | 240771 | 253722 18 | 56:22.73 | 2:46.31 | 253723 | 266203 19 | 59:09.29 | 2:58.39 | 266204 | 279592 20 | 62:07.68 | 2:06.10 | 279593 | 289052 21 | 64:14.03 | 2:43.14 | 289053 | 301291 22 | 66:57.17 | 3:16.25 | 301292 | 316016 23 | 70:13.42 | 2:20.01 | 316017 | 326517 24 | 72:33.43 | 3:04.44 | 326518 | 340361 25 | 75:38.12 | 2:24.13 | 340362 | 351174
Track 1
Filename L:\41_Music_Converter\03_GoldWave_Working\EMI Best Chanson 100 Vol.2_100 Chansons Francaises de Legende CD3-2006 - 01 Charles Trenet - Moi, J'aime Le Music-Hall.wav
Pre-gap length 0:00:02.00
Peak level 74.3 % Track quality 100.0 % Test CRC BE4AB1C6 Copy CRC BE4AB1C6 Track not present in AccurateRip database Copy OK
Track 2
Filename L:\41_Music_Converter\03_GoldWave_Working\EMI Best Chanson 100 Vol.2_100 Chansons Francaises de Legende CD3-2006 - 02 Leo Ferre - Ma Vieille Branche.wav
Peak level 77.0 % Track quality 100.0 % Test CRC 50C9FF0E Copy CRC 50C9FF0E Track not present in AccurateRip database Copy OK
Track 3
Filename L:\41_Music_Converter\03_GoldWave_Working\EMI Best Chanson 100 Vol.2_100 Chansons Francaises de Legende CD3-2006 - 03 Suzy Delair - J'suis Pas Paf.wav
Peak level 80.7 % Track quality 99.9 % Test CRC 67E59632 Copy CRC 67E59632 Track not present in AccurateRip database Copy OK
Track 4
Filename L:\41_Music_Converter\03_GoldWave_Working\EMI Best Chanson 100 Vol.2_100 Chansons Francaises de Legende CD3-2006 - 04 Yves Montand - Le Temps Des Cerises.wav
Peak level 75.7 % Track quality 100.0 % Test CRC 8A2AA774 Copy CRC 8A2AA774 Track not present in AccurateRip database Copy OK
Track 5
Filename L:\41_Music_Converter\03_GoldWave_Working\EMI Best Chanson 100 Vol.2_100 Chansons Francaises de Legende CD3-2006 - 05 Jean Constantin - Ma Petite Rime.wav
Peak level 83.2 % Track quality 99.9 % Test CRC B4BDBCDE Copy CRC B4BDBCDE Track not present in AccurateRip database Copy OK
Track 6
Filename L:\41_Music_Converter\03_GoldWave_Working\EMI Best Chanson 100 Vol.2_100 Chansons Francaises de Legende CD3-2006 - 06 Francis Blanche - Soeur Marie-Louise.wav
Peak level 72.8 % Track quality 100.0 % Test CRC 6BC3E649 Copy CRC 6BC3E649 Track not present in AccurateRip database Copy OK
Track 7
Filename L:\41_Music_Converter\03_GoldWave_Working\EMI Best Chanson 100 Vol.2_100 Chansons Francaises de Legende CD3-2006 - 07 Line Renaud Relax-Ay-Voo - En duo avec Dean Martin.wav
Peak level 86.3 % Track quality 100.0 % Test CRC 6B4996E8 Copy CRC 6B4996E8 Track not present in AccurateRip database Copy OK
Track 8
Filename L:\41_Music_Converter\03_GoldWave_Working\EMI Best Chanson 100 Vol.2_100 Chansons Francaises de Legende CD3-2006 - 08 Tino Rossi - Coeur Solitaire.wav
Peak level 74.8 % Track quality 100.0 % Test CRC 3C4DFF4B Copy CRC 3C4DFF4B Track not present in AccurateRip database Copy OK
Track 9
Filename L:\41_Music_Converter\03_GoldWave_Working\EMI Best Chanson 100 Vol.2_100 Chansons Francaises de Legende CD3-2006 - 09 Edddie Constantine - Pleure Pas, Nelly.wav
Peak level 85.2 % Track quality 100.0 % Test CRC 622F214D Copy CRC 622F214D Track not present in AccurateRip database Copy OK
Track 10
Filename L:\41_Music_Converter\03_GoldWave_Working\EMI Best Chanson 100 Vol.2_100 Chansons Francaises de Legende CD3-2006 - 10 Annie Cordy - A Compostelle.wav
Peak level 83.5 % Track quality 100.0 % Test CRC D57FAAB2 Copy CRC D57FAAB2 Track not present in AccurateRip database Copy OK
Track 11
Filename L:\41_Music_Converter\03_GoldWave_Working\EMI Best Chanson 100 Vol.2_100 Chansons Francaises de Legende CD3-2006 - 11 Jean Sablon - Voyage a Cuba [[Miami Beach Rumba]].wav
Peak level 89.9 % Track quality 100.0 % Test CRC F8818431 Copy CRC F8818431 Track not present in AccurateRip database Copy OK
Track 12
Filename L:\41_Music_Converter\03_GoldWave_Working\EMI Best Chanson 100 Vol.2_100 Chansons Francaises de Legende CD3-2006 - 12 Gloria Lasso - Bonne Chance.wav
Peak level 85.5 % Track quality 100.0 % Test CRC E5397EE0 Copy CRC E5397EE0 Track not present in AccurateRip database Copy OK
Track 13
Filename L:\41_Music_Converter\03_GoldWave_Working\EMI Best Chanson 100 Vol.2_100 Chansons Francaises de Legende CD3-2006 - 13 Luis Mariano - Pour T'aimer [[Be My Love]].wav
Peak level 79.9 % Track quality 100.0 % Test CRC A011C7B0 Copy CRC A011C7B0 Track not present in AccurateRip database Copy OK
Track 14
Filename L:\41_Music_Converter\03_GoldWave_Working\EMI Best Chanson 100 Vol.2_100 Chansons Francaises de Legende CD3-2006 - 14 Juliette Greco - Dieu Est Negre.wav
Peak level 81.7 % Track quality 99.9 % Test CRC 88E1114E Copy CRC 88E1114E Track not present in AccurateRip database Copy OK
Track 15
Filename L:\41_Music_Converter\03_GoldWave_Working\EMI Best Chanson 100 Vol.2_100 Chansons Francaises de Legende CD3-2006 - 15 Gilbert Becaud - Les Enfants Oublies.wav
Peak level 76.6 % Track quality 100.0 % Test CRC DEE82572 Copy CRC DEE82572 Track not present in AccurateRip database Copy OK
Track 16
Filename L:\41_Music_Converter\03_GoldWave_Working\EMI Best Chanson 100 Vol.2_100 Chansons Francaises de Legende CD3-2006 - 16 Georges Brassens - Le Petit Cheval.wav
Peak level 82.6 % Track quality 100.0 % Test CRC 935269CE Copy CRC 935269CE Track not present in AccurateRip database Copy OK
Track 17
Filename L:\41_Music_Converter\03_GoldWave_Working\EMI Best Chanson 100 Vol.2_100 Chansons Francaises de Legende CD3-2006 - 17 Andre Claveau - Noel Blanc.wav
Peak level 86.1 % Track quality 99.9 % Test CRC 3C817134 Copy CRC 3C817134 Track not present in AccurateRip database Copy OK
Track 18
Filename L:\41_Music_Converter\03_GoldWave_Working\EMI Best Chanson 100 Vol.2_100 Chansons Francaises de Legende CD3-2006 - 18 Philippe Clay - Moi, J'fais Mon Rond.wav
Peak level 87.0 % Track quality 100.0 % Test CRC 0F1C3670 Copy CRC 0F1C3670 Track not present in AccurateRip database Copy OK
Track 19
Filename L:\41_Music_Converter\03_GoldWave_Working\EMI Best Chanson 100 Vol.2_100 Chansons Francaises de Legende CD3-2006 - 19 Jacqueline Francois - Bilbao Song.wav
Peak level 83.3 % Track quality 100.0 % Test CRC EF1549A8 Copy CRC EF1549A8 Track not present in AccurateRip database Copy OK
Track 20
Filename L:\41_Music_Converter\03_GoldWave_Working\EMI Best Chanson 100 Vol.2_100 Chansons Francaises de Legende CD3-2006 - 20 Lucienne Delyle - Java.wav
Peak level 88.1 % Track quality 100.0 % Test CRC DC1C413C Copy CRC DC1C413C Track not present in AccurateRip database Copy OK
Track 21
Filename L:\41_Music_Converter\03_GoldWave_Working\EMI Best Chanson 100 Vol.2_100 Chansons Francaises de Legende CD3-2006 - 21 Patrice Et Mario - Les Yeux D'Angeline.wav
Peak level 95.0 % Track quality 100.0 % Test CRC C8814D0F Copy CRC C8814D0F Track not present in AccurateRip database Copy OK
Track 22
Filename L:\41_Music_Converter\03_GoldWave_Working\EMI Best Chanson 100 Vol.2_100 Chansons Francaises de Legende CD3-2006 - 22 Andre Bourvil - Odile.wav
Peak level 81.8 % Track quality 100.0 % Test CRC D3C05F6F Copy CRC D3C05F6F Track not present in AccurateRip database Copy OK
Track 23
Filename L:\41_Music_Converter\03_GoldWave_Working\EMI Best Chanson 100 Vol.2_100 Chansons Francaises de Legende CD3-2006 - 23 Edith Piaf - Valse De L'amour.wav
Peak level 88.7 % Track quality 100.0 % Test CRC 74E99C28 Copy CRC 74E99C28 Track not present in AccurateRip database Copy OK
Track 24
Filename L:\41_Music_Converter\03_GoldWave_Working\EMI Best Chanson 100 Vol.2_100 Chansons Francaises de Legende CD3-2006 - 24 Yvette Giraud - Elisabeth Schwarzkopf - Les Lavandieres Du Portugal.wav
Peak level 73.3 % Track quality 100.0 % Test CRC 18CEF449 Copy CRC 18CEF449 Track not present in AccurateRip database Copy OK
Track 25
Filename L:\41_Music_Converter\03_GoldWave_Working\EMI Best Chanson 100 Vol.2_100 Chansons Francaises de Legende CD3-2006 - 25 Jacques Brel - Ca va [[Le Diable]].wav
Peak level 85.2 % Track quality 100.0 % Test CRC 22B17A14 Copy CRC 22B17A14 Track not present in AccurateRip database Copy OK
None of the tracks are present in the AccurateRip database
No errors occurred
End of status report

-

Содержание индексной карты (.CUE)

REM GENRE ChansonREM DATE 2006REM DISCID 63124A19REM COMMENT "ExactAudioCopy v0.99pb5"PERFORMER "Various"TITLE "EMI Best Chanson 100 Vol.2_100 Chansons Francaises de Legende CD3"FILE "EMI Best Chanson 100 Vol.2_100 Chansons Francaises de Legende CD3-2006 - 01 Charles Trenet - Moi, J'aime Le Music-Hall.wav" WAVE TRACK 01 AUDIO TITLE "Moi, J'aime Le Music-Hall" PERFORMER "Charles Trenet" INDEX 01 00:00:00FILE "EMI Best Chanson 100 Vol.2_100 Chansons Francaises de Legende CD3-2006 - 02 Leo Ferre - Ma Vieille Branche.wav" WAVE TRACK 02 AUDIO TITLE "Ma Vieille Branche" PERFORMER "Leo Ferre" INDEX 01 00:00:00FILE "EMI Best Chanson 100 Vol.2_100 Chansons Francaises de Legende CD3-2006 - 03 Suzy Delair - J'suis Pas Paf.wav" WAVE TRACK 03 AUDIO TITLE "J'suis Pas Paf" PERFORMER "Suzy Delair" INDEX 01 00:00:00FILE "EMI Best Chanson 100 Vol.2_100 Chansons Francaises de Legende CD3-2006 - 04 Yves Montand - Le Temps Des Cerises.wav" WAVE TRACK 04 AUDIO TITLE "Le Temps Des Cerises" PERFORMER "Yves Montand" INDEX 01 00:00:00FILE "EMI Best Chanson 100 Vol.2_100 Chansons Francaises de Legende CD3-2006 - 05 Jean Constantin - Ma Petite Rime.wav" WAVE TRACK 05 AUDIO TITLE "Ma Petite Rime" PERFORMER "Jean Constantin" INDEX 01 00:00:00FILE "EMI Best Chanson 100 Vol.2_100 Chansons Francaises de Legende CD3-2006 - 06 Francis Blanche - Soeur Marie-Louise.wav" WAVE TRACK 06 AUDIO TITLE "Soeur Marie-Louise" PERFORMER "Francis Blanche" INDEX 01 00:00:00FILE "EMI Best Chanson 100 Vol.2_100 Chansons Francaises de Legende CD3-2006 - 07 Line Renaud Relax-Ay-Voo - En duo avec Dean Martin.wav" WAVE TRACK 07 AUDIO TITLE "En duo avec Dean Martin" PERFORMER "Line Renaud Relax-Ay-Voo" INDEX 01 00:00:00FILE "EMI Best Chanson 100 Vol.2_100 Chansons Francaises de Legende CD3-2006 - 08 Tino Rossi - Coeur Solitaire.wav" WAVE TRACK 08 AUDIO TITLE "Coeur Solitaire" PERFORMER "Tino Rossi" INDEX 01 00:00:00FILE "EMI Best Chanson 100 Vol.2_100 Chansons Francaises de Legende CD3-2006 - 09 Edddie Constantine - Pleure Pas, Nelly.wav" WAVE TRACK 09 AUDIO TITLE "Pleure Pas, Nelly" PERFORMER "Edddie Constantine" INDEX 01 00:00:00FILE "EMI Best Chanson 100 Vol.2_100 Chansons Francaises de Legende CD3-2006 - 10 Annie Cordy - A Compostelle.wav" WAVE TRACK 10 AUDIO TITLE "A Compostelle" PERFORMER "Annie Cordy" INDEX 01 00:00:00FILE "EMI Best Chanson 100 Vol.2_100 Chansons Francaises de Legende CD3-2006 - 11 Jean Sablon - Voyage a Cuba [[Miami Beach Rumba]].wav" WAVE TRACK 11 AUDIO TITLE "Voyage a Cuba " PERFORMER "Jean Sablon" INDEX 01 00:00:00FILE "EMI Best Chanson 100 Vol.2_100 Chansons Francaises de Legende CD3-2006 - 12 Gloria Lasso - Bonne Chance.wav" WAVE TRACK 12 AUDIO TITLE "Bonne Chance" PERFORMER "Gloria Lasso" INDEX 01 00:00:00FILE "EMI Best Chanson 100 Vol.2_100 Chansons Francaises de Legende CD3-2006 - 13 Luis Mariano - Pour T'aimer [[Be My Love]].wav" WAVE TRACK 13 AUDIO TITLE "Pour T'aimer " PERFORMER "Luis Mariano" INDEX 01 00:00:00FILE "EMI Best Chanson 100 Vol.2_100 Chansons Francaises de Legende CD3-2006 - 14 Juliette Greco - Dieu Est Negre.wav" WAVE TRACK 14 AUDIO TITLE "Dieu Est Negre" PERFORMER "Juliette Greco" INDEX 01 00:00:00FILE "EMI Best Chanson 100 Vol.2_100 Chansons Francaises de Legende CD3-2006 - 15 Gilbert Becaud - Les Enfants Oublies.wav" WAVE TRACK 15 AUDIO TITLE "Les Enfants Oublies" PERFORMER "Gilbert Becaud" INDEX 01 00:00:00FILE "EMI Best Chanson 100 Vol.2_100 Chansons Francaises de Legende CD3-2006 - 16 Georges Brassens - Le Petit Cheval.wav" WAVE TRACK 16 AUDIO TITLE "Le Petit Cheval" PERFORMER "Georges Brassens" INDEX 01 00:00:00FILE "EMI Best Chanson 100 Vol.2_100 Chansons Francaises de Legende CD3-2006 - 17 Andre Claveau - Noel Blanc.wav" WAVE TRACK 17 AUDIO TITLE "Noel Blanc" PERFORMER "Andre Claveau" INDEX 01 00:00:00FILE "EMI Best Chanson 100 Vol.2_100 Chansons Francaises de Legende CD3-2006 - 18 Philippe Clay - Moi, J'fais Mon Rond.wav" WAVE TRACK 18 AUDIO TITLE "Moi, J'fais Mon Rond" PERFORMER "Philippe Clay" INDEX 01 00:00:00FILE "EMI Best Chanson 100 Vol.2_100 Chansons Francaises de Legende CD3-2006 - 19 Jacqueline Francois - Bilbao Song.wav" WAVE TRACK 19 AUDIO TITLE "Bilbao Song" PERFORMER "Jacqueline Francois" INDEX 01 00:00:00FILE "EMI Best Chanson 100 Vol.2_100 Chansons Francaises de Legende CD3-2006 - 20 Lucienne Delyle - Java.wav" WAVE TRACK 20 AUDIO TITLE "Java" PERFORMER "Lucienne Delyle" INDEX 01 00:00:00FILE "EMI Best Chanson 100 Vol.2_100 Chansons Francaises de Legende CD3-2006 - 21 Patrice Et Mario - Les Yeux D'Angeline.wav" WAVE TRACK 21 AUDIO TITLE "Les Yeux D'Angeline" PERFORMER "Patrice Et Mario" INDEX 01 00:00:00FILE "EMI Best Chanson 100 Vol.2_100 Chansons Francaises de Legende CD3-2006 - 22 Andre Bourvil - Odile.wav" WAVE TRACK 22 AUDIO TITLE "Odile" PERFORMER "Andre Bourvil" INDEX 01 00:00:00FILE "EMI Best Chanson 100 Vol.2_100 Chansons Francaises de Legende CD3-2006 - 23 Edith Piaf - Valse De L'amour.wav" WAVE TRACK 23 AUDIO TITLE "Valse De L'amour" PERFORMER "Edith Piaf" INDEX 01 00:00:00FILE "EMI Best Chanson 100 Vol.2_100 Chansons Francaises de Legende CD3-2006 - 24 Yvette Giraud - Elisabeth Schwarzkopf - Les Lavandieres Du Portugal.wav" WAVE TRACK 24 AUDIO TITLE "Les Lavandieres Du Portugal" PERFORMER "Yvette Giraud - Elisabeth Schwarzkopf" INDEX 01 00:00:00FILE "EMI Best Chanson 100 Vol.2_100 Chansons Francaises de Legende CD3-2006 - 25 Jacques Brel - Ca va [[Le Diable]].wav" WAVE TRACK 25 AUDIO TITLE "Ca va " PERFORMER "Jacques Brel" INDEX 01 00:00:00

-

-

CD4

Треклист:
01 Georges Brassens - Hecatombe (1:57)
02 Philippe Clay - Le Noye Assassine (2:01)
03 Andre Claveau - Avec Ce Soleil (2:05)
04 Catherine Sauvage - L'ile Saint-Louis (3:09)
05 Leo Ferre - La vie (2:10)
06 Mouloudji - On M'a Donne Une Ame (3:18)
07 Lucienne Delyle - Un Ange Comme Ca (3:15)
08 Les Compagnons De La Chanson - La Chanson Du Celibataire (1:58)
09 Line Renaud - Les Plus Jolies Choses De La Vie (3:06)
10 Jean Constantin - L'illusionniste (3:19)
11 Gilbert Becaud - Ah ! Dites-Moi Pourquoi Je L'aime (2:17)
12 Jacques Brel - Il Peut Pleuvoir (1:44)
13 Henri Salvador - Le Petit Indien (3:10)
14 Yvette Giraud - Raconte, Grand-Mere (2:53)
15 Tino Rossi - Tant De Fois (3:23)
16 Charles Trenet - La Java Du Diable (3:01)
17 Jacqueline Francois - Samba Fantastique (2:48)
18 Yves Montand - Sanguine (2:41)
19 Pierre Roger / Thibault Jean Marc - Rendez Vous Au Pam Pam (3:13)
20 Annie Cordy - Oh ! Bessie (3:02)
21 Juliette Greco - La Fiancee Du Pirate (2:52)
22 Jean Sablon - Au Loin Dans La Plaine (2:44)
23 Patachou & Georges Brassens - Maman, Papa (2:09)
24 Gloria Lasso - Comment Vas-Tu (2:28)
25 Edith Piaf - C'est Merveilleux [[Etoile Sans Lumiere]] (3:04)-

Лог создания рипа

Exact Audio Copy V0.99 prebeta 5 from 4. May 2009
EAC extraction logfile from 13. September 2009, 1:56
Various / EMI Best Chanson 100 Vol.2_100 Chansons Francaises de Legende CD4
Used drive : HL-DT-STDVDRAM GSA-4163B Adapter: 1 ID: 1
Read mode : SecureUtilize accurate stream : YesDefeat audio cache : YesMake use of C2 pointers : No
Read offset correction : 667Overread into Lead-In and Lead-Out : NoFill up missing offset samples with silence : YesDelete leading and trailing silent blocks : NoNull samples used in CRC calculations : YesUsed interface : Native Win32 interface for Win NT & 2000Gap handling : Appended to previous track
Used output format : User Defined EncoderSelected bitrate : 1024 kBit/sQuality : HighAdd ID3 tag : NoCommand line compressor : C:\Program Files\Exact Audio Copy\_Flac.exe\flac_1.2.1.exeAdditional command line options : -8 -V -T "artist=%a" -T "title=%t" -T "album=%g" -T "date=%y" -T "tracknumber=%n" -T "genre=%m" %s
TOC of the extracted CD
Track | Start | Length | Start sector | End sector --------------------------------------------------------- 1 | 0:00.00 | 1:57.55 | 0 | 8829 2 | 1:57.55 | 2:01.15 | 8830 | 17919 3 | 3:58.70 | 2:05.30 | 17920 | 27324 4 | 6:04.25 | 3:09.56 | 27325 | 41555 5 | 9:14.06 | 2:10.66 | 41556 | 51371 6 | 11:24.72 | 3:18.34 | 51372 | 66255 7 | 14:43.31 | 3:15.71 | 66256 | 80951 8 | 17:59.27 | 1:58.14 | 80952 | 89815 9 | 19:57.41 | 3:06.16 | 89816 | 103781 10 | 23:03.57 | 3:19.70 | 103782 | 118776 11 | 26:23.52 | 2:17.08 | 118777 | 129059 12 | 28:40.60 | 1:44.04 | 129060 | 136863 13 | 30:24.64 | 3:10.04 | 136864 | 151117 14 | 33:34.68 | 2:53.20 | 151118 | 164112 15 | 36:28.13 | 3:23.74 | 164113 | 179411 16 | 39:52.12 | 3:01.13 | 179412 | 192999 17 | 42:53.25 | 2:48.32 | 193000 | 205631 18 | 45:41.57 | 2:41.62 | 205632 | 217768 19 | 48:23.44 | 3:13.64 | 217769 | 232307 20 | 51:37.33 | 3:02.17 | 232308 | 245974 21 | 54:39.50 | 2:52.38 | 245975 | 258912 22 | 57:32.13 | 2:44.20 | 258913 | 271232 23 | 60:16.33 | 2:09.66 | 271233 | 280973 24 | 62:26.24 | 2:28.64 | 280974 | 292137 25 | 64:55.13 | 3:04.14 | 292138 | 305951
Track 1
Filename L:\41_Music_Converter\03_GoldWave_Working\EMI Best Chanson 100 Vol.2_100 Chansons Francaises de Legende CD4-2006 - 01 Georges Brassens - Hecatombe.wav
Pre-gap length 0:00:02.00
Peak level 83.1 % Track quality 100.0 % Test CRC 230F0E10 Copy CRC 230F0E10 Track not present in AccurateRip database Copy OK
Track 2
Filename L:\41_Music_Converter\03_GoldWave_Working\EMI Best Chanson 100 Vol.2_100 Chansons Francaises de Legende CD4-2006 - 02 Philippe Clay - Le Noye Assassine.wav
Peak level 82.8 % Track quality 99.9 % Test CRC 53A06A36 Copy CRC 53A06A36 Track not present in AccurateRip database Copy OK
Track 3
Filename L:\41_Music_Converter\03_GoldWave_Working\EMI Best Chanson 100 Vol.2_100 Chansons Francaises de Legende CD4-2006 - 03 Andre Claveau - Avec Ce Soleil.wav
Peak level 91.3 % Track quality 100.0 % Test CRC EC475DA1 Copy CRC EC475DA1 Track not present in AccurateRip database Copy OK
Track 4
Filename L:\41_Music_Converter\03_GoldWave_Working\EMI Best Chanson 100 Vol.2_100 Chansons Francaises de Legende CD4-2006 - 04 Catherine Sauvage - L'ile Saint-Louis.wav
Peak level 86.0 % Track quality 100.0 % Test CRC 75600F61 Copy CRC 75600F61 Track not present in AccurateRip database Copy OK
Track 5
Filename L:\41_Music_Converter\03_GoldWave_Working\EMI Best Chanson 100 Vol.2_100 Chansons Francaises de Legende CD4-2006 - 05 Leo Ferre - La vie.wav
Peak level 84.6 % Track quality 100.0 % Test CRC C6AF0B30 Copy CRC C6AF0B30 Track not present in AccurateRip database Copy OK
Track 6
Filename L:\41_Music_Converter\03_GoldWave_Working\EMI Best Chanson 100 Vol.2_100 Chansons Francaises de Legende CD4-2006 - 06 Mouloudji - On M'a Donne Une Ame.wav
Peak level 82.0 % Track quality 100.0 % Test CRC DEE0798D Copy CRC DEE0798D Track not present in AccurateRip database Copy OK
Track 7
Filename L:\41_Music_Converter\03_GoldWave_Working\EMI Best Chanson 100 Vol.2_100 Chansons Francaises de Legende CD4-2006 - 07 Lucienne Delyle - Un Ange Comme Ca.wav
Peak level 89.9 % Track quality 100.0 % Test CRC CAB8D366 Copy CRC CAB8D366 Track not present in AccurateRip database Copy OK
Track 8
Filename L:\41_Music_Converter\03_GoldWave_Working\EMI Best Chanson 100 Vol.2_100 Chansons Francaises de Legende CD4-2006 - 08 Les Compagnons De La Chanson - La Chanson Du Celibataire.wav
Peak level 78.7 % Track quality 100.0 % Test CRC A32139E6 Copy CRC A32139E6 Track not present in AccurateRip database Copy OK
Track 9
Filename L:\41_Music_Converter\03_GoldWave_Working\EMI Best Chanson 100 Vol.2_100 Chansons Francaises de Legende CD4-2006 - 09 Line Renaud - Les Plus Jolies Choses De La Vie.wav
Peak level 88.1 % Track quality 100.0 % Test CRC D2114C8E Copy CRC D2114C8E Track not present in AccurateRip database Copy OK
Track 10
Filename L:\41_Music_Converter\03_GoldWave_Working\EMI Best Chanson 100 Vol.2_100 Chansons Francaises de Legende CD4-2006 - 10 Jean Constantin - L'illusionniste.wav
Peak level 82.5 % Track quality 100.0 % Test CRC DC5DEC18 Copy CRC DC5DEC18 Track not present in AccurateRip database Copy OK
Track 11
Filename L:\41_Music_Converter\03_GoldWave_Working\EMI Best Chanson 100 Vol.2_100 Chansons Francaises de Legende CD4-2006 - 11 Gilbert Becaud - Ah ! Dites-Moi Pourquoi Je L'aime.wav
Peak level 88.5 % Track quality 100.0 % Test CRC 9B57F366 Copy CRC 9B57F366 Track not present in AccurateRip database Copy OK
Track 12
Filename L:\41_Music_Converter\03_GoldWave_Working\EMI Best Chanson 100 Vol.2_100 Chansons Francaises de Legende CD4-2006 - 12 Jacques Brel - Il Peut Pleuvoir.wav
Peak level 80.9 % Track quality 100.0 % Test CRC DE0AD392 Copy CRC DE0AD392 Track not present in AccurateRip database Copy OK
Track 13
Filename L:\41_Music_Converter\03_GoldWave_Working\EMI Best Chanson 100 Vol.2_100 Chansons Francaises de Legende CD4-2006 - 13 Henri Salvador - Le Petit Indien.wav
Peak level 90.1 % Track quality 100.0 % Test CRC AB8DB965 Copy CRC AB8DB965 Track not present in AccurateRip database Copy OK
Track 14
Filename L:\41_Music_Converter\03_GoldWave_Working\EMI Best Chanson 100 Vol.2_100 Chansons Francaises de Legende CD4-2006 - 14 Yvette Giraud - Raconte, Grand-Mere.wav
Peak level 89.0 % Track quality 100.0 % Test CRC 3F34195B Copy CRC 3F34195B Track not present in AccurateRip database Copy OK
Track 15
Filename L:\41_Music_Converter\03_GoldWave_Working\EMI Best Chanson 100 Vol.2_100 Chansons Francaises de Legende CD4-2006 - 15 Tino Rossi - Tant De Fois.wav
Peak level 78.1 % Track quality 100.0 % Test CRC EC122469 Copy CRC EC122469 Track not present in AccurateRip database Copy OK
Track 16
Filename L:\41_Music_Converter\03_GoldWave_Working\EMI Best Chanson 100 Vol.2_100 Chansons Francaises de Legende CD4-2006 - 16 Charles Trenet - La Java Du Diable.wav
Peak level 89.0 % Track quality 100.0 % Test CRC 4321AEF3 Copy CRC 4321AEF3 Track not present in AccurateRip database Copy OK
Track 17
Filename L:\41_Music_Converter\03_GoldWave_Working\EMI Best Chanson 100 Vol.2_100 Chansons Francaises de Legende CD4-2006 - 17 Jacqueline Francois - Samba Fantastique.wav
Peak level 82.2 % Track quality 100.0 % Test CRC B658B937 Copy CRC B658B937 Track not present in AccurateRip database Copy OK
Track 18
Filename L:\41_Music_Converter\03_GoldWave_Working\EMI Best Chanson 100 Vol.2_100 Chansons Francaises de Legende CD4-2006 - 18 Yves Montand - Sanguine.wav
Peak level 93.4 % Track quality 100.0 % Test CRC BFD3A202 Copy CRC BFD3A202 Track not present in AccurateRip database Copy OK
Track 19
Filename L:\41_Music_Converter\03_GoldWave_Working\EMI Best Chanson 100 Vol.2_100 Chansons Francaises de Legende CD4-2006 - 19 Pierre Roger ЈЇ Thibault Jean Marc - Rendez Vous Au Pam Pam.wav
Peak level 84.8 % Track quality 100.0 % Test CRC 10A15F36 Copy CRC 10A15F36 Track not present in AccurateRip database Copy OK
Track 20
Filename L:\41_Music_Converter\03_GoldWave_Working\EMI Best Chanson 100 Vol.2_100 Chansons Francaises de Legende CD4-2006 - 20 Annie Cordy - Oh ! Bessie.wav
Peak level 77.3 % Track quality 100.0 % Test CRC 0C310D7B Copy CRC 0C310D7B Track not present in AccurateRip database Copy OK
Track 21
Filename L:\41_Music_Converter\03_GoldWave_Working\EMI Best Chanson 100 Vol.2_100 Chansons Francaises de Legende CD4-2006 - 21 Juliette Greco - La Fiancee Du Pirate.wav
Peak level 85.4 % Track quality 100.0 % Test CRC 47422115 Copy CRC 47422115 Track not present in AccurateRip database Copy OK
Track 22
Filename L:\41_Music_Converter\03_GoldWave_Working\EMI Best Chanson 100 Vol.2_100 Chansons Francaises de Legende CD4-2006 - 22 Jean Sablon - Au Loin Dans La Plaine.wav
Peak level 75.2 % Track quality 100.0 % Test CRC 8ACA00A6 Copy CRC 8ACA00A6 Track not present in AccurateRip database Copy OK
Track 23
Filename L:\41_Music_Converter\03_GoldWave_Working\EMI Best Chanson 100 Vol.2_100 Chansons Francaises de Legende CD4-2006 - 23 Patachou & Georges Brassens - Maman, Papa.wav
Peak level 84.9 % Track quality 100.0 % Test CRC 911BA4CA Copy CRC 911BA4CA Track not present in AccurateRip database Copy OK
Track 24
Filename L:\41_Music_Converter\03_GoldWave_Working\EMI Best Chanson 100 Vol.2_100 Chansons Francaises de Legende CD4-2006 - 24 Gloria Lasso - Comment Vas-TuЈї.wav
Peak level 84.7 % Track quality 100.0 % Test CRC 57B1730A Copy CRC 57B1730A Track not present in AccurateRip database Copy OK
Track 25
Filename L:\41_Music_Converter\03_GoldWave_Working\EMI Best Chanson 100 Vol.2_100 Chansons Francaises de Legende CD4-2006 - 25 Edith Piaf - C'est Merveilleux [[Etoile Sans Lumiere]].wav
Peak level 77.9 % Track quality 100.0 % Test CRC 52B4F2A6 Copy CRC 52B4F2A6 Track not present in AccurateRip database Copy OK
None of the tracks are present in the AccurateRip database
No errors occurred
End of status report

-

Содержание индексной карты (.CUE)

REM GENRE ChansonREM DATE 2006REM DISCID 8B0FEF19REM COMMENT "ExactAudioCopy v0.99pb5"PERFORMER "Various"TITLE "EMI Best Chanson 100 Vol.2_100 Chansons Francaises de Legende CD4"FILE "EMI Best Chanson 100 Vol.2_100 Chansons Francaises de Legende CD4-2006 - 01 Georges Brassens - Hecatombe.wav" WAVE TRACK 01 AUDIO TITLE "Hecatombe" PERFORMER "Georges Brassens" INDEX 01 00:00:00FILE "EMI Best Chanson 100 Vol.2_100 Chansons Francaises de Legende CD4-2006 - 02 Philippe Clay - Le Noye Assassine.wav" WAVE TRACK 02 AUDIO TITLE "Le Noye Assassine" PERFORMER "Philippe Clay" INDEX 01 00:00:00FILE "EMI Best Chanson 100 Vol.2_100 Chansons Francaises de Legende CD4-2006 - 03 Andre Claveau - Avec Ce Soleil.wav" WAVE TRACK 03 AUDIO TITLE "Avec Ce Soleil" PERFORMER "Andre Claveau" INDEX 01 00:00:00FILE "EMI Best Chanson 100 Vol.2_100 Chansons Francaises de Legende CD4-2006 - 04 Catherine Sauvage - L'ile Saint-Louis.wav" WAVE TRACK 04 AUDIO TITLE "L'ile Saint-Louis" PERFORMER "Catherine Sauvage" INDEX 01 00:00:00FILE "EMI Best Chanson 100 Vol.2_100 Chansons Francaises de Legende CD4-2006 - 05 Leo Ferre - La vie.wav" WAVE TRACK 05 AUDIO TITLE "La vie" PERFORMER "Leo Ferre" INDEX 01 00:00:00FILE "EMI Best Chanson 100 Vol.2_100 Chansons Francaises de Legende CD4-2006 - 06 Mouloudji - On M'a Donne Une Ame.wav" WAVE TRACK 06 AUDIO TITLE "On M'a Donne Une Ame" PERFORMER "Mouloudji" INDEX 01 00:00:00FILE "EMI Best Chanson 100 Vol.2_100 Chansons Francaises de Legende CD4-2006 - 07 Lucienne Delyle - Un Ange Comme Ca.wav" WAVE TRACK 07 AUDIO TITLE "Un Ange Comme Ca" PERFORMER "Lucienne Delyle" INDEX 01 00:00:00FILE "EMI Best Chanson 100 Vol.2_100 Chansons Francaises de Legende CD4-2006 - 08 Les Compagnons De La Chanson - La Chanson Du Celibataire.wav" WAVE TRACK 08 AUDIO TITLE "La Chanson Du Celibataire" PERFORMER "Les Compagnons De La Chanson" INDEX 01 00:00:00FILE "EMI Best Chanson 100 Vol.2_100 Chansons Francaises de Legende CD4-2006 - 09 Line Renaud - Les Plus Jolies Choses De La Vie.wav" WAVE TRACK 09 AUDIO TITLE "Les Plus Jolies Choses De La Vie" PERFORMER "Line Renaud" INDEX 01 00:00:00FILE "EMI Best Chanson 100 Vol.2_100 Chansons Francaises de Legende CD4-2006 - 10 Jean Constantin - L'illusionniste.wav" WAVE TRACK 10 AUDIO TITLE "L'illusionniste" PERFORMER "Jean Constantin" INDEX 01 00:00:00FILE "EMI Best Chanson 100 Vol.2_100 Chansons Francaises de Legende CD4-2006 - 11 Gilbert Becaud - Ah ! Dites-Moi Pourquoi Je L'aime.wav" WAVE TRACK 11 AUDIO TITLE "Ah ! Dites-Moi Pourquoi Je L'aime" PERFORMER "Gilbert Becaud" INDEX 01 00:00:00FILE "EMI Best Chanson 100 Vol.2_100 Chansons Francaises de Legende CD4-2006 - 12 Jacques Brel - Il Peut Pleuvoir.wav" WAVE TRACK 12 AUDIO TITLE "Il Peut Pleuvoir" PERFORMER "Jacques Brel" INDEX 01 00:00:00FILE "EMI Best Chanson 100 Vol.2_100 Chansons Francaises de Legende CD4-2006 - 13 Henri Salvador - Le Petit Indien.wav" WAVE TRACK 13 AUDIO TITLE "Le Petit Indien" PERFORMER "Henri Salvador" INDEX 01 00:00:00FILE "EMI Best Chanson 100 Vol.2_100 Chansons Francaises de Legende CD4-2006 - 14 Yvette Giraud - Raconte, Grand-Mere.wav" WAVE TRACK 14 AUDIO TITLE "Raconte, Grand-Mere" PERFORMER "Yvette Giraud" INDEX 01 00:00:00FILE "EMI Best Chanson 100 Vol.2_100 Chansons Francaises de Legende CD4-2006 - 15 Tino Rossi - Tant De Fois.wav" WAVE TRACK 15 AUDIO TITLE "Tant De Fois" PERFORMER "Tino Rossi" INDEX 01 00:00:00FILE "EMI Best Chanson 100 Vol.2_100 Chansons Francaises de Legende CD4-2006 - 16 Charles Trenet - La Java Du Diable.wav" WAVE TRACK 16 AUDIO TITLE "La Java Du Diable" PERFORMER "Charles Trenet" INDEX 01 00:00:00FILE "EMI Best Chanson 100 Vol.2_100 Chansons Francaises de Legende CD4-2006 - 17 Jacqueline Francois - Samba Fantastique.wav" WAVE TRACK 17 AUDIO TITLE "Samba Fantastique" PERFORMER "Jacqueline Francois" INDEX 01 00:00:00FILE "EMI Best Chanson 100 Vol.2_100 Chansons Francaises de Legende CD4-2006 - 18 Yves Montand - Sanguine.wav" WAVE TRACK 18 AUDIO TITLE "Sanguine" PERFORMER "Yves Montand" INDEX 01 00:00:00FILE "EMI Best Chanson 100 Vol.2_100 Chansons Francaises de Legende CD4-2006 - 19 Pierre Roger ЈЇ Thibault Jean Marc - Rendez Vous Au Pam Pam.wav" WAVE TRACK 19 AUDIO TITLE "Rendez Vous Au Pam Pam" PERFORMER "Pierre Roger ЈЇ Thibault Jean Marc" INDEX 01 00:00:00FILE "EMI Best Chanson 100 Vol.2_100 Chansons Francaises de Legende CD4-2006 - 20 Annie Cordy - Oh ! Bessie.wav" WAVE TRACK 20 AUDIO TITLE "Oh ! Bessie" PERFORMER "Annie Cordy" INDEX 01 00:00:00FILE "EMI Best Chanson 100 Vol.2_100 Chansons Francaises de Legende CD4-2006 - 21 Juliette Greco - La Fiancee Du Pirate.wav" WAVE TRACK 21 AUDIO TITLE "La Fiancee Du Pirate" PERFORMER "Juliette Greco" INDEX 01 00:00:00FILE "EMI Best Chanson 100 Vol.2_100 Chansons Francaises de Legende CD4-2006 - 22 Jean Sablon - Au Loin Dans La Plaine.wav" WAVE TRACK 22 AUDIO TITLE "Au Loin Dans La Plaine" PERFORMER "Jean Sablon" INDEX 01 00:00:00FILE "EMI Best Chanson 100 Vol.2_100 Chansons Francaises de Legende CD4-2006 - 23 Patachou & Georges Brassens - Maman, Papa.wav" WAVE TRACK 23 AUDIO TITLE "Maman, Papa" PERFORMER "Patachou & Georges Brassens" INDEX 01 00:00:00FILE "EMI Best Chanson 100 Vol.2_100 Chansons Francaises de Legende CD4-2006 - 24 Gloria Lasso - Comment Vas-TuЈї.wav" WAVE TRACK 24 AUDIO TITLE "Comment Vas-TuЈї" PERFORMER "Gloria Lasso" INDEX 01 00:00:00FILE "EMI Best Chanson 100 Vol.2_100 Chansons Francaises de Legende CD4-2006 - 25 Edith Piaf - C'est Merveilleux [[Etoile Sans Lumiere]].wav" WAVE TRACK 25 AUDIO TITLE "C'est Merveilleux " PERFORMER "Edith Piaf" INDEX 01 00:00:00

-
-

Для скачивания файла отключите блокировку рекламы и перезагрузите страницу.

disable adblock Как отключить блокировку рекламы?

Скачать по магнет ссылке 1,26 GB 

Войти с помощью:

Загрузка...
Загрузка...


   
Текущее время: 21-Июн 18:02 :: Часовой пояс: UTC ± 0