Mireille Mathieu / Les plus grands succes Vol.1 - 3
Жанр: Chanson
Страна-производитель диска: Франция
Год издания: 1988
Издатель (лейбл): East West France
Номер по каталогу: 9031 76586-2, 9031 76587-2, 9031 76588-2
Аудиокодек: FLAC (*.flac)
Тип рипа: tracks
Битрейт аудио: lossless
Продолжительность: 3:16:46
Источник (релизер): Мой релиз
Наличие сканов в содержимом раздачи: да

Треклист Vol.1 1966-1970

01 - Mon credo
Andre Pascal - Paul Mauriat
02 - Celui que j'aime (66)
Charles Aznavour - Charles Aznavour
03 - Le funambule
Jacques Plante - Jacques Plante
04 - La derniere valse (The Last Waltz)
Hubert Ithier - Les Reed
05 - C'est ton nom
Franc?oise Dorin - Francis Lai
06 - Un homme et une femme
Pierre Barouh - Francis Lai
07 - Ce soir ils vont s'aimer
Pierre Andre Dousset - Christian Gaubert
08 - La vieille barque
Andre Pascal - Christian Sarrel
09 - Un monde avec toi (The World We Knew)
Charles Aznavour - Bert Kaempfert
10 - Je ne suis rien sans toi (I'm Coming Home)
Andre Pascal - Les Reed
11 - Petit Papa Noel
Raymond Vincy - Henri Martinet
12 - C'est a Mayerling
Jacques Plante - Francis Lai
13 - Mon bel amour d'ete
Jean Renard - Jacques Revaux
14 - Tous les violons de Vienne
Jacques Plante - Francis Lai
15 - A force de rever
Pierre Andre Dousset - Christian Gaubert
16 - Paris en colere
Maurice Vidalin - Maurice Jarre
17 - Qu'elle est belle (Rusty Bells)
Pierre Delanoe - Richard Ahlert / Eddie Snyder
18 - Quand on revient
Andre Pascal - Paul Mauriat
19 - J'ai garde l'accent
Gaston Bonheur - J. Bernard
20 - La premiere etoile
Andre Pascal - Paul Mauriat

Треклист Vol.2 1970-1975

01 - Pardonne-moi ce caprice d'enfant
Patricia Carli - Patricia Carli
02 - Si Paris etait en Provence
Jean Setti - Jean Setti
03 - Un jour viendra
Catherine Desage - Francis Lai
04 - Donne ton coeur, donne ta vie
Patricia Carli - Patricia Carli
05 - Pourquoi le monde est sans amour
Jean Schmitt - Patricia Carli
06 - Acropolis adieu
Catherine Desage - Christian Bruhn
07 - Mille fois bravo
Pierre Andre Dousset - Franco Bracardi
08 - Ciao mon coeur
Charles Aznavour - Georges Garvarentz
09 - L'amour oublie le temps
Catherine Desage - Christian Bruhn
10 - En frappant dans nos mains
Hubert Ithier - Giorgio Moroder
11 - Une histoire d'amour (Love Story)
Catherine Desage - Francis Lai
12 - La marche de Sacco et Vanzetti
Georges Moustaki - Ennio Morricone
13 - La terre promise
Catherine Desage - Christian Bruhn
14 - La chanson du depart
Catherine Desage - Francis Lai
15 - Tous les enfants chantent avec moi
Eddy Marnay - Bobby Goldsboro
16 - La paloma adieu
Catherine Desage - S. Yradier
17 - On peut encore mourir d'amour
Pierre Andre Dousset - Christian Gaubert
18 - Folle, folle, follement heureuse
T. Renis / A. Testa - Charles Aznavour
19 - Le vieux cafe de la Rue d'Amerique (The Red Rose Cafe)
Eddy Marnay - P. Kartner
20 - Les matins bleus (All In Love Is Fair)
H. Djian - Stevie Wonder

Треклист Vol.3 1976-1985

01 - La vie en rose (85)
Edith Piaf - Louiguy
02 - Santa Maria de la mer
Eddy Marnay - Christian Bruhn
03 - Un clown dans mon coeur
Eddy Marnay - A. Newley / L. Bricussel
04 - A dix-sept ans
Eddy Marnay - Janis Ian
05 - Mille colombes
Eddy Marnay - Christian Bruhn
06 - Une femme amoureuse (Woman in Love)
Eddy Marnay - R.H. et B.A. Gibb
07 - Il a neige sur Mykonos
Eddy Marnay - A. Morisod
08 - Elle pense a lui
Didier Barbelivien - Didier Barbelivien
09 - Encore et encore (Ancora)
Charles Aznavour - Claudio Mattone
10 - Bravo tu as gagne (The Winner Takes It All)
Charles Level - Benny Andersson / Bjorn Ulvaeus
11 - New York, New York
Eddy Marnay / F. Ebb - John Kander
12 - A Santa Maria
Claude Lemesle / S. Lebel / C. de Natale - G. de Angelis / M. de Angelis
13 - Nos souvenirs (Memory)
Eddy Marnay / T. S. Elliot / T. nunn - A. Lloyd Webber
14 - Trois milliards de gens sur Terre (Battle Hymn of the Republic)
Eddy Marnay - William Steffe
15 - La demoiselle d'Orleans
Pierre Delanoe - Jean-Pierre Bourtayre / Jacques Revaux
16 - Comme d'habitude
Gilles Thibault - Jacques Revaux / Claude Francois
17 - Un prince en Avignon
F. Thomas - J.-M. Rivat / Jean-Pierre Bourtayre
18 - Ne me quitte pas
Jacques Brel - Jacques Brel
19 - Made in France
Pierre Delanoe - Jean-Pierre Bourtayre

Лог создания рипаVol. 1

Exact Audio Copy V1.0 beta 3 from 29. August 2011
Отчёт EAC об извлечении, выполненном 8. ноября 2012, 15:11
Mireille Mathieu / Les plus grands succes Vol.1 1966-1970
Дисковод: TSSTcorpCDDVDW SH-222BB Adapter: 0 ID: 2
Режим чтения : ДостоверностьИспользование точного потока : ДаОтключение кэша аудио : ДаИспользование указателей C2 : Нет
Коррекция смещения при чтении : 6Способность читать области Lead-in и Lead-out : НетЗаполнение пропущенных сэмплов тишиной : ДаУдаление блоков с тишиной в начале и конце : НетПри вычислениях CRC использовались нулевые сэмплы : ДаИнтерфейс : Установленный внешний ASPI-интерфейсОбработка зазоров : Добавлено к следующему треку
Выходной формат : Пользовательский кодировщикВыбранный битрейт : 768 kBit/sКачество : ВысокийДобавление ID3-тега : НетУтилита сжатия : C:\Program Files (x86)\Exact Audio Copy\FLAC\FLAC.EXEДополнительные параметры : -V -8 -T "Genre=%genre%" -T "Artist=%artist%" -T "Title=%title%" -T "Album=%albumtitle%" -T "Date=%year%" -T "Tracknumber=%tracknr%" -T "Comment=%comment%" %source%
TOC извлечённого CD
Трек | Старт | Длительность | Начальный сектор | Конечный сектор --------------------------------------------------------------------- 1 | 0:00.33 | 2:52.42 | 33 | 12974 2 | 2:53.00 | 2:52.33 | 12975 | 25907 3 | 5:45.33 | 3:19.30 | 25908 | 40862 4 | 9:04.63 | 3:08.47 | 40863 | 55009 5 | 12:13.35 | 2:23.18 | 55010 | 65752 6 | 14:36.53 | 2:57.37 | 65753 | 79064 7 | 17:34.15 | 2:09.00 | 79065 | 88739 8 | 19:43.15 | 2:40.25 | 88740 | 100764 9 | 22:23.40 | 2:35.10 | 100765 | 112399 10 | 24:58.50 | 3:06.53 | 112400 | 126402 11 | 28:05.28 | 2:55.20 | 126403 | 139547 12 | 31:00.48 | 3:09.27 | 139548 | 153749 13 | 34:10.00 | 3:01.70 | 153750 | 167394 14 | 37:11.70 | 2:39.03 | 167395 | 179322 15 | 39:50.73 | 2:36.62 | 179323 | 191084 16 | 42:27.60 | 2:36.50 | 191085 | 202834 17 | 45:04.35 | 2:16.20 | 202835 | 213054 18 | 47:20.55 | 2:50.50 | 213055 | 225854 19 | 50:11.30 | 3:31.30 | 225855 | 241709 20 | 53:42.60 | 3:38.38 | 241710 | 258097
Трек 1
Имя файла E:\FTP\PUB\Music\Worldmusic\Mireille Mathieu\1988 - Les plus grands succes (East West France FRA CD)\Vol. 1 (1966-1970)\01 - Mon Credo.wav
Длина предзазора 0:00:02.33
Пиковый уровень 99.2 % Скорость извлечения 1.6 X Качество трека 99.9 % CRC теста 333501A5 CRC копии 333501A5 Копирование... OK
Трек 2
Имя файла E:\FTP\PUB\Music\Worldmusic\Mireille Mathieu\1988 - Les plus grands succes (East West France FRA CD)\Vol. 1 (1966-1970)\02 - Celui qui j'aime.wav
Пиковый уровень 99.2 % Скорость извлечения 1.9 X Качество трека 100.0 % CRC теста 57C2475C CRC копии 57C2475C Копирование... OK
Трек 3
Имя файла E:\FTP\PUB\Music\Worldmusic\Mireille Mathieu\1988 - Les plus grands succes (East West France FRA CD)\Vol. 1 (1966-1970)\03 - Le funambule.wav
Пиковый уровень 99.2 % Скорость извлечения 2.0 X Качество трека 100.0 % CRC теста 05B306F9 CRC копии 05B306F9 Копирование... OK
Трек 4
Имя файла E:\FTP\PUB\Music\Worldmusic\Mireille Mathieu\1988 - Les plus grands succes (East West France FRA CD)\Vol. 1 (1966-1970)\04 - La Derniere valse.wav
Пиковый уровень 99.2 % Скорость извлечения 2.0 X Качество трека 100.0 % CRC теста 70D3ABFA CRC копии 70D3ABFA Копирование... OK
Трек 5
Имя файла E:\FTP\PUB\Music\Worldmusic\Mireille Mathieu\1988 - Les plus grands succes (East West France FRA CD)\Vol. 1 (1966-1970)\05 - C'est ton nom.wav
Пиковый уровень 99.2 % Скорость извлечения 1.9 X Качество трека 100.0 % CRC теста 886ECA90 CRC копии 886ECA90 Копирование... OK
Трек 6
Имя файла E:\FTP\PUB\Music\Worldmusic\Mireille Mathieu\1988 - Les plus grands succes (East West France FRA CD)\Vol. 1 (1966-1970)\06 - Un homme et une femme.wav
Пиковый уровень 99.2 % Скорость извлечения 1.9 X Качество трека 100.0 % CRC теста 77A3EE80 CRC копии 77A3EE80 Копирование... OK
Трек 7
Имя файла E:\FTP\PUB\Music\Worldmusic\Mireille Mathieu\1988 - Les plus grands succes (East West France FRA CD)\Vol. 1 (1966-1970)\07 - Ce soir ils vont s'aimer.wav
Пиковый уровень 99.2 % Скорость извлечения 1.8 X Качество трека 100.0 % CRC теста 25AEE31F CRC копии 25AEE31F Копирование... OK
Трек 8
Имя файла E:\FTP\PUB\Music\Worldmusic\Mireille Mathieu\1988 - Les plus grands succes (East West France FRA CD)\Vol. 1 (1966-1970)\08 - La vieille barque.wav
Пиковый уровень 90.0 % Скорость извлечения 1.6 X Качество трека 99.9 % CRC теста FC1F10DA CRC копии FC1F10DA Копирование... OK
Трек 9
Имя файла E:\FTP\PUB\Music\Worldmusic\Mireille Mathieu\1988 - Les plus grands succes (East West France FRA CD)\Vol. 1 (1966-1970)\09 - Un monde avec toi.wav
Пиковый уровень 99.2 % Скорость извлечения 1.9 X Качество трека 100.0 % CRC теста 5A7FFF28 CRC копии 5A7FFF28 Копирование... OK
Трек 10
Имя файла E:\FTP\PUB\Music\Worldmusic\Mireille Mathieu\1988 - Les plus grands succes (East West France FRA CD)\Vol. 1 (1966-1970)\10 - Je ne suis rien sans toi.wav
Пиковый уровень 99.2 % Скорость извлечения 1.9 X Качество трека 100.0 % CRC теста 15508908 CRC копии 15508908 Копирование... OK
Трек 11
Имя файла E:\FTP\PUB\Music\Worldmusic\Mireille Mathieu\1988 - Les plus grands succes (East West France FRA CD)\Vol. 1 (1966-1970)\11 - Petit Papa Noel.wav
Пиковый уровень 99.2 % Скорость извлечения 1.6 X Качество трека 99.9 % CRC теста 8BF9C60A CRC копии 8BF9C60A Копирование... OK
Трек 12
Имя файла E:\FTP\PUB\Music\Worldmusic\Mireille Mathieu\1988 - Les plus grands succes (East West France FRA CD)\Vol. 1 (1966-1970)\12 - C'est a Mayerling.wav
Пиковый уровень 99.2 % Скорость извлечения 2.0 X Качество трека 100.0 % CRC теста 4A9E4DC2 CRC копии 4A9E4DC2 Копирование... OK
Трек 13
Имя файла E:\FTP\PUB\Music\Worldmusic\Mireille Mathieu\1988 - Les plus grands succes (East West France FRA CD)\Vol. 1 (1966-1970)\13 - Mon bel amour d'ete.wav
Пиковый уровень 99.2 % Скорость извлечения 1.7 X Качество трека 99.9 % CRC теста BF9BE052 CRC копии BF9BE052 Копирование... OK
Трек 14
Имя файла E:\FTP\PUB\Music\Worldmusic\Mireille Mathieu\1988 - Les plus grands succes (East West France FRA CD)\Vol. 1 (1966-1970)\14 - Tous les violons de Vienne.wav
Пиковый уровень 99.2 % Скорость извлечения 1.6 X Качество трека 99.9 % CRC теста BB3D568C CRC копии BB3D568C Копирование... OK
Трек 15
Имя файла E:\FTP\PUB\Music\Worldmusic\Mireille Mathieu\1988 - Les plus grands succes (East West France FRA CD)\Vol. 1 (1966-1970)\15 - A force de rever.wav
Пиковый уровень 99.2 % Скорость извлечения 1.9 X Качество трека 100.0 % CRC теста 853786C7 CRC копии 853786C7 Копирование... OK
Трек 16
Имя файла E:\FTP\PUB\Music\Worldmusic\Mireille Mathieu\1988 - Les plus grands succes (East West France FRA CD)\Vol. 1 (1966-1970)\16 - Paris en colere.wav
Пиковый уровень 99.2 % Скорость извлечения 1.6 X Качество трека 99.9 % CRC теста D1E548E7 CRC копии D1E548E7 Копирование... OK
Трек 17
Имя файла E:\FTP\PUB\Music\Worldmusic\Mireille Mathieu\1988 - Les plus grands succes (East West France FRA CD)\Vol. 1 (1966-1970)\17 - Q'elle est belle.wav
Пиковый уровень 93.9 % Скорость извлечения 1.8 X Качество трека 100.0 % CRC теста BA846F6E CRC копии BA846F6E Копирование... OK
Трек 18
Имя файла E:\FTP\PUB\Music\Worldmusic\Mireille Mathieu\1988 - Les plus grands succes (East West France FRA CD)\Vol. 1 (1966-1970)\18 - Quand on revient.wav
Пиковый уровень 99.2 % Скорость извлечения 1.6 X Качество трека 99.9 % CRC теста F34C1256 CRC копии F34C1256 Копирование... OK
Трек 19
Имя файла E:\FTP\PUB\Music\Worldmusic\Mireille Mathieu\1988 - Les plus grands succes (East West France FRA CD)\Vol. 1 (1966-1970)\19 - J'ai garde l'accent.wav
Пиковый уровень 99.2 % Скорость извлечения 2.0 X Качество трека 100.0 % CRC теста F4FDE818 CRC копии F4FDE818 Копирование... OK
Трек 20
Имя файла E:\FTP\PUB\Music\Worldmusic\Mireille Mathieu\1988 - Les plus grands succes (East West France FRA CD)\Vol. 1 (1966-1970)\20 - La premiere etoile.wav
Пиковый уровень 99.2 % Скорость извлечения 2.0 X Качество трека 100.0 % CRC теста 346FCB97 CRC копии 346FCB97 Копирование... OK
Ошибок не произошло
Конец отчёта
---- CUETools DB Plugin V2.1.3
[CTDB TOCID: UcoeCi071nfBeOwMfRPUZ2rT0Ck-] disk not present in database, Submit result: discs with pregaps not supported in this protocol version
==== Контрольная сумма отчёта 81DFF5926F8EF74CD8E4C283C4012E8F3A3F5F2F77AFBBEF8C4B96069A750195 ====

Vol.2

Exact Audio Copy V1.0 beta 3 from 29. August 2011
Отчёт EAC об извлечении, выполненном 8. ноября 2012, 16:37
Mireille Mathieu / Les plus grands succes Vol.2 1970-1975
Дисковод: TSSTcorpCDDVDW SH-222BB Adapter: 0 ID: 2
Режим чтения : ДостоверностьИспользование точного потока : ДаОтключение кэша аудио : ДаИспользование указателей C2 : Нет
Коррекция смещения при чтении : 6Способность читать области Lead-in и Lead-out : НетЗаполнение пропущенных сэмплов тишиной : ДаУдаление блоков с тишиной в начале и конце : НетПри вычислениях CRC использовались нулевые сэмплы : ДаИнтерфейс : Установленный внешний ASPI-интерфейсОбработка зазоров : Добавлено к следующему треку
Выходной формат : Пользовательский кодировщикВыбранный битрейт : 768 kBit/sКачество : ВысокийДобавление ID3-тега : НетУтилита сжатия : C:\Program Files (x86)\Exact Audio Copy\FLAC\FLAC.EXEДополнительные параметры : -V -8 -T "Genre=%genre%" -T "Artist=%artist%" -T "Title=%title%" -T "Album=%albumtitle%" -T "Date=%year%" -T "Tracknumber=%tracknr%" -T "Comment=%comment%" %source%
TOC извлечённого CD
Трек | Старт | Длительность | Начальный сектор | Конечный сектор --------------------------------------------------------------------- 1 | 0:00.32 | 3:24.35 | 32 | 15366 2 | 3:24.67 | 2:41.60 | 15367 | 27501 3 | 6:06.52 | 2:57.53 | 27502 | 40829 4 | 9:04.30 | 2:45.57 | 40830 | 53261 5 | 11:50.12 | 2:57.48 | 53262 | 66584 6 | 14:47.60 | 3:28.70 | 66585 | 82254 7 | 18:16.55 | 3:07.12 | 82255 | 96291 8 | 21:23.67 | 3:00.50 | 96292 | 109841 9 | 24:24.42 | 3:08.70 | 109842 | 124011 10 | 27:33.37 | 3:47.05 | 124012 | 141041 11 | 31:20.42 | 3:00.08 | 141042 | 154549 12 | 34:20.50 | 3:23.60 | 154550 | 169834 13 | 37:44.35 | 2:58.07 | 169835 | 183191 14 | 40:42.42 | 2:55.08 | 183192 | 196324 15 | 43:37.50 | 3:22.05 | 196325 | 211479 16 | 46:59.55 | 3:52.15 | 211480 | 228894 17 | 50:51.70 | 3:17.17 | 228895 | 243686 18 | 54:09.12 | 3:41.03 | 243687 | 260264 19 | 57:50.15 | 4:08.00 | 260265 | 278864 20 | 61:58.15 | 3:48.17 | 278865 | 295981
Трек 1
Имя файла E:\FTP\PUB\Music\Worldmusic\Mireille Mathieu\1988 - Les plus grands succes (East West France FRA CD)\Vol. 2 (1970-1975)\01 - Pardonne-moi ce caprice d'enfant.wav
Длина предзазора 0:00:02.32
Пиковый уровень 99.2 % Скорость извлечения 2.0 X Качество трека 100.0 % CRC теста 023C1225 CRC копии 023C1225 Копирование... OK
Трек 2
Имя файла E:\FTP\PUB\Music\Worldmusic\Mireille Mathieu\1988 - Les plus grands succes (East West France FRA CD)\Vol. 2 (1970-1975)\02 - Si Paris etait en Provence.wav
Пиковый уровень 84.7 % Скорость извлечения 1.9 X Качество трека 100.0 % CRC теста 9EC72CB6 CRC копии 9EC72CB6 Копирование... OK
Трек 3
Имя файла E:\FTP\PUB\Music\Worldmusic\Mireille Mathieu\1988 - Les plus grands succes (East West France FRA CD)\Vol. 2 (1970-1975)\03 - Un jour viendra.wav
Пиковый уровень 93.6 % Скорость извлечения 2.0 X Качество трека 100.0 % CRC теста 552CDB81 CRC копии 552CDB81 Копирование... OK
Трек 4
Имя файла E:\FTP\PUB\Music\Worldmusic\Mireille Mathieu\1988 - Les plus grands succes (East West France FRA CD)\Vol. 2 (1970-1975)\04 - Donne ton coeur, donne ta vie.wav
Пиковый уровень 99.2 % Скорость извлечения 1.9 X Качество трека 100.0 % CRC теста ECAA21CA CRC копии ECAA21CA Копирование... OK
Трек 5
Имя файла E:\FTP\PUB\Music\Worldmusic\Mireille Mathieu\1988 - Les plus grands succes (East West France FRA CD)\Vol. 2 (1970-1975)\05 - Pourquoi le monde est sans amour.wav
Пиковый уровень 99.2 % Скорость извлечения 1.7 X Качество трека 99.9 % CRC теста 7A017C1D CRC копии 7A017C1D Копирование... OK
Трек 6
Имя файла E:\FTP\PUB\Music\Worldmusic\Mireille Mathieu\1988 - Les plus grands succes (East West France FRA CD)\Vol. 2 (1970-1975)\06 - Acropolis adieu.wav
Пиковый уровень 96.1 % Скорость извлечения 2.0 X Качество трека 100.0 % CRC теста 288C9EF1 CRC копии 288C9EF1 Копирование... OK
Трек 7
Имя файла E:\FTP\PUB\Music\Worldmusic\Mireille Mathieu\1988 - Les plus grands succes (East West France FRA CD)\Vol. 2 (1970-1975)\07 - Mille fois bravo.wav
Пиковый уровень 99.2 % Скорость извлечения 1.9 X Качество трека 100.0 % CRC теста BD9F688A CRC копии BD9F688A Копирование... OK
Трек 8
Имя файла E:\FTP\PUB\Music\Worldmusic\Mireille Mathieu\1988 - Les plus grands succes (East West France FRA CD)\Vol. 2 (1970-1975)\08 - Ciao mon coeur.wav
Пиковый уровень 96.1 % Скорость извлечения 1.9 X Качество трека 100.0 % CRC теста 2F724A7B CRC копии 2F724A7B Копирование... OK
Трек 9
Имя файла E:\FTP\PUB\Music\Worldmusic\Mireille Mathieu\1988 - Les plus grands succes (East West France FRA CD)\Vol. 2 (1970-1975)\09 - L'amour oublie le temps.wav
Пиковый уровень 96.8 % Скорость извлечения 1.9 X Качество трека 100.0 % CRC теста 3CFFEF77 CRC копии 3CFFEF77 Копирование... OK
Трек 10
Имя файла E:\FTP\PUB\Music\Worldmusic\Mireille Mathieu\1988 - Les plus grands succes (East West France FRA CD)\Vol. 2 (1970-1975)\10 - En frappant dans nos mains.wav
Пиковый уровень 99.2 % Скорость извлечения 1.8 X Качество трека 99.9 % CRC теста 2E113B60 CRC копии 2E113B60 Копирование... OK
Трек 11
Имя файла E:\FTP\PUB\Music\Worldmusic\Mireille Mathieu\1988 - Les plus grands succes (East West France FRA CD)\Vol. 2 (1970-1975)\11 - Une histoire d'amour (Love Story).wav
Пиковый уровень 99.2 % Скорость извлечения 1.9 X Качество трека 100.0 % CRC теста 9C12D8B7 CRC копии 9C12D8B7 Копирование... OK
Трек 12
Имя файла E:\FTP\PUB\Music\Worldmusic\Mireille Mathieu\1988 - Les plus grands succes (East West France FRA CD)\Vol. 2 (1970-1975)\12 - La marche de Sacco et Vanzetti.wav
Пиковый уровень 99.2 % Скорость извлечения 2.0 X Качество трека 100.0 % CRC теста A25A92F4 CRC копии A25A92F4 Копирование... OK
Трек 13
Имя файла E:\FTP\PUB\Music\Worldmusic\Mireille Mathieu\1988 - Les plus grands succes (East West France FRA CD)\Vol. 2 (1970-1975)\13 - La terre promise.wav
Пиковый уровень 99.2 % Скорость извлечения 1.9 X Качество трека 100.0 % CRC теста CC90110A CRC копии CC90110A Копирование... OK
Трек 14
Имя файла E:\FTP\PUB\Music\Worldmusic\Mireille Mathieu\1988 - Les plus grands succes (East West France FRA CD)\Vol. 2 (1970-1975)\14 - La chanson du depart.wav
Пиковый уровень 99.2 % Скорость извлечения 1.9 X Качество трека 100.0 % CRC теста 3FE5A085 CRC копии 3FE5A085 Копирование... OK
Трек 15
Имя файла E:\FTP\PUB\Music\Worldmusic\Mireille Mathieu\1988 - Les plus grands succes (East West France FRA CD)\Vol. 2 (1970-1975)\15 - Tous les enfants chantent avec moi.wav
Пиковый уровень 99.2 % Скорость извлечения 2.0 X Качество трека 100.0 % CRC теста DE94CC22 CRC копии DE94CC22 Копирование... OK
Трек 16
Имя файла E:\FTP\PUB\Music\Worldmusic\Mireille Mathieu\1988 - Les plus grands succes (East West France FRA CD)\Vol. 2 (1970-1975)\16 - La paloma adieu.wav
Пиковый уровень 99.2 % Скорость извлечения 2.0 X Качество трека 100.0 % CRC теста 732FF33D CRC копии 732FF33D Копирование... OK
Трек 17
Имя файла E:\FTP\PUB\Music\Worldmusic\Mireille Mathieu\1988 - Les plus grands succes (East West France FRA CD)\Vol. 2 (1970-1975)\17 - On peut encore mourir d'amour.wav
Пиковый уровень 99.2 % Скорость извлечения 1.7 X Качество трека 99.9 % CRC теста FFB7D32D CRC копии FFB7D32D Копирование... OK
Трек 18
Имя файла E:\FTP\PUB\Music\Worldmusic\Mireille Mathieu\1988 - Les plus grands succes (East West France FRA CD)\Vol. 2 (1970-1975)\18 - Folle, folle, follement heureuse.wav
Пиковый уровень 99.2 % Скорость извлечения 2.0 X Качество трека 100.0 % CRC теста 6A5F24E1 CRC копии 6A5F24E1 Копирование... OK
Трек 19
Имя файла E:\FTP\PUB\Music\Worldmusic\Mireille Mathieu\1988 - Les plus grands succes (East West France FRA CD)\Vol. 2 (1970-1975)\19 - Le vieux cafe de la Rue d'Amerique (The Red Rose Cafe).wav
Пиковый уровень 99.2 % Скорость извлечения 1.8 X Качество трека 99.9 % CRC теста F76402A8 CRC копии F76402A8 Копирование... OK
Трек 20
Имя файла E:\FTP\PUB\Music\Worldmusic\Mireille Mathieu\1988 - Les plus grands succes (East West France FRA CD)\Vol. 2 (1970-1975)\20 - Les matins bleus (All In Love Is Fair).wav
Пиковый уровень 99.2 % Скорость извлечения 2.0 X Качество трека 100.0 % CRC теста 889295C0 CRC копии 889295C0 Копирование... OK
Ошибок не произошло
Конец отчёта
---- CUETools DB Plugin V2.1.3
[CTDB TOCID: NDhlTAwR2Ru9qUnK_NK3oAuZB_g-] disk not present in database, Submit result: discs with pregaps not supported in this protocol version
==== Контрольная сумма отчёта 8E6420B01A505026D6E858B29D10B5F4238C9CB31014D60FA74D2FC472149C49 ====

Vol.3

Exact Audio Copy V1.0 beta 3 from 29. August 2011
Отчёт EAC об извлечении, выполненном 8. ноября 2012, 18:13
Mireille Mathieu / Les Plus Grands Succes Vol.3 1976-1985
Дисковод: TSSTcorpCDDVDW SH-222BB Adapter: 0 ID: 2
Режим чтения : ДостоверностьИспользование точного потока : ДаОтключение кэша аудио : ДаИспользование указателей C2 : Нет
Коррекция смещения при чтении : 6Способность читать области Lead-in и Lead-out : НетЗаполнение пропущенных сэмплов тишиной : ДаУдаление блоков с тишиной в начале и конце : НетПри вычислениях CRC использовались нулевые сэмплы : ДаИнтерфейс : Установленный внешний ASPI-интерфейсОбработка зазоров : Добавлено к следующему треку
Выходной формат : Пользовательский кодировщикВыбранный битрейт : 768 kBit/sКачество : ВысокийДобавление ID3-тега : НетУтилита сжатия : C:\Program Files (x86)\Exact Audio Copy\FLAC\FLAC.EXEДополнительные параметры : -V -8 -T "Genre=%genre%" -T "Artist=%artist%" -T "Title=%title%" -T "Album=%albumtitle%" -T "Date=%year%" -T "Tracknumber=%tracknr%" -T "Comment=%comment%" %source%
TOC извлечённого CD
Трек | Старт | Длительность | Начальный сектор | Конечный сектор --------------------------------------------------------------------- 1 | 0:00.32 | 3:32.40 | 32 | 15971 2 | 3:32.72 | 3:40.53 | 15972 | 32524 3 | 7:13.50 | 3:21.27 | 32525 | 47626 4 | 10:35.02 | 4:40.55 | 47627 | 68681 5 | 15:15.57 | 3:53.25 | 68682 | 86181 6 | 19:09.07 | 4:12.20 | 86182 | 105101 7 | 23:21.27 | 3:11.05 | 105102 | 119431 8 | 26:32.32 | 3:26.05 | 119432 | 134886 9 | 29:58.37 | 4:32.23 | 134887 | 155309 10 | 34:30.60 | 4:41.45 | 155310 | 176429 11 | 39:12.30 | 3:01.45 | 176430 | 190049 12 | 42:14.00 | 4:04.37 | 190050 | 208386 13 | 46:18.37 | 3:49.08 | 208387 | 225569 14 | 50:07.45 | 3:27.60 | 225570 | 241154 15 | 53:35.30 | 4:24.12 | 241155 | 260966 16 | 57:59.42 | 4:07.20 | 260967 | 279511 17 | 62:06.62 | 3:19.58 | 279512 | 294494 18 | 65:26.45 | 4:38.00 | 294495 | 315344 19 | 70:04.45 | 3:34.20 | 315345 | 331414
Трек 1
Имя файла E:\FTP\PUB\Music\Worldmusic\Mireille Mathieu\1988 - Les plus grands succes (East West France FRA CD)\Vol. 3 (1976-1985)\01 - La Vie en rose.wav
Длина предзазора 0:00:02.32
Пиковый уровень 99.2 % Скорость извлечения 2.0 X Качество трека 100.0 % CRC теста 123FA3A1 CRC копии 123FA3A1 Копирование... OK
Трек 2
Имя файла E:\FTP\PUB\Music\Worldmusic\Mireille Mathieu\1988 - Les plus grands succes (East West France FRA CD)\Vol. 3 (1976-1985)\02 - Santa Maria de la mer.wav
Пиковый уровень 99.2 % Скорость извлечения 2.0 X Качество трека 100.0 % CRC теста FA0D024A CRC копии FA0D024A Копирование... OK
Трек 3
Имя файла E:\FTP\PUB\Music\Worldmusic\Mireille Mathieu\1988 - Les plus grands succes (East West France FRA CD)\Vol. 3 (1976-1985)\03 - Un clown dans mon c?ur.wav
Пиковый уровень 99.2 % Скорость извлечения 2.0 X Качество трека 100.0 % CRC теста 04D90D2A CRC копии 04D90D2A Копирование... OK
Трек 4
Имя файла E:\FTP\PUB\Music\Worldmusic\Mireille Mathieu\1988 - Les plus grands succes (East West France FRA CD)\Vol. 3 (1976-1985)\04 - A dix-sept ans.wav
Пиковый уровень 99.2 % Скорость извлечения 2.1 X Качество трека 100.0 % CRC теста 55A114A0 CRC копии 55A114A0 Копирование... OK
Трек 5
Имя файла E:\FTP\PUB\Music\Worldmusic\Mireille Mathieu\1988 - Les plus grands succes (East West France FRA CD)\Vol. 3 (1976-1985)\05 - Mille colombes.wav
Пиковый уровень 99.2 % Скорость извлечения 2.0 X Качество трека 100.0 % CRC теста 911083D4 CRC копии 911083D4 Копирование... OK
Трек 6
Имя файла E:\FTP\PUB\Music\Worldmusic\Mireille Mathieu\1988 - Les plus grands succes (East West France FRA CD)\Vol. 3 (1976-1985)\06 - Une femme amoureuse.wav
Пиковый уровень 99.1 % Скорость извлечения 2.0 X Качество трека 100.0 % CRC теста 7E14A0B4 CRC копии 7E14A0B4 Копирование... OK
Трек 7
Имя файла E:\FTP\PUB\Music\Worldmusic\Mireille Mathieu\1988 - Les plus grands succes (East West France FRA CD)\Vol. 3 (1976-1985)\07 - Il a neige sur Mikonos.wav
Пиковый уровень 99.2 % Скорость извлечения 2.0 X Качество трека 100.0 % CRC теста 49B9DF33 CRC копии 49B9DF33 Копирование... OK
Трек 8
Имя файла E:\FTP\PUB\Music\Worldmusic\Mireille Mathieu\1988 - Les plus grands succes (East West France FRA CD)\Vol. 3 (1976-1985)\08 - Elle pense a lui.wav
Пиковый уровень 98.2 % Скорость извлечения 2.0 X Качество трека 100.0 % CRC теста AEC0A291 CRC копии AEC0A291 Копирование... OK
Трек 9
Имя файла E:\FTP\PUB\Music\Worldmusic\Mireille Mathieu\1988 - Les plus grands succes (East West France FRA CD)\Vol. 3 (1976-1985)\09 - Encore et encore.wav
Пиковый уровень 99.2 % Скорость извлечения 2.1 X Качество трека 100.0 % CRC теста C72141E9 CRC копии C72141E9 Копирование... OK
Трек 10
Имя файла E:\FTP\PUB\Music\Worldmusic\Mireille Mathieu\1988 - Les plus grands succes (East West France FRA CD)\Vol. 3 (1976-1985)\10 - Bravo tu as gagne.wav
Пиковый уровень 99.2 % Скорость извлечения 2.1 X Качество трека 100.0 % CRC теста 6EC88E9C CRC копии 6EC88E9C Копирование... OK
Трек 11
Имя файла E:\FTP\PUB\Music\Worldmusic\Mireille Mathieu\1988 - Les plus grands succes (East West France FRA CD)\Vol. 3 (1976-1985)\11 - New York, New York.wav
Пиковый уровень 99.2 % Скорость извлечения 1.6 X Качество трека 99.9 % CRC теста AEAD66DD CRC копии AEAD66DD Копирование... OK
Трек 12
Имя файла E:\FTP\PUB\Music\Worldmusic\Mireille Mathieu\1988 - Les plus grands succes (East West France FRA CD)\Vol. 3 (1976-1985)\12 - A Santa Maria.wav
Пиковый уровень 99.2 % Скорость извлечения 2.0 X Качество трека 100.0 % CRC теста 11C05A2E CRC копии 11C05A2E Копирование... OK
Трек 13
Имя файла E:\FTP\PUB\Music\Worldmusic\Mireille Mathieu\1988 - Les plus grands succes (East West France FRA CD)\Vol. 3 (1976-1985)\13 - Nos souvenirs (Memory).wav
Пиковый уровень 90.4 % Скорость извлечения 2.0 X Качество трека 100.0 % CRC теста F9A6220E CRC копии F9A6220E Копирование... OK
Трек 14
Имя файла E:\FTP\PUB\Music\Worldmusic\Mireille Mathieu\1988 - Les plus grands succes (East West France FRA CD)\Vol. 3 (1976-1985)\14 - Trois milliards de gens sur Terre.wav
Пиковый уровень 73.5 % Скорость извлечения 1.7 X Качество трека 99.9 % CRC теста 436CED2E CRC копии 436CED2E Копирование... OK
Трек 15
Имя файла E:\FTP\PUB\Music\Worldmusic\Mireille Mathieu\1988 - Les plus grands succes (East West France FRA CD)\Vol. 3 (1976-1985)\15 - La Demoiselle d'Orleans.wav
Пиковый уровень 99.2 % Скорость извлечения 2.0 X Качество трека 100.0 % CRC теста CE0A1F94 CRC копии CE0A1F94 Копирование... OK
Трек 16
Имя файла E:\FTP\PUB\Music\Worldmusic\Mireille Mathieu\1988 - Les plus grands succes (East West France FRA CD)\Vol. 3 (1976-1985)\16 - Comme d'habitude.wav
Пиковый уровень 99.2 % Скорость извлечения 2.0 X Качество трека 100.0 % CRC теста 1BF0A430 CRC копии 1BF0A430 Копирование... OK
Трек 17
Имя файла E:\FTP\PUB\Music\Worldmusic\Mireille Mathieu\1988 - Les plus grands succes (East West France FRA CD)\Vol. 3 (1976-1985)\17 - Un prince en Avignon.wav
Пиковый уровень 80.4 % Скорость извлечения 1.9 X Качество трека 100.0 % CRC теста B696B49D CRC копии B696B49D Копирование... OK
Трек 18
Имя файла E:\FTP\PUB\Music\Worldmusic\Mireille Mathieu\1988 - Les plus grands succes (East West France FRA CD)\Vol. 3 (1976-1985)\18 - Ne me quitte pas.wav
Пиковый уровень 91.4 % Скорость извлечения 2.1 X Качество трека 100.0 % CRC теста 6039EA1F CRC копии 6039EA1F Копирование... OK
Трек 19
Имя файла E:\FTP\PUB\Music\Worldmusic\Mireille Mathieu\1988 - Les plus grands succes (East West France FRA CD)\Vol. 3 (1976-1985)\19 - Made In France.wav
Пиковый уровень 99.2 % Скорость извлечения 1.9 X Качество трека 100.0 % CRC теста 046BC9C0 CRC копии 046BC9C0 Копирование... OK
Ошибок не произошло
Конец отчёта
---- CUETools DB Plugin V2.1.3
[CTDB TOCID: 1lbXo91KTFs5NZjj7K9cNkuOioc-] disk not present in database, Submit result: discs with pregaps not supported in this protocol version
==== Контрольная сумма отчёта 26D3EAA6468A0B17131A3B10569B29DD5C9E0FA5760BBA455A74B966B23ED553 ====

Содержание индексной карты (.CUE)Vol.1

REM GENRE ChansonREM DISCID 100D7114REM COMMENT "ExactAudioCopy v1.0b3"CATALOG 9031765860203PERFORMER "Mireille Mathieu"TITLE "Les plus grands succes Vol.1 1966-1970"FILE "01 - Mon Credo.wav" WAVE TRACK 01 AUDIO TITLE "Mon Credo" PERFORMER "Mireille Mathieu" INDEX 00 00:00:00 INDEX 01 00:00:33FILE "02 - Celui qui j'aime.wav" WAVE TRACK 02 AUDIO TITLE "Celui qui j'aime" PERFORMER "Mireille Mathieu" INDEX 01 00:00:00FILE "03 - Le funambule.wav" WAVE TRACK 03 AUDIO TITLE "Le funambule" PERFORMER "Mireille Mathieu" INDEX 01 00:00:00FILE "04 - La Derniere valse.wav" WAVE TRACK 04 AUDIO TITLE "La Derniere valse" PERFORMER "Mireille Mathieu" INDEX 01 00:00:00FILE "05 - C'est ton nom.wav" WAVE TRACK 05 AUDIO TITLE "C'est ton nom" PERFORMER "Mireille Mathieu" INDEX 01 00:00:00FILE "06 - Un homme et une femme.wav" WAVE TRACK 06 AUDIO TITLE "Un homme et une femme" PERFORMER "Mireille Mathieu" INDEX 01 00:00:00FILE "07 - Ce soir ils vont s'aimer.wav" WAVE TRACK 07 AUDIO TITLE "Ce soir ils vont s'aimer" PERFORMER "Mireille Mathieu" INDEX 01 00:00:00FILE "08 - La vieille barque.wav" WAVE TRACK 08 AUDIO TITLE "La vieille barque" PERFORMER "Mireille Mathieu" INDEX 01 00:00:00FILE "09 - Un monde avec toi.wav" WAVE TRACK 09 AUDIO TITLE "Un monde avec toi" PERFORMER "Mireille Mathieu" INDEX 01 00:00:00FILE "10 - Je ne suis rien sans toi.wav" WAVE TRACK 10 AUDIO TITLE "Je ne suis rien sans toi" PERFORMER "Mireille Mathieu" INDEX 01 00:00:00FILE "11 - Petit Papa Noel.wav" WAVE TRACK 11 AUDIO TITLE "Petit Papa Noel" PERFORMER "Mireille Mathieu" INDEX 01 00:00:00FILE "12 - C'est a Mayerling.wav" WAVE TRACK 12 AUDIO TITLE "C'est a Mayerling" PERFORMER "Mireille Mathieu" INDEX 01 00:00:00FILE "13 - Mon bel amour d'ete.wav" WAVE TRACK 13 AUDIO TITLE "Mon bel amour d'ete" PERFORMER "Mireille Mathieu" INDEX 01 00:00:00FILE "14 - Tous les violons de Vienne.wav" WAVE TRACK 14 AUDIO TITLE "Tous les violons de Vienne" PERFORMER "Mireille Mathieu" INDEX 01 00:00:00FILE "15 - A force de rever.wav" WAVE TRACK 15 AUDIO TITLE "A force de rever" PERFORMER "Mireille Mathieu" INDEX 01 00:00:00FILE "16 - Paris en colere.wav" WAVE TRACK 16 AUDIO TITLE "Paris en colere" PERFORMER "Mireille Mathieu" INDEX 01 00:00:00FILE "17 - Q'elle est belle.wav" WAVE TRACK 17 AUDIO TITLE "Q'elle est belle" PERFORMER "Mireille Mathieu" INDEX 01 00:00:00FILE "18 - Quand on revient.wav" WAVE TRACK 18 AUDIO TITLE "Quand on revient" PERFORMER "Mireille Mathieu" INDEX 01 00:00:00FILE "19 - J'ai garde l'accent.wav" WAVE TRACK 19 AUDIO TITLE "J'ai garde l'accent" PERFORMER "Mireille Mathieu" INDEX 01 00:00:00FILE "20 - La premiere etoile.wav" WAVE TRACK 20 AUDIO TITLE "La premiere etoile" PERFORMER "Mireille Mathieu" INDEX 01 00:00:00

Vol.2

REM GENRE ChansonREM DISCID 1E0F6A14REM COMMENT "ExactAudioCopy v1.0b3"CATALOG 9031765870202PERFORMER "Mireille Mathieu"TITLE "Les plus grands succes Vol.2 1970-1975"FILE "01 - Pardonne-moi ce caprice d'enfant.wav" WAVE TRACK 01 AUDIO TITLE "Pardonne-moi ce caprice d'enfant" PERFORMER "Mireille Mathieu" INDEX 00 00:00:00 INDEX 01 00:00:32FILE "02 - Si Paris etait en Provence.wav" WAVE TRACK 02 AUDIO TITLE "Si Paris etait en Provence" PERFORMER "Mireille Mathieu" INDEX 01 00:00:00FILE "03 - Un jour viendra.wav" WAVE TRACK 03 AUDIO TITLE "Un jour viendra" PERFORMER "Mireille Mathieu" INDEX 01 00:00:00FILE "04 - Donne ton coeur, donne ta vie.wav" WAVE TRACK 04 AUDIO TITLE "Donne ton coeur, donne ta vie" PERFORMER "Mireille Mathieu" INDEX 01 00:00:00FILE "05 - Pourquoi le monde est sans amour.wav" WAVE TRACK 05 AUDIO TITLE "Pourquoi le monde est sans amour" PERFORMER "Mireille Mathieu" INDEX 01 00:00:00FILE "06 - Acropolis adieu.wav" WAVE TRACK 06 AUDIO TITLE "Acropolis adieu" PERFORMER "Mireille Mathieu" INDEX 01 00:00:00FILE "07 - Mille fois bravo.wav" WAVE TRACK 07 AUDIO TITLE "Mille fois bravo" PERFORMER "Mireille Mathieu" INDEX 01 00:00:00FILE "08 - Ciao mon coeur.wav" WAVE TRACK 08 AUDIO TITLE "Ciao mon coeur" PERFORMER "Mireille Mathieu" INDEX 01 00:00:00FILE "09 - L'amour oublie le temps.wav" WAVE TRACK 09 AUDIO TITLE "L'amour oublie le temps" PERFORMER "Mireille Mathieu" INDEX 01 00:00:00FILE "10 - En frappant dans nos mains.wav" WAVE TRACK 10 AUDIO TITLE "En frappant dans nos mains" PERFORMER "Mireille Mathieu" INDEX 01 00:00:00FILE "11 - Une histoire d'amour (Love Story).wav" WAVE TRACK 11 AUDIO TITLE "Une histoire d'amour (Love Story)" PERFORMER "Mireille Mathieu" INDEX 01 00:00:00FILE "12 - La marche de Sacco et Vanzetti.wav" WAVE TRACK 12 AUDIO TITLE "La marche de Sacco et Vanzetti" PERFORMER "Mireille Mathieu" INDEX 01 00:00:00FILE "13 - La terre promise.wav" WAVE TRACK 13 AUDIO TITLE "La terre promise" PERFORMER "Mireille Mathieu" INDEX 01 00:00:00FILE "14 - La chanson du depart.wav" WAVE TRACK 14 AUDIO TITLE "La chanson du depart" PERFORMER "Mireille Mathieu" INDEX 01 00:00:00FILE "15 - Tous les enfants chantent avec moi.wav" WAVE TRACK 15 AUDIO TITLE "Tous les enfants chantent avec moi" PERFORMER "Mireille Mathieu" INDEX 01 00:00:00FILE "16 - La paloma adieu.wav" WAVE TRACK 16 AUDIO TITLE "La paloma adieu" PERFORMER "Mireille Mathieu" INDEX 01 00:00:00FILE "17 - On peut encore mourir d'amour.wav" WAVE TRACK 17 AUDIO TITLE "On peut encore mourir d'amour" PERFORMER "Mireille Mathieu" INDEX 01 00:00:00FILE "18 - Folle, folle, follement heureuse.wav" WAVE TRACK 18 AUDIO TITLE "Folle, folle, follement heureuse" PERFORMER "Mireille Mathieu" INDEX 01 00:00:00FILE "19 - Le vieux cafe de la Rue d'Amerique (The Red Rose Cafe).wav" WAVE TRACK 19 AUDIO TITLE "Le vieux cafe de la Rue d'Amerique (The Red Rose Cafe)" PERFORMER "Mireille Mathieu" INDEX 01 00:00:00FILE "20 - Les matins bleus (All In Love Is Fair).wav" WAVE TRACK 20 AUDIO TITLE "Les matins bleus (All In Love Is Fair)" PERFORMER "Mireille Mathieu" INDEX 01 00:00:00

Vol.3

REM GENRE ChansonREM DISCID FB114213REM COMMENT "ExactAudioCopy v1.0b3"CATALOG 9031765880201PERFORMER "Mireille Mathieu"TITLE "Les Plus Grands Succes Vol.3 1976-1985"FILE "01 - La Vie en rose.wav" WAVE TRACK 01 AUDIO TITLE "La Vie en rose" PERFORMER "Mireille Mathieu" INDEX 00 00:00:00 INDEX 01 00:00:32FILE "02 - Santa Maria de la mer.wav" WAVE TRACK 02 AUDIO TITLE "Santa Maria de la mer" PERFORMER "Mireille Mathieu" INDEX 01 00:00:00FILE "03 - Un clown dans mon c.ur.wav" WAVE TRACK 03 AUDIO TITLE "Un clown dans mon c.ur" PERFORMER "Mireille Mathieu" INDEX 01 00:00:00FILE "04 - A dix-sept ans.wav" WAVE TRACK 04 AUDIO TITLE "A dix-sept ans" PERFORMER "Mireille Mathieu" INDEX 01 00:00:00FILE "05 - Mille colombes.wav" WAVE TRACK 05 AUDIO TITLE "Mille colombes" PERFORMER "Mireille Mathieu" INDEX 01 00:00:00FILE "06 - Une femme amoureuse.wav" WAVE TRACK 06 AUDIO TITLE "Une femme amoureuse" PERFORMER "Mireille Mathieu" INDEX 01 00:00:00FILE "07 - Il a neige sur Mikonos.wav" WAVE TRACK 07 AUDIO TITLE "Il a neige sur Mikonos" PERFORMER "Mireille Mathieu" INDEX 01 00:00:00FILE "08 - Elle pense a lui.wav" WAVE TRACK 08 AUDIO TITLE "Elle pense a lui" PERFORMER "Mireille Mathieu" INDEX 01 00:00:00FILE "09 - Encore et encore.wav" WAVE TRACK 09 AUDIO TITLE "Encore et encore" PERFORMER "Mireille Mathieu" INDEX 01 00:00:00FILE "10 - Bravo tu as gagne.wav" WAVE TRACK 10 AUDIO TITLE "Bravo tu as gagne" PERFORMER "Mireille Mathieu" INDEX 01 00:00:00FILE "11 - New York, New York.wav" WAVE TRACK 11 AUDIO TITLE "New York, New York" PERFORMER "Mireille Mathieu" INDEX 01 00:00:00FILE "12 - A Santa Maria.wav" WAVE TRACK 12 AUDIO TITLE "A Santa Maria" PERFORMER "Mireille Mathieu" INDEX 01 00:00:00FILE "13 - Nos souvenirs (Memory).wav" WAVE TRACK 13 AUDIO TITLE "Nos souvenirs (Memory)" PERFORMER "Mireille Mathieu" INDEX 01 00:00:00FILE "14 - Trois milliards de gens sur Terre.wav" WAVE TRACK 14 AUDIO TITLE "Trois milliards de gens sur Terre" PERFORMER "Mireille Mathieu" INDEX 01 00:00:00FILE "15 - La Demoiselle d'Orleans.wav" WAVE TRACK 15 AUDIO TITLE "La Demoiselle d'Orleans" PERFORMER "Mireille Mathieu" INDEX 01 00:00:00FILE "16 - Comme d'habitude.wav" WAVE TRACK 16 AUDIO TITLE "Comme d'habitude" PERFORMER "Mireille Mathieu" INDEX 01 00:00:00FILE "17 - Un prince en Avignon.wav" WAVE TRACK 17 AUDIO TITLE "Un prince en Avignon" PERFORMER "Mireille Mathieu" INDEX 01 00:00:00FILE "18 - Ne me quitte pas.wav" WAVE TRACK 18 AUDIO TITLE "Ne me quitte pas" PERFORMER "Mireille Mathieu" INDEX 01 00:00:00FILE "19 - Made In France.wav" WAVE TRACK 19 AUDIO TITLE "Made In France" PERFORMER "Mireille Mathieu" INDEX 01 00:00:00

Об альбоме (сборнике)

Представляю ещё один сборник Мирей Матье.
Выпускался как на CD и на виниле.
Правда выпускали сей сборник две звукозаписывающие компании CARRERE и собственно East West France.
Так вот EAN у данного сборника Канадский, хотя во всех источниках говорится только о Франции.

Для модераторов

Релиз делал согласно инструкции http://********.org/forum/viewtopic.php?t=2053840
С учётом исключения в п. 5
Если предзазор первого трека больше 2-х секунд, не содержит тишины и не является скрытым музыкальным треком, а у остальных треков нет зазоров (равны нулю), как показано на рисунке целесообразно выбрать методику обработки зазоров Добавлять зазор к следующему треку. В этом случае снимать предзазор первого трека отдельно не нужно.

Для скачивания файла отключите блокировку рекламы и перезагрузите страницу.

disable adblock Как отключить блокировку рекламы?

Скачать по магнет ссылке 1,24 GB 

Войти с помощью:

Загрузка...
Загрузка...


   
Текущее время: 18-Июн 13:14 :: Часовой пояс: UTC ± 0