Исполнитель/Группа: Олег Винник
Жанр: POP
Год выпуска: 2016
Продолжительность: 01:52:54
Описание: Сольный концерт популярного певца Олега Винника. Новое шоу исполнителя является поистине грандиозным даже для видавшего виды дворца "Украина". Дизайн сцены, свет, видео и спецэффекты поразят телезрителей своим размахом. Кстати, концерт Винника – рекордный по количеству световых приборов на сцене – всего их более 520, не считая экранов! Это больше, чем на последнем шоу группы "Scorpions" в столичном Дворце спорта.
Поет Олег исключительно вживую в сопровождении 10 музыкантов, в числе которых, струнный квартет. Премьеры песен зал встречает на "ура", а давно полюбившиеся хиты "Волчица", "Счастье", "Нино" хор в несколько тысяч человек поет вместе со своим любимым артистом
Музыка,слова и аранжировки Олега Винника
Формат: MPG
Качество: DVB
Видео кодек: MPEG-2
Аудио кодек: MP2
Видео:MPEG-2, ~3300 Kbps, 720x576@1024x576 (16:9), 25fps
Аудио: MP2, 48000Hz, 2ch, 192 kbps

Треклист

1.Ще мить
2.Не покидай
3.Как будто нежность
4.Я не устану
5.Моя кохана
6.Каменная ночь
7.Птица
8.Не ты сейчас со мною рядом
9.Мати каже
10.Здравствуй,невеста
11.Счастье
12.Як ти там
13.Но разве можно тебя разлюбить?
14.Нино
15.Кто я?
16.Зрада
17.Хочу на берег океана
18.Бачу(Таисия Таюне)
19.Плачут иконы
20.Любимая
21.Возьми меня в свой плен
22.Пока
23.Нино(на бис)
24.Счастье(на бис)

MedaInfo

Общее
Полное имя : G:Vinnik_2016.mpg
Формат : MPEG-PS
Размер файла : 2,81 Гбайт
Продолжительность : 1 ч. 52 м.
Режим общего битрейта : Переменный
Общий поток : 3561 Кбит/сек
Библиотека кодирования : (dvd5: Jun 16 2014)
Видео
Идентификатор : 224 (0xE0)
Формат : MPEG Video
Версия формата : Version 2
Профиль формата : Main@Main
Параметр BVOP формата : Да
Параметр матрицы формата : Выборочная
Параметр GOP формата : Variable
Структура изображения : Frame
Продолжительность : 1 ч. 52 м.
Вид битрейта : Переменный
Битрейт : 3298 Кбит/сек
Максимальный битрейт : 8000 Кбит/сек
Ширина : 720 пикселей
Высота : 576 пикселей
Соотношение сторон : 16:9
Частота кадров : 25,000 кадров/сек
Стандарт вещания : PAL
Цветовое пространство : YUV
Субдискретизация насыщенности : 4:2:0
Битовая глубина : 8 бит
Тип развёртки : Чересстрочная
Порядок развёртки : Верхнее поле первое
Метод сжатия : С потерями
Бит/(Пиксели*Кадры) : 0.318
Временной код первого кадра : 00:00:00:00
Оригинал временного кода : Group of pictures header
GOP, открыто/закрыто : Открыто
Размер потока : 2,60 Гбайт (93%)
Библиотека кодирования : (dvd5: Jun 16 2014)
Аудио
Идентификатор : 192 (0xC0)
Формат : MPEG Audio
Версия формата : Version 1
Профиль формата : Layer 2
Продолжительность : 1 ч. 52 м.
Вид битрейта : Постоянный
Битрейт : 192 Кбит/сек
Каналы : 2 канала
Частота : 48,0 КГц
Метод сжатия : С потерями
Размер потока : 155 Мбайт (5%)

Скриншоты

To download the file disable ad blocking, and reload the page.

disable adblock How to disable ad blocking?

Download by magnet link 2.81 GB Download Torrent

Login using:

Similar topics

Олег Винник - Концерт Моя душа (2017) DVB
 1.62 GB   9 | 0   28-May-18 15:30   0
Олег Винник - Концерт. Я не устану (2016) DVB
 2.97 GB   5 | 0   09-Dec-17 23:30   0
Олег Винник - Концерт Моя душа (2017) DVB
 3.08 GB   5 | 0   28-Aug-17 01:30   0


   
Current time is: 15-Oct 14:36 :: All times are UTC ± 0