Fly Like An Eagle - An All-Stars Tribute To Steve Miller Band
Жанр: Rock
Страна-производитель диска: USA
Год издания диска: 2013
Издатель (лейбл): Purple Pyramid Records USA
Номер по каталогу: CLP 0640
Страна: USA
Аудио кодек: FLAC (*.flac)
Тип рипа: image+.cue
Битрейт аудио: lossless
Продолжительность: 00:44:20
Источник (релизер): Boris1
Наличие сканов в содержимом раздачи:
Треклист:
01. Take The Money & Run (Colin Moulding - Vocals & Tony Kaye - Hammond Organ) 03:25
02. Jet Airliner (John Wetton - Vocals & Steve Stevens - Lead Guitars) 03:56
03. Living In The USA (Fee Waybill - Vocals & Derek Sherinian - Keyboard Solos) 04:26
04. Abracadabra (John Parr - Vocals & Rick Wakeman - Keyboard Solos) 05:11
05. Swingtown (Martin Turner - Vocals & Geoff Downes - Keyboard Solos) 03:50
06. Winter Time (Sonja Kristina - Vocals & Peter Banks - Lead Guitars) 03:19
07. The Joker (John Wesley - Vocals & Lead Guitars) 04:15
08. Jungle Love (Joe Lynn Turner - Vocals & Steve Morse - Guitar Solo) 03:28
09. Space Cowboy (Jimi Jamison - Vocals & Jordan Rudess - Keyboard Solos) 04:24
10. Rock’n Me (Steve Argent - Vocals & Steve Hillage - Lead Guitars) 03:57
11. Fly Like An Eage (Nektar, Geoff Downes - Additional Keyboard & Joel Vandroogenbroeck - Additional Keyboard, Flute) 04:04
Tracks 1-10
Billy Sherwood - Drums, keyboards
(except Track 1), Guitars, bass & Claps (on Track 1)
Track 11
Jurgen Engler - Bass

Лог создания рипа

Exact Audio Copy V1.0 beta 3 from 29. August 2011
EAC extraction logfile from 23. November 2014, 14:10
Various Artists / Fly Like An Eagle
Used drive : PIONEER BD-RW BDR-TD03 Adapter: 0 ID: 1
Read mode : Secure
Utilize accurate stream : Yes
Defeat audio cache : Yes
Make use of C2 pointers : No
Read offset correction : 667
Overread into Lead-In and Lead-Out : No
Fill up missing offset samples with silence : Yes
Delete leading and trailing silent blocks : No
Null samples used in CRC calculations : Yes
Used interface : Native Win32 interface for Win NT & 2000
Used output format : User Defined Encoder
Selected bitrate : 768 kBit/s
Quality : High
Add ID3 tag : No
Command line compressor : C:\Program Files (x86)\Exact Audio Copy\FLAC\FLAC.EXE
Additional command line options : -6 -V -T "ARTIST=%artist%" -T "TITLE=%title%" -T "ALBUM=%albumtitle%" -T "DATE=%year%" -T "TRACKNUMBER=%tracknr%" -T "GENRE=%genre%" -T "COMMENT=%comment%" -T "BAND=%albuminterpret%" -T "ALBUMARTIST=%albuminterpret%" -T "COMPOSER=%composer%" %haslyrics%--tag-from-file=LYRICS="%lyricsfile%"%haslyrics% -T "DISCNUMBER=%cdnumber%" -T "TOTALDISCS=%totalcds%" -T "TOTALTRACKS=%numtracks%" %hascover%--picture="%coverfile%"%hascover% %source% -o %dest%
TOC of the extracted CD
Track | Start | Length | Start sector | End sector
---------------------------------------------------------
1 | 0:00.00 | 3:25.00 | 0 | 15374
2 | 3:25.00 | 3:56.52 | 15375 | 33126
3 | 7:21.52 | 4:26.59 | 33127 | 53135
4 | 11:48.36 | 5:11.39 | 53136 | 76499
5 | 17:00.00 | 3:50.00 | 76500 | 93749
6 | 20:50.00 | 3:19.45 | 93750 | 108719
7 | 24:09.45 | 4:15.53 | 108720 | 127897
8 | 28:25.23 | 3:28.34 | 127898 | 143531
9 | 31:53.57 | 4:24.48 | 143532 | 163379
10 | 36:18.30 | 3:57.52 | 163380 | 181206
11 | 40:16.07 | 4:04.38 | 181207 | 199544
Range status and errors
Selected range
Filename C:\Users\Deris\Desktop\TriStMiBa\Various Artists - Fly Like An Eagle.wav
Peak level 96.2 %
Extraction speed 4.5 X
Range quality 100.0 %
Test CRC 0081AD1F
Copy CRC 0081AD1F
Copy OK
No errors occurred
AccurateRip summary
Track 1 accurately ripped (confidence 1) [D370479B] (AR v2)
Track 2 accurately ripped (confidence 1) [B96344BB] (AR v2)
Track 3 accurately ripped (confidence 1) [3D549C9A] (AR v2)
Track 4 accurately ripped (confidence 1) [ACD37F3D] (AR v2)
Track 5 accurately ripped (confidence 1) [207D6796] (AR v2)
Track 6 accurately ripped (confidence 1) [A3D54507] (AR v2)
Track 7 accurately ripped (confidence 1) [D440472F] (AR v2)
Track 8 accurately ripped (confidence 1) [1D129C5C] (AR v2)
Track 9 accurately ripped (confidence 1) [773540A0] (AR v2)
Track 10 accurately ripped (confidence 1) [02C6BDC1] (AR v2)
Track 11 accurately ripped (confidence 1) [B1656989] (AR v2)
All tracks accurately ripped
End of status report
---- CUETools DB Plugin V2.1.3
[CTDB TOCID: wvmGvX63yZjpa4dmmKmiMqdTIhA-] disk not present in database, Submit result: wvmGvX63yZjpa4dmmKmiMqdTIhA- has been uploaded
==== Log checksum 4949B81F330797FDA06AF264C7FF29B14BBD4478C8998F245B763241EE256735 ====

Содержание индексной карты (.CUE)

REM GENRE Rock
REM DATE 2013
REM DISCID 710A640B
REM COMMENT "ExactAudioCopy v1.0b3"
PERFORMER "Various Artists"
TITLE "Fly Like An Eagle"
FILE "Various Artists - Fly Like An Eagle.flac" WAVE
TRACK 01 AUDIO
TITLE "Take The Many And Run"
PERFORMER "Colin Moulding"
INDEX 01 00:00:00
TRACK 02 AUDIO
TITLE "Jet Airliner"
PERFORMER "John Wetton"
INDEX 00 03:23:01
INDEX 01 03:25:00
TRACK 03 AUDIO
TITLE "Living In The USA"
PERFORMER "Fee Waybill"
INDEX 00 07:19:53
INDEX 01 07:21:52
TRACK 04 AUDIO
TITLE "Abracadabra"
PERFORMER "John Parr"
INDEX 00 11:46:37
INDEX 01 11:48:36
TRACK 05 AUDIO
TITLE "Swingtown"
PERFORMER "Martin Turner"
INDEX 00 16:58:01
INDEX 01 17:00:00
TRACK 06 AUDIO
TITLE "Winter Time "
PERFORMER "Sonja Kristina"
INDEX 00 20:48:01
INDEX 01 20:50:00
TRACK 07 AUDIO
TITLE "The Jocker"
PERFORMER "John Wesley"
INDEX 00 24:07:47
INDEX 01 24:09:45
TRACK 08 AUDIO
TITLE "Jungle Lowe"
PERFORMER "Joe Lynn Turner"
INDEX 00 28:23:24
INDEX 01 28:25:23
TRACK 09 AUDIO
TITLE "Space Cowboy"
PERFORMER "Jimi Jamison"
INDEX 00 31:51:58
INDEX 01 31:53:57
TRACK 10 AUDIO
TITLE "Rock'n Me"
PERFORMER "Rod Argent"
INDEX 00 36:16:32
INDEX 01 36:18:30
TRACK 11 AUDIO
TITLE "Fly Like An Eagle"
PERFORMER "Roye Albrighton"
INDEX 00 40:14:08
INDEX 01 40:16:07

Лог проверки качества

-----------------------
DON'T MODIFY THIS FILE
-----------------------
PERFORMER: auCDtect Task Manager, ver. 1.5.1RC4 build 1.5.1.5
Copyright (c) 2008-2010 y-soft. All rights reserved
http://y-soft.org
ANALYZER: auCDtect: CD records authenticity detector, version 0.8.2
Copyright (c) 2004 Oleg Berngardt. All rights reserved.
Copyright (c) 2004 Alexander Djourik. All rights reserved.
FILE: Various Artists - Fly Like An Eagle.flac
Size: 308467419 Hash: 6B4929ED206A2FD5C57CEC12BF2B73E8 Accuracy: -m0
Conclusion: CDDA 100%
Signature: 17657BEFDCE3CEE568A7A63D464CB2C18D747961

CUETools log

[CUETools log; Date: 01.12.2014 10:51:01; Version: 2.1.4]
[CTDB TOCID: wvmGvX63yZjpa4dmmKmiMqdTIhA-] found.
Track | CTDB Status
1 | (1/1) Accurately ripped
2 | (1/1) Accurately ripped
3 | (1/1) Accurately ripped
4 | (1/1) Accurately ripped
5 | (1/1) Accurately ripped
6 | (1/1) Accurately ripped
7 | (1/1) Accurately ripped
8 | (1/1) Accurately ripped
9 | (1/1) Accurately ripped
10 | (1/1) Accurately ripped
11 | (1/1) Accurately ripped
[AccurateRip ID: 0012408a-009e7799-710a640b] found.
Track [ CRC | V2 ] Status
01 [ef3dd9cd|d370479b] (0+1/1) Accurately ripped
02 [7868f306|b96344bb] (0+1/1) Accurately ripped
03 [54e290da|3d549c9a] (0+1/1) Accurately ripped
04 [607c810d|acd37f3d] (0+1/1) Accurately ripped
05 [1be15217|207d6796] (0+1/1) Accurately ripped
06 [3de7657e|a3d54507] (0+1/1) Accurately ripped
07 [b4a0e3a6|d440472f] (0+1/1) Accurately ripped
08 [8797e619|1d129c5c] (0+1/1) Accurately ripped
09 [deb99669|773540a0] (0+1/1) Accurately ripped
10 [89bf8ac0|02c6bdc1] (0+1/1) Accurately ripped
11 [63104bf2|b1656989] (0+1/1) Accurately ripped
Track Peak [ CRC32 ] [W/O NULL] [ LOG ]
-- 96,2 [0081AD1F] [1059AB78] CRC32
01 93,4 [D766DCA1] [D05A6BBB]
02 94,4 [B4C9BE5E] [95F21F76]
03 93,7 [07707805] [2BEB4D9C]
04 95,7 [D728C450] [4BC7C8F7]
05 95,6 [62B26E8A] [BB65AD72]
06 92,2 [E1F1C6A5] [31ADBC9D]
07 96,2 [62571B76] [9E950028]
08 87,9 [B51F3BB8] [5B2B05A6]
09 87,3 [B4685BB3] [F7A8A281]
10 96,1 [D6F346E2] [ECBFD8D0]
11 87,0 [56698F18] [9E40F8D7]
Доп. информация:

Back, Disc, Spectrogram


If you like the topic, please click share to help develop our site.

To download the file disable ad blocking, and reload the page.

disable adblock How to disable ad blocking?

Download by magnet link 334 MB Download Torrent

Login using:

Similar topics

(Psychedelic | Stoner Rock) VA - The Wall [Redux] - 2018, MP3, 320 kbps
 225 MB   0 | 0   11-Nov-18 11:20   15


   
Current time is: 20-Apr 06:02 :: All times are UTC + 3