Bulletproof Fever - A Tribute to Ted Nugent
Жанр: Hard Rock, Heavy Metal
Страна-производитель диска: USA
Год издания диска: 2001
Издатель (лейбл): Dead Line
Номер по каталогу: CLP 0821-2
Страна: USA
Аудио кодек: FLAC (*.flac)
Тип рипа: image+.cue
Битрейт аудио: lossless
Продолжительность: 00:47:39
Источник (релизер): Boris1
Наличие сканов в содержимом раздачи:
Треклист:
01.
(John Corabi "Union") 03:44
02. Stranglehold (Marq Torien "Bullet Boys") 08:28
03. Hey Baby (Taime Downe "Newlydeads/Faster Pussycat") 04:01
04. Just What The Doctor Ordered (Kory Clarke "Warrior Soul") 03:37
05. Journey To The Center Of The Mind (Phil Lewis "L.A.Guns") 03:39
06.
(Stevie Rachelle "Tuff") 04:51
07. Motorcity Madhouse (Kelly Hansen "Hurricane") 04:25
08. Wang Dang Sweet Poontang (Alex Mitchell "Circus of Power") 03:16
09. Free For All (Jani Lane "Warrant") 03:13
10. Dog Eat Dog (Jizzy Pearl "Love Hate/Ratt") 04:04
11. Need You Bad (Spike "London Quireboys") 04:16

Лог создания рипа

Exact Audio Copy V1.0 beta 3 from 29. August 2011
EAC extraction logfile from 25. October 2014, 15:23
Various Artists / Bulletproof Fever (Tribute To Ted Nugent)
Used drive : SAMSUNG DVD-ROM SD-616E Adapter: 3 ID: 0
Read mode : Secure
Utilize accurate stream : Yes
Defeat audio cache : Yes
Make use of C2 pointers : No
Read offset correction : 12
Overread into Lead-In and Lead-Out : No
Fill up missing offset samples with silence : Yes
Delete leading and trailing silent blocks : No
Null samples used in CRC calculations : Yes
Used interface : Native Win32 interface for Win NT & 2000
Used output format : User Defined Encoder
Selected bitrate : 768 kBit/s
Quality : High
Add ID3 tag : No
Command line compressor : C:\Program Files\Exact Audio Copy\FLAC\FLAC.EXE
Additional command line options : -6 -V -T "ARTIST=%artist%" -T "TITLE=%title%" -T "ALBUM=%albumtitle%" -T "DATE=%year%" -T "TRACKNUMBER=%tracknr%" -T "GENRE=%genre%" -T "COMMENT=%comment%" -T "BAND=%albuminterpret%" -T "ALBUMARTIST=%albuminterpret%" -T "COMPOSER=%composer%" %haslyrics%--tag-from-file=LYRICS="%lyricsfile%"%haslyrics% -T "DISCNUMBER=%cdnumber%" -T "TOTALDISCS=%totalcds%" -T "TOTALTRACKS=%numtracks%" %hascover%--picture="%coverfile%"%hascover% %source% -o %dest%
TOC of the extracted CD
Track | Start | Length | Start sector | End sector
---------------------------------------------------------
1 | 0:00.00 | 3:44.25 | 0 | 16824
2 | 3:44.25 | 8:28.37 | 16825 | 54961
3 | 12:12.62 | 4:01.19 | 54962 | 73055
4 | 16:14.06 | 3:37.37 | 73056 | 89367
5 | 19:51.43 | 3:39.40 | 89368 | 105832
6 | 23:31.08 | 4:51.20 | 105833 | 127677
7 | 28:22.28 | 4:25.33 | 127678 | 147585
8 | 32:47.61 | 3:16.30 | 147586 | 162315
9 | 36:04.16 | 3:13.46 | 162316 | 176836
10 | 39:17.62 | 4:04.41 | 176837 | 195177
11 | 43:22.28 | 4:16.66 | 195178 | 214443
Range status and errors
Selected range
Filename C:\Documents and Settings\Borya\Desktop\TriTeNu\Various Artists - Bulletproof Fever (Tribute To Ted Nugent).wav
Peak level 100.0 %
Extraction speed 2.9 X
Range quality 100.0 %
Test CRC 2F1F570E
Copy CRC 2F1F570E
Copy OK
No errors occurred
AccurateRip summary
Track 1 cannot be verified as accurate (confidence 1) [5FA1B503], AccurateRip returned [3066E292] (AR v2)
Track 2 cannot be verified as accurate (confidence 1) [32AE9484], AccurateRip returned [6C4DBB7C] (AR v2)
Track 3 cannot be verified as accurate (confidence 1) [1923F431], AccurateRip returned [9F96D627] (AR v2)
Track 4 cannot be verified as accurate (confidence 1) [0F8FBD98], AccurateRip returned [3185BD2E] (AR v2)
Track 5 cannot be verified as accurate (confidence 1) [DE81960A], AccurateRip returned [17EE43F4] (AR v2)
Track 6 cannot be verified as accurate (confidence 1) [BE8D0836], AccurateRip returned [E6C1F45D] (AR v2)
Track 7 cannot be verified as accurate (confidence 1) [C81EAB56], AccurateRip returned [614B9E4A] (AR v2)
Track 8 cannot be verified as accurate (confidence 1) [6C13299F], AccurateRip returned [B7BE048F] (AR v2)
Track 9 cannot be verified as accurate (confidence 1) [B4574FBF], AccurateRip returned [F7D3979E] (AR v2)
Track 10 cannot be verified as accurate (confidence 1) [6F1C6270], AccurateRip returned [3E8B2A74] (AR v2)
Track 11 cannot be verified as accurate (confidence 1) [9D4D86F8], AccurateRip returned [980C2CB8] (AR v2)
No tracks could be verified as accurate
You may have a different pressing from the one(s) in the database
End of status report
==== Log checksum 7AD7F8E1175BEBA59497B01A62F1E45E01F38CA98083FD82172E6B2EC948AD3F ====

Содержание индексной карты (.CUE)

REM GENRE "Hard Rock"
REM DISCID 9A0B2B0B
REM COMMENT "ExactAudioCopy v1.0b3"
PERFORMER "Various Artists"
TITLE "Bulletproof Fever (Tribute To Ted Nugent)"
FILE "Various Artists - Bulletproof Fever (Tribute To Ted Nugent).flac" WAVE
TRACK 01 AUDIO
TITLE "Cat Scratch Fever "
PERFORMER "John Corabi 'Union'"
INDEX 01 00:00:00
TRACK 02 AUDIO
TITLE "Stranglehold "
PERFORMER "Marq Torien 'Bullet Boys'"
INDEX 00 03:42:25
INDEX 01 03:44:25
TRACK 03 AUDIO
TITLE "Hey Baby "
PERFORMER "Taime Downe 'Newlydeads/ Faster Pussycat'"
INDEX 00 12:10:62
INDEX 01 12:12:62
TRACK 04 AUDIO
TITLE "Just What The Doctor Ordered "
PERFORMER "Kory Clarke 'Warrior Soul'"
INDEX 00 16:12:06
INDEX 01 16:14:06
TRACK 05 AUDIO
TITLE "Journey To The Center Of The Mind "
PERFORMER "Phil Lewis 'L.A.Guns'"
INDEX 00 19:49:43
INDEX 01 19:51:43
TRACK 06 AUDIO
TITLE "Wango Tango "
PERFORMER "Stevie Rachelle 'Tuff'"
INDEX 00 23:29:14
INDEX 01 23:31:08
TRACK 07 AUDIO
TITLE "Motorcity Madhouse "
PERFORMER "Kelly Hansen 'Hurricane'"
INDEX 00 28:20:28
INDEX 01 28:22:28
TRACK 08 AUDIO
TITLE "Wang Dang Sweet Poontang "
PERFORMER "Alex Mitchell 'Circus of Power'"
INDEX 00 32:45:61
INDEX 01 32:47:61
TRACK 09 AUDIO
TITLE "Free For All "
PERFORMER "Jani Lane 'Warrant'"
INDEX 00 36:02:16
INDEX 01 36:04:16
TRACK 10 AUDIO
TITLE "Dog Eat Dog "
PERFORMER "Jizzy Pearl 'Love Hate/ Ratt'"
INDEX 00 39:15:62
INDEX 01 39:17:62
TRACK 11 AUDIO
TITLE "Need You Bad "
PERFORMER "Spike 'London Quireboys'"
INDEX 00 43:20:28
INDEX 01 43:22:28

Лог проверки качества

-----------------------
DON'T MODIFY THIS FILE
-----------------------
PERFORMER: auCDtect Task Manager, ver. 1.5.1RC4 build 1.5.1.5
Copyright (c) 2008-2010 y-soft. All rights reserved
http://y-soft.org
ANALYZER: auCDtect: CD records authenticity detector, version 0.8.2
Copyright (c) 2004 Oleg Berngardt. All rights reserved.
Copyright (c) 2004 Alexander Djourik. All rights reserved.
FILE: Various Artists - Bulletproof Fever (Tribute To Ted Nugent).flac
Size: 363035194 Hash: 6B2971EA4CD437F885D5207CF28CC6CB Accuracy: -m0
Conclusion: CDDA 100%
Signature: DED4B3250D82B56DBA38FDDA4849C93EAEBD8219

CUETools log

[CUETools log; Date: 01.12.2014 10:50:02; Version: 2.1.4]
[CTDB TOCID: I7NUfujS4hxh09T3Yo0IFnLwrGM-] disk not present in database.
[AccurateRip ID: 0014d073-00b0f2f5-9a0b2b0b] found.
Track [ CRC | V2 ] Status
01 [4826ecd8|5fa1b503] (0+0/1) No match
02 [936047aa|32ae9484] (0+0/1) No match
03 [8743a20c|1923f431] (0+0/1) No match
04 [d01bc4b6|0f8fbd98] (0+0/1) No match
05 [fae4710a|de81960a] (0+0/1) No match
06 [7a6c5219|be8d0836] (0+0/1) No match
07 [77cd9462|c81eab56] (0+0/1) No match
08 [06f28f03|6c13299f] (0+0/1) No match
09 [b2ea538e|b4574fbf] (0+0/1) No match
10 [38aa216c|6f1c6270] (0+0/1) No match
11 [e39a0f52|9d4d86f8] (0+0/1) No match
Offsetted by -667:
01 [3066e292] (1/1) Accurately ripped
02 [6c4dbb7c] (1/1) Accurately ripped
03 [9f96d627] (1/1) Accurately ripped
04 [3185bd2e] (1/1) Accurately ripped
05 [17ee43f4] (1/1) Accurately ripped
06 [e6c1f45d] (1/1) Accurately ripped
07 [614b9e4a] (1/1) Accurately ripped
08 [b7be048f] (1/1) Accurately ripped
09 [f7d3979e] (1/1) Accurately ripped
10 [3e8b2a74] (1/1) Accurately ripped
11 [980c2cb8] (1/1) Accurately ripped
Track Peak [ CRC32 ] [W/O NULL] [ LOG ]
-- 100,0 [2F1F570E] [D7F25878] CRC32
01 100,0 [9ADD0F03] [6FDD60AA]
02 100,0 [912981C7] [3D59BC23]
03 100,0 [2760A6E9] [012D3014]
04 100,0 [42D2EC01] [E822A787]
05 100,0 [FB878E5B] [6C6E4466]
06 100,0 [6A94298D] [564F1FC0]
07 100,0 [580E9C59] [9ADFDD57]
08 100,0 [914BF95C] [D4CF4A4E]
09 100,0 [0933090E] [7E5707A2]
10 100,0 [92077DA8] [2137D162]
11 100,0 [3958189B] [E3EDD96D]
Доп. информация:

Состав

Jake E.Lee - Guitar (Tracks 4,5,6,8,9,10)
DJ Ashba - Guitar
Randy Castillo - Drums
Chuck Carric - Bass
Matt Thorne - Bass (Tracks 9 & 10)
John Corabi - Vocals
Marq Torien - Vocals
Taime Downe - Vocals
Kory Clarke - Vocals
Phil Lewis - Vocals
Stevie Rachelle - Vocals
Kelly Hansen - Vocals
Alex Mitchell - Vocals
Jani Lane - Vocals
Jizzy Pearl - Vocals
Spike - Vocals

Об исполнителе

Заслуженного рокера, старичка Ted Nugent тоже не обошли вниманием его более молодые коллеги по цеху. И хотя Teddy продолжает вести активную творческую деятельность - гастролирует, и даже выпустил после 8-летнего молчания новый альбом в июле месяце, все же пик его творчества пришелся на 70-е, 80-е годы прошлого века. И данный релиз - это новый взгляд на его старые классические композиции. Взгляд из XXI века.

Back, Disc, Spectrogram

To download the file disable ad blocking, and reload the page.

disable adblock How to disable ad blocking?

Download by magnet link 390 MB Download Torrent

Login using:

Similar topics

(Hard Rock, Heavy Metal) O.S.S.Y (OSSY) - A.D. 2010 - 2010, MP3, 320 kbps
 103 MB   0 | 0   Yesterday 20:55   0


   
Current time is: 20-Sep 00:08 :: All times are UTC ± 0