Classic Rock #143: With a Little Help from Their Friends (March)
Жанр: Classic Rock, Alternative-Rock, Blues-Rock
Страна-производитель диска: EU
Год издания: 2010
Издатель (лейбл): Classic Rock
Номер по каталогу: ROC143-03-10
Аудиокодек: FLAC (*.flac)
Тип рипа: tracks+.cue
Битрейт аудио: lossless
Продолжительность: 01:00:25
Источник (релизер): свой диск
Наличие сканов в содержимом раздачи: PNG 600X600 DPI.
Треклист:
01. Killing Joke with Tim Burgess - I Buy
02. Bruce Kulick with Doug Fieger - Dirty Girl
03. Baron with Lemmy & Dave Lombardo - Stand By Me
04. Jimmy McIntosh with Ronnie Wood & Hot Rod - It Was a Virus
05. Lynyrd Skynyrd with Rob Zombie - Floyd
06. Creature with The Atom Brain with Mark Lanegan - Lonely Night
07. The Dirty Strangers with Keith Richards - Survival
08. Necromandus with Tony Iommi - Orexis of Death
09. Govt Mule with Billy Gibbons - Broke Down on the Brazos
10. Midnight Spin - Trigger Finger Itch
11. The Mercy House - Greed
12. Black Bayou Construkt - Jones for War
13. Lionsex - Get It
14. Velvet Star - Binge

Лог создания рипа

Exact Audio Copy V1.0 beta 3 from 29. August 2011
Отчёт EAC об извлечении, выполненном 8. ноября 2012, 20:19
VA / Classic Rock #143: With a Little Help from Their Friends (March)
Дисковод: TSSTcorpCDDVDW SH-S222A Adapter: 2 ID: 1
Режим чтения : Достоверность
Использование точного потока : Да
Отключение кэша аудио : Да
Использование указателей C2 : Нет
Коррекция смещения при чтении : 6
Способность читать области Lead-in и Lead-out : Нет
Заполнение пропущенных сэмплов тишиной : Да
Удаление блоков с тишиной в начале и конце : Нет
При вычислениях CRC использовались нулевые сэмплы : Да
Интерфейс : Встроенный Win32-интерфейс для Win NT/2000
Обработка зазоров : Добавлено к предыдущему треку
Выходной формат : Пользовательский кодировщик
Выбранный битрейт : 128 kBit/s
Качество : Высокий
Добавление ID3-тега : Нет
Утилита сжатия : C:\Program Files\Exact Audio Copy\Flac\flac.exe
Дополнительные параметры : -V -8 -T "Genre=%genre%" -T "Artist=%artist%" -T "Title=%title%" -T "Album=%albumtitle%" -T "Date=%year%" -T "Tracknumber=%tracknr%" -T "Comment=%comment%" %source%
TOC извлечённого CD
Трек | Старт | Длительность | Начальный сектор | Конечный сектор
---------------------------------------------------------------------
1 | 0:00.00 | 3:39.09 | 0 | 16433
2 | 3:39.09 | 4:01.25 | 16434 | 34533
3 | 7:40.34 | 3:11.42 | 34534 | 48900
4 | 10:52.01 | 4:49.73 | 48901 | 70648
5 | 15:41.74 | 4:04.00 | 70649 | 88948
6 | 19:45.74 | 5:27.64 | 88949 | 113537
7 | 25:13.63 | 3:24.16 | 113538 | 128853
8 | 28:38.04 | 4:30.00 | 128854 | 149103
9 | 33:08.04 | 6:19.00 | 149104 | 177528
10 | 39:27.04 | 3:13.32 | 177529 | 192035
11 | 42:40.36 | 5:24.00 | 192036 | 216335
12 | 48:04.36 | 3:43.07 | 216336 | 233067
13 | 51:47.43 | 3:29.43 | 233068 | 248785
14 | 55:17.11 | 5:08.00 | 248786 | 271885
15 | 62:57.11 | 1:59.60 | 283286 | 292270
Трек 1
Имя файла D:\ФЛАКИ И АПЫ\01 - I Buy.wav
Длина предзазора 0:00:02.00
Пиковый уровень 97.7 %
Скорость извлечения 3.6 X
Качество трека 99.9 %
CRC теста BC69C102
CRC копии BC69C102
Точное извлечение (достоверность 2) [29C1A7DD] (AR v2)
Копирование... OK
Трек 2
Имя файла D:\ФЛАКИ И АПЫ\02 - Dirty Girl.wav
Длина предзазора 0:00:02.00
Пиковый уровень 99.7 %
Скорость извлечения 4.1 X
Качество трека 99.9 %
CRC теста 4B6ED4CA
CRC копии 4B6ED4CA
Точное извлечение (достоверность 2) [D4A5FCEB] (AR v2)
Копирование... OK
Трек 3
Имя файла D:\ФЛАКИ И АПЫ\03 - Stand By Me.wav
Длина предзазора 0:00:02.00
Пиковый уровень 97.7 %
Скорость извлечения 4.2 X
Качество трека 99.9 %
CRC теста 90D7DED2
CRC копии 90D7DED2
Точное извлечение (достоверность 2) [245A8501] (AR v2)
Копирование... OK
Трек 4
Имя файла D:\ФЛАКИ И АПЫ\04 - It Was A Virus.wav
Длина предзазора 0:00:02.00
Пиковый уровень 98.0 %
Скорость извлечения 5.6 X
Качество трека 100.0 %
CRC теста 5C1A367E
CRC копии 5C1A367E
Точное извлечение (достоверность 2) [0FCC88BE] (AR v2)
Копирование... OK
Трек 5
Имя файла D:\ФЛАКИ И АПЫ\05 - Floyd.wav
Длина предзазора 0:00:02.00
Пиковый уровень 100.0 %
Скорость извлечения 5.2 X
Качество трека 99.9 %
CRC теста 99EE5C7D
CRC копии 99EE5C7D
Точное извлечение (достоверность 2) [741B7CEF] (AR v2)
Копирование... OK
Трек 6
Имя файла D:\ФЛАКИ И АПЫ\06 - Lonely Night.wav
Длина предзазора 0:00:02.00
Пиковый уровень 98.8 %
Скорость извлечения 6.4 X
Качество трека 100.0 %
CRC теста 92D32484
CRC копии 92D32484
Точное извлечение (достоверность 2) [078591CF] (AR v2)
Копирование... OK
Трек 7
Имя файла D:\ФЛАКИ И АПЫ\07 - Survival.wav
Длина предзазора 0:00:02.00
Пиковый уровень 97.7 %
Скорость извлечения 6.3 X
Качество трека 100.0 %
CRC теста FA8B1343
CRC копии FA8B1343
Точное извлечение (достоверность 2) [6768740A] (AR v2)
Копирование... OK
Трек 8
Имя файла D:\ФЛАКИ И АПЫ\08 - Orexis Of Death.wav
Длина предзазора 0:00:02.00
Пиковый уровень 97.7 %
Скорость извлечения 6.9 X
Качество трека 100.0 %
CRC теста 87C77A2F
CRC копии 87C77A2F
Точное извлечение (достоверность 2) [4E2F654E] (AR v2)
Копирование... OK
Трек 9
Имя файла D:\ФЛАКИ И АПЫ\09 - Broke Down On The Brazos.wav
Длина предзазора 0:00:02.00
Пиковый уровень 95.3 %
Скорость извлечения 7.5 X
Качество трека 100.0 %
CRC теста B712D037
CRC копии B712D037
Точное извлечение (достоверность 2) [99A108CB] (AR v2)
Копирование... OK
Трек 10
Имя файла D:\ФЛАКИ И АПЫ\10 - Trigger Finger Itch.wav
Длина предзазора 0:00:02.00
Пиковый уровень 96.5 %
Скорость извлечения 7.2 X
Качество трека 100.0 %
CRC теста 79643C19
CRC копии 79643C19
Точное извлечение (достоверность 2) [9E98E560] (AR v2)
Копирование... OK
Трек 11
Имя файла D:\ФЛАКИ И АПЫ\11 - Greed.wav
Длина предзазора 0:00:02.00
Пиковый уровень 100.0 %
Скорость извлечения 7.3 X
Качество трека 99.9 %
CRC теста DCEF61DE
CRC копии DCEF61DE
Точное извлечение (достоверность 2) [716ABC4D] (AR v2)
Копирование... OK
Трек 12
Имя файла D:\ФЛАКИ И АПЫ\12 - Jones For War.wav
Длина предзазора 0:00:02.00
Пиковый уровень 97.7 %
Скорость извлечения 6.9 X
Качество трека 99.9 %
CRC теста E20F6773
CRC копии E20F6773
Точное извлечение (достоверность 2) [B693B279] (AR v2)
Копирование... OK
Трек 13
Имя файла D:\ФЛАКИ И АПЫ\13 - Get It.wav
Длина предзазора 0:00:02.00
Пиковый уровень 97.7 %
Скорость извлечения 8.0 X
Качество трека 100.0 %
CRC теста 18FD3F4A
CRC копии 18FD3F4A
Точное извлечение (достоверность 2) [10A05328] (AR v2)
Копирование... OK
Трек 14
Имя файла D:\ФЛАКИ И АПЫ\14 - Binge.wav
Длина предзазора 0:00:02.00
Пиковый уровень 97.7 %
Скорость извлечения 8.6 X
Качество трека 100.0 %
CRC теста 1BDFDC54
CRC копии 1BDFDC54
Точное извлечение (достоверность 2) [272A5C67] (AR v2)
Копирование... OK
Все треки извлечены точно
Ошибок не произошло
Конец отчёта
==== Контрольная сумма отчёта 3F33EF69AAD5B24856D1F156898D7AF2D3AA9FB6DA15C904ABECEFF8C1D4A270 ====

Содержание индексной карты (.CUE)

REM GENRE Rock
REM DATE 2010
REM DISCID DE0F380F
REM COMMENT "ExactAudioCopy v1.0b3"
PERFORMER "VA"
TITLE "Classic Rock #143: With a Little Help from Their Friends (March)"
FILE "01 - I Buy.wav" WAVE
TRACK 01 AUDIO
TITLE "I Buy"
PERFORMER "Killing Joke with Tim Burgess"
INDEX 01 00:00:00
TRACK 02 AUDIO
TITLE "Dirty Girl"
PERFORMER "Bruce Kulick with Doug Fieger"
INDEX 00 03:37:09
FILE "02 - Dirty Girl.wav" WAVE
INDEX 01 00:00:00
TRACK 03 AUDIO
TITLE "Stand By Me"
PERFORMER "Baron with Lemmy & Dave Lombardo"
INDEX 00 03:59:25
FILE "03 - Stand By Me.wav" WAVE
INDEX 01 00:00:00
TRACK 04 AUDIO
TITLE "It Was A Virus"
PERFORMER "Jimmy McIntosh with Ronnie Wood & Hot Rod"
INDEX 00 03:09:42
FILE "04 - It Was A Virus.wav" WAVE
INDEX 01 00:00:00
TRACK 05 AUDIO
TITLE "Floyd"
PERFORMER "Lynyrd Skynyrd with Rob Zombie"
INDEX 00 04:47:73
FILE "05 - Floyd.wav" WAVE
INDEX 01 00:00:00
TRACK 06 AUDIO
TITLE "Lonely Night"
PERFORMER "Creature with the Atom Brain with Mark Lanegan"
INDEX 00 04:02:00
FILE "06 - Lonely Night.wav" WAVE
INDEX 01 00:00:00
TRACK 07 AUDIO
TITLE "Survival "
PERFORMER "The Dirty Strangers with Keith Richards"
INDEX 00 05:25:64
FILE "07 - Survival.wav" WAVE
INDEX 01 00:00:00
TRACK 08 AUDIO
TITLE "Orexis Of Death"
PERFORMER "Necromandus with Tony Iommi"
INDEX 00 03:22:16
FILE "08 - Orexis Of Death.wav" WAVE
INDEX 01 00:00:00
TRACK 09 AUDIO
TITLE "Broke Down On The Brazos"
PERFORMER "Govt Mule with Billy Gibbons"
INDEX 00 04:28:00
FILE "09 - Broke Down On The Brazos.wav" WAVE
INDEX 01 00:00:00
TRACK 10 AUDIO
TITLE "Trigger Finger Itch"
PERFORMER "Midnight Spin"
INDEX 00 06:17:00
FILE "10 - Trigger Finger Itch.wav" WAVE
INDEX 01 00:00:00
TRACK 11 AUDIO
TITLE "Greed"
PERFORMER "The Mercy House"
INDEX 00 03:11:32
FILE "11 - Greed.wav" WAVE
INDEX 01 00:00:00
TRACK 12 AUDIO
TITLE "Jones For War"
PERFORMER "Black Bayou Construkt"
INDEX 00 05:22:00
FILE "12 - Jones For War.wav" WAVE
INDEX 01 00:00:00
TRACK 13 AUDIO
TITLE "Get It"
PERFORMER "Lionsex"
INDEX 00 03:41:07
FILE "13 - Get It.wav" WAVE
INDEX 01 00:00:00
TRACK 14 AUDIO
TITLE "Binge"
PERFORMER "Velvet Star"
INDEX 00 03:27:43
FILE "14 - Binge.wav" WAVE
INDEX 01 00:00:00
TRACK 15 MODEx/2xxx
TITLE "Data"
PERFORMER "Various"
INDEX 00 05:08:00

Скриншоты спектра частот (выборочно)

Об альбоме (сборнике)

Диск-приложение к журналу "Classic Rock"

To download the file disable ad blocking, and reload the page.

disable adblock How to disable ad blocking?

Download by magnet link 413 MB Download Torrent

Login using:

Similar topics



   
Current time is: 20-Sep 00:33 :: All times are UTC ± 0