An All - Star Tribute To ZZ Top
Жанр: Rock,Blues rock,Hard rock
Носитель: CD
Страна-производитель диска: USA
Год издания: 2008
Издатель (лейбл): DeadLine Music
Номер по каталогу: CLP 1710
Страна исполнителя (группы): USA
Аудиокодек: FLAC (*.flac)
Тип рипа: image+.cue
Битрейт аудио: lossless
Продолжительность: 00:56:08
Источник (релизер): brookman
Наличие сканов в содержимом раздачи: да
Треклист:
01. Molly Hatchet - Sharp Dressed Man 04:44
02. Jim Dandy's Black Oak Arkansas - La Grange 04:39
03. Atlanta Rhythm Section - Sharp Dressed Man-Gimme All Your Lovin' 03:07
04. Artimus Pyle - Legs 04:28
05. Pat Travers - Jesus Just Left Chicago 04:23
06. Walter Trout - Gimme All Your Lovin' 04:02
07. Fee Waybill - Cheap Sunglasses 04:18
08. The Artimus Pyle Band - Pearl Necklace 04:22
09. Winters Brothers Band - Planet Of Women 04:36
10. Sky Sunlight Saxon - Sharp Dressed Man 04:27
11. National Dust - I'm Bad I'm Nationwide 04:42
12. Pat Travers - Waitin' For The Bus 03:03
13. Long Island Street Survivors - Heard It On The X 02:58
14. Jason McMaster - Tush 02:18

Лог создания рипа

Exact Audio Copy V1.0 beta 3 from 29. August 2011
EAC extraction logfile from 25. November 2014, 23:16
Various / An All-Star Tribute To ZZ Top
Used drive : PIONEER BD-RW BDR-TD03 Adapter: 0 ID: 1
Read mode : Secure
Utilize accurate stream : Yes
Defeat audio cache : Yes
Make use of C2 pointers : No
Read offset correction : 667
Overread into Lead-In and Lead-Out : No
Fill up missing offset samples with silence : Yes
Delete leading and trailing silent blocks : No
Null samples used in CRC calculations : Yes
Used interface : Native Win32 interface for Win NT & 2000
Used output format : User Defined Encoder
Selected bitrate : 768 kBit/s
Quality : High
Add ID3 tag : No
Command line compressor : C:\Program Files (x86)\Exact Audio Copy\FLAC\FLAC.EXE
Additional command line options : -6 -V -T "ARTIST=%artist%" -T "TITLE=%title%" -T "ALBUM=%albumtitle%" -T "DATE=%year%" -T "TRACKNUMBER=%tracknr%" -T "GENRE=%genre%" -T "COMMENT=%comment%" -T "BAND=%albuminterpret%" -T "ALBUMARTIST=%albuminterpret%" -T "COMPOSER=%composer%" %haslyrics%--tag-from-file=LYRICS="%lyricsfile%"%haslyrics% -T "DISCNUMBER=%cdnumber%" -T "TOTALDISCS=%totalcds%" -T "TOTALTRACKS=%numtracks%" %hascover%--picture="%coverfile%"%hascover% %source% -o %dest%
TOC of the extracted CD
Track | Start | Length | Start sector | End sector
---------------------------------------------------------
1 | 0:00.00 | 4:43.47 | 0 | 21271
2 | 4:43.47 | 4:39.35 | 21272 | 42231
3 | 9:23.07 | 3:07.27 | 42232 | 56283
4 | 12:30.34 | 4:27.58 | 56284 | 76366
5 | 16:58.17 | 4:22.69 | 76367 | 96085
6 | 21:21.11 | 4:02.03 | 96086 | 114238
7 | 25:23.14 | 4:18.07 | 114239 | 133595
8 | 29:41.21 | 4:22.20 | 133596 | 153265
9 | 34:03.41 | 4:35.48 | 153266 | 173938
10 | 38:39.14 | 4:27.06 | 173939 | 193969
11 | 43:06.20 | 4:41.74 | 193970 | 215118
12 | 47:48.19 | 3:03.37 | 215119 | 228880
13 | 50:51.56 | 2:57.55 | 228881 | 242210
14 | 53:49.36 | 2:18.36 | 242211 | 252596
Range status and errors
Selected range
Filename C:\Users\Deris\Desktop\TriZZ\Various - An All-Star Tribute To ZZ Top.wav
Peak level 100.0 %
Extraction speed 4.7 X
Range quality 100.0 %
Test CRC DEDDE24B
Copy CRC DEDDE24B
Copy OK
No errors occurred
AccurateRip summary
Track 1 accurately ripped (confidence 1) [81D733FE] (AR v1)
Track 2 accurately ripped (confidence 1) [9BCDDA42] (AR v1)
Track 3 accurately ripped (confidence 1) [67D8D905] (AR v1)
Track 4 accurately ripped (confidence 1) [502F5443] (AR v1)
Track 5 accurately ripped (confidence 1) [2005B5A3] (AR v1)
Track 6 accurately ripped (confidence 1) [C7405CE4] (AR v1)
Track 7 accurately ripped (confidence 1) [464D004A] (AR v1)
Track 8 accurately ripped (confidence 1) [666B2F4C] (AR v1)
Track 9 accurately ripped (confidence 1) [4490D461] (AR v1)
Track 10 accurately ripped (confidence 1) [61D46278] (AR v1)
Track 11 accurately ripped (confidence 1) [79631DD3] (AR v1)
Track 12 accurately ripped (confidence 1) [8EE874A4] (AR v1)
Track 13 accurately ripped (confidence 1) [2A246931] (AR v1)
Track 14 accurately ripped (confidence 1) [13A52296] (AR v1)
All tracks accurately ripped
End of status report
---- CUETools DB Plugin V2.1.3
[CTDB TOCID: 8huk.QRJQWNq6109AJpfGxaHO.M-] disk not present in database, Submit result: 8huk.QRJQWNq6109AJpfGxaHO.M- has been uploaded
==== Log checksum C11378B6FBB4838C07FA01FB68C162E211FFACB20FD504D65B40953A4C069937 ====

If you like the topic, please click share to help develop our site.

To download the file disable ad blocking, and reload the page.

disable adblock How to disable ad blocking?

Download by magnet link 418 MB Download Torrent

Login using:

Similar topics



   
Current time is: 24-Mar 09:48 :: All times are UTC + 3