Classic Rock presents: Voodoo Lounge
Жанр: Hard Rock, Blues-Rock, Progressive Rock
Носитель: CD
Страна-производитель диска: EU
Год издания: 2014
Издатель (лейбл): TeamRock, Classic Rock Magazine
Номер по каталогу: ROC202-10-14
Аудиокодек: FLAC (*.flac)
Тип рипа: tracks+.cue
Битрейт аудио: lossless
Продолжительность: 01:02:20
Источник (релизер): свой диск
Наличие сканов в содержимом раздачи: да
Треклист:
01. Slash feat. Myles Kennedy & The Conspirators - World on Fire (4:32)
02. Joe Bonamassa - Different Shades of Blue (4:39)
03. Godsmack - 1000hp (3:48)
04. Anathema - The Lost Song part 3 (5:20)
05. Blues Pills - Ain't No Change (5:01)
06. Cory Branan - You Make Me (3:13)
07. Black State Highway - Ain't Got No (4:07)
08. Henry's Funeral Shoe - Janice The Stripper Pt 1 (3:23)
09. Uriah Heep - One Minute (4:56)
10. Threshold - Watchtower on the Moon (5:33)
11. Tesla - Ricochet (3:50)
12. Purson - Danse Macabre (4:03)
13. Blackwolf - Kiss the Fire (3:20)
14. Ian McLagan and The Bump Band - Who Says It Ain't Love (4:06)
15. Goat - Words (2:28)
сборник-приложение к 202-му номеру журнала Classic Rock

Лог создания рипа

Exact Audio Copy V1.0 beta 3 from 29. August 2011
EAC extraction logfile from 23. November 2014, 17:17
Various Artists / Voodoo Lounge
Used drive : ATAPI iHAS120 X Adapter: 3 ID: 0
Read mode : Secure
Utilize accurate stream : Yes
Defeat audio cache : Yes
Make use of C2 pointers : No
Read offset correction : 48
Overread into Lead-In and Lead-Out : No
Fill up missing offset samples with silence : Yes
Delete leading and trailing silent blocks : No
Null samples used in CRC calculations : Yes
Used interface : Native Win32 interface for Win NT & 2000
Gap handling : Appended to previous track
Used output format : User Defined Encoder
Selected bitrate : 128 kBit/s
Quality : High
Add ID3 tag : No
Command line compressor : C:\Program Files (x86)\Exact Audio Copy\Flac\flac.exe
Additional command line options : -8 -V -T "ARTIST=%artist%" -T "TITLE=%title%" -T "ALBUM=%albumtitle%" -T "DATE=%year%" -T "TRACKNUMBER=%tracknr%" -T "TOTALTRACKS=%numtracks%" -T "GENRE=%genre%" -T "ALBUMARTIST=%albumartist%" -T "ALBUM ARTIST=%albumartist%" -T "COMMENT=EAC Secure Mode, Test & Copy, AccurateRip, FLAC -8" %source%
TOC of the extracted CD
Track | Start | Length | Start sector | End sector
---------------------------------------------------------
1 | 0:00.00 | 4:32.10 | 0 | 20409
2 | 4:32.10 | 4:38.67 | 20410 | 41326
3 | 9:11.02 | 3:47.62 | 41327 | 58413
4 | 12:58.64 | 5:19.65 | 58414 | 82403
5 | 18:18.54 | 5:01.06 | 82404 | 104984
6 | 23:19.60 | 3:12.49 | 104985 | 119433
7 | 26:32.34 | 4:07.20 | 119434 | 137978
8 | 30:39.54 | 3:23.16 | 137979 | 153219
9 | 34:02.70 | 4:56.32 | 153220 | 175451
10 | 38:59.27 | 5:33.34 | 175452 | 200460
11 | 44:32.61 | 3:49.59 | 200461 | 217694
12 | 48:22.45 | 4:03.18 | 217695 | 235937
13 | 52:25.63 | 3:20.35 | 235938 | 250972
14 | 55:46.23 | 4:06.23 | 250973 | 269445
15 | 59:52.46 | 2:27.61 | 269446 | 280531
Track 1
Filename D:\Voodoo Lounge\01 - Slash feat. Myles Kennedy & The Conspirators - World on Fire.wav
Pre-gap length 0:00:02.00
Peak level 100.0 %
Extraction speed 2.4 X
Track quality 100.0 %
Test CRC E6DA1BE2
Copy CRC E6DA1BE2
Accurately ripped (confidence 2) [961F8445] (AR v2)
Copy OK
Track 2
Filename D:\Voodoo Lounge\02 - Joe Bonamassa - Different Shades of Blue.wav
Pre-gap length 0:00:02.00
Peak level 99.3 %
Extraction speed 2.4 X
Track quality 99.9 %
Test CRC 6F4D9071
Copy CRC 6F4D9071
Accurately ripped (confidence 2) [F256718A] (AR v2)
Copy OK
Track 3
Filename D:\Voodoo Lounge\03 - Godsmack - 1000hp.wav
Pre-gap length 0:00:02.00
Peak level 100.0 %
Extraction speed 2.9 X
Track quality 100.0 %
Test CRC 6D4107C5
Copy CRC 6D4107C5
Accurately ripped (confidence 2) [E68C67FA] (AR v2)
Copy OK
Track 4
Filename D:\Voodoo Lounge\04 - Anathema - The Lost Song part 3.wav
Pre-gap length 0:00:02.00
Peak level 98.7 %
Extraction speed 3.2 X
Track quality 100.0 %
Test CRC D542C69A
Copy CRC D542C69A
Accurately ripped (confidence 2) [07604711] (AR v2)
Copy OK
Track 5
Filename D:\Voodoo Lounge\05 - Blues Pills - Ain't No Change.wav
Pre-gap length 0:00:02.00
Peak level 98.9 %
Extraction speed 3.1 X
Track quality 99.9 %
Test CRC 0C3C91FA
Copy CRC 0C3C91FA
Accurately ripped (confidence 2) [98700EF4] (AR v2)
Copy OK
Track 6
Filename D:\Voodoo Lounge\06 - Cory Branan - You Make Me.wav
Pre-gap length 0:00:02.00
Peak level 100.0 %
Extraction speed 3.5 X
Track quality 100.0 %
Test CRC 184574D0
Copy CRC 184574D0
Accurately ripped (confidence 2) [CE7EA7A0] (AR v2)
Copy OK
Track 7
Filename D:\Voodoo Lounge\07 - Black State Highway - Ain't Got No.wav
Pre-gap length 0:00:02.00
Peak level 98.8 %
Extraction speed 3.7 X
Track quality 100.0 %
Test CRC 5B8B4B05
Copy CRC 5B8B4B05
Accurately ripped (confidence 2) [B39E0818] (AR v2)
Copy OK
Track 8
Filename D:\Voodoo Lounge\08 - Henry's Funeral Shoe - Janice The Stripper Pt 1.wav
Pre-gap length 0:00:02.00
Peak level 97.7 %
Extraction speed 3.7 X
Track quality 100.0 %
Test CRC 94CB5664
Copy CRC 94CB5664
Accurately ripped (confidence 2) [57E42623] (AR v2)
Copy OK
Track 9
Filename D:\Voodoo Lounge\09 - Uriah Heep - One Minute.wav
Pre-gap length 0:00:02.00
Peak level 98.8 %
Extraction speed 4.1 X
Track quality 100.0 %
Test CRC E802C082
Copy CRC E802C082
Accurately ripped (confidence 2) [F9D8D5B8] (AR v2)
Copy OK
Track 10
Filename D:\Voodoo Lounge\10 - Threshold - Watchtower on the Moon.wav
Pre-gap length 0:00:02.00
Peak level 96.5 %
Extraction speed 4.4 X
Track quality 100.0 %
Test CRC EBF6095A
Copy CRC EBF6095A
Accurately ripped (confidence 2) [DF87A827] (AR v2)
Copy OK
Track 11
Filename D:\Voodoo Lounge\11 - Tesla - Ricochet.wav
Pre-gap length 0:00:02.00
Peak level 99.7 %
Extraction speed 4.4 X
Track quality 100.0 %
Test CRC 47071906
Copy CRC 47071906
Accurately ripped (confidence 2) [13243D5E] (AR v2)
Copy OK
Track 12
Filename D:\Voodoo Lounge\12 - Purson - Danse Macabre.wav
Pre-gap length 0:00:02.00
Peak level 98.8 %
Extraction speed 4.5 X
Track quality 100.0 %
Test CRC D6CB1715
Copy CRC D6CB1715
Accurately ripped (confidence 2) [A150DACC] (AR v2)
Copy OK
Track 13
Filename D:\Voodoo Lounge\13 - Blackwolf - Kiss the Fire.wav
Pre-gap length 0:00:02.00
Peak level 99.9 %
Extraction speed 4.5 X
Track quality 100.0 %
Test CRC 1FDB1F4B
Copy CRC 1FDB1F4B
Accurately ripped (confidence 2) [8F3A8B7D] (AR v2)
Copy OK
Track 14
Filename D:\Voodoo Lounge\14 - Ian McLagan and The Bump Band - Who Says It Ain't Love.wav
Pre-gap length 0:00:02.00
Peak level 98.8 %
Extraction speed 4.2 X
Track quality 99.9 %
Test CRC 7096B2E9
Copy CRC 7096B2E9
Accurately ripped (confidence 2) [739CD0F8] (AR v2)
Copy OK
Track 15
Filename D:\Voodoo Lounge\15 - Goat - Words.wav
Pre-gap length 0:00:02.00
Peak level 98.8 %
Extraction speed 4.5 X
Track quality 100.0 %
Test CRC 00B2743C
Copy CRC 00B2743C
Accurately ripped (confidence 2) [D6C9C12F] (AR v2)
Copy OK
All tracks accurately ripped
No errors occurred
End of status report
==== Log checksum 5EC972C2B94F154FCFE543CC07D9BD9923BBC71769D383CB00560AF70542E784 ====

Содержание индексной карты (.CUE)

REM GENRE Rock
REM DATE 2014
REM DISCID C00E9C0F
REM COMMENT "ExactAudioCopy v1.0b3"
PERFORMER "Various Artists"
TITLE "Voodoo Lounge"
FILE "01 - Slash feat. Myles Kennedy & The Conspirators - World on Fire.wav" WAVE
TRACK 01 AUDIO
TITLE "World on Fire"
PERFORMER "Slash feat. Myles Kennedy & The Conspirators"
INDEX 01 00:00:00
TRACK 02 AUDIO
TITLE "Different Shades of Blue"
PERFORMER "Joe Bonamassa"
INDEX 00 04:30:10
FILE "02 - Joe Bonamassa - Different Shades of Blue.wav" WAVE
INDEX 01 00:00:00
TRACK 03 AUDIO
TITLE "1000hp"
PERFORMER "Godsmack"
INDEX 00 04:36:67
FILE "03 - Godsmack - 1000hp.wav" WAVE
INDEX 01 00:00:00
TRACK 04 AUDIO
TITLE "The Lost Song part 3"
PERFORMER "Anathema"
INDEX 00 03:45:62
FILE "04 - Anathema - The Lost Song part 3.wav" WAVE
INDEX 01 00:00:00
TRACK 05 AUDIO
TITLE "Ain't No Change"
PERFORMER "Blues Pills"
INDEX 00 05:17:65
FILE "05 - Blues Pills - Ain't No Change.wav" WAVE
INDEX 01 00:00:00
TRACK 06 AUDIO
TITLE "You Make Me"
PERFORMER "Cory Branan"
INDEX 00 04:59:06
FILE "06 - Cory Branan - You Make Me.wav" WAVE
INDEX 01 00:00:00
TRACK 07 AUDIO
TITLE "Ain't Got No"
PERFORMER "Black State Highway"
INDEX 00 03:10:49
FILE "07 - Black State Highway - Ain't Got No.wav" WAVE
INDEX 01 00:00:00
TRACK 08 AUDIO
TITLE "Janice The Stripper Pt 1"
PERFORMER "Henry's Funeral Shoe"
INDEX 00 04:05:20
FILE "08 - Henry's Funeral Shoe - Janice The Stripper Pt 1.wav" WAVE
INDEX 01 00:00:00
TRACK 09 AUDIO
TITLE "One Minute"
PERFORMER "Uriah Heep"
INDEX 00 03:21:16
FILE "09 - Uriah Heep - One Minute.wav" WAVE
INDEX 01 00:00:00
TRACK 10 AUDIO
TITLE "Watchtower on the Moon"
PERFORMER "Threshold"
INDEX 00 04:54:32
FILE "10 - Threshold - Watchtower on the Moon.wav" WAVE
INDEX 01 00:00:00
TRACK 11 AUDIO
TITLE "Ricochet"
PERFORMER "Tesla"
INDEX 00 05:31:34
FILE "11 - Tesla - Ricochet.wav" WAVE
INDEX 01 00:00:00
TRACK 12 AUDIO
TITLE "Danse Macabre"
PERFORMER "Purson"
INDEX 00 03:47:59
FILE "12 - Purson - Danse Macabre.wav" WAVE
INDEX 01 00:00:00
TRACK 13 AUDIO
TITLE "Kiss the Fire"
PERFORMER "Blackwolf"
INDEX 00 04:01:18
FILE "13 - Blackwolf - Kiss the Fire.wav" WAVE
INDEX 01 00:00:00
TRACK 14 AUDIO
TITLE "Who Says It Ain't Love"
PERFORMER "Ian McLagan and The Bump Band"
INDEX 00 03:18:35
FILE "14 - Ian McLagan and The Bump Band - Who Says It Ain't Love.wav" WAVE
INDEX 01 00:00:00
TRACK 15 AUDIO
TITLE "Words"
PERFORMER "Goat"
INDEX 00 04:04:23
FILE "15 - Goat - Words.wav" WAVE
INDEX 01 00:00:00

Скриншот спектра частот

To download the file disable ad blocking, and reload the page.

disable adblock How to disable ad blocking?

Download by magnet link 490 MB Download Torrent

Login using:

Similar topics

(Hard | Blues Rock) Rocaforza - 9 - 2018, MP3, 320 kbps
 82 MB   0 | 0   Today 13:35   0


   
Current time is: 15-Nov 23:38 :: All times are UTC + 3