Alternative Acoustic
Жанр: Acoustic Rock
Страна-производитель диска: EU
Год издания: 2006
Издатель (лейбл): Demon Music Group Ltd.
Номер по каталогу: MCDLX030
Аудиокодек: FLAC (*.flac)
Тип рипа: tracks+.cue
Битрейт аудио: lossless
Продолжительность: 1:06:54. + 0:42:09.
Источник (релизер): clustert
Наличие сканов в содержимом раздачи: да

CD1

01. Small Faces / The Autumn Stone [0:04:00.42]
02. Nick Drake / Time Has Told Me [0:04:25.47]
03. Paul Weller / Wildwood [0:03:23.46]
04. Eddie Brickell / What I Am [0:04:51.37]
05. Josh Rouse / 1972 [0:03:49.17]
06. Rod Stewart / You Wear It Well [0:04:07.61]
07. Van Morrison / Brown Eyed Girl [0:03:04.71]
08. Roddy Frame / Small World [0:03:51.34]
09. Stone Roses / Tears [0:06:50.49]
10. Gene Clark & Carla Olson / Fair and Tender Ladies [0:05:01.69]
11. Dr Robert / Coldheart [0:06:02.20]
12. Suzanne Vega / Marlene on the Wall [0:03:42.01]
13. Nilsson / Everybody's Talking [0:02:45.57]
14. Tim Buckley / Once I Was [0:03:37.23]
15. Terry Callier / Your Goin'Miss Your Canyman [0:07:19.48]

Лог создания рипа

Exact Audio Copy V1.0 beta 3 from 29. August 2011
Отчёт EAC об извлечении, выполненном 17. ноября 2014, 18:12
Various / Alternative Acoustic [CD1/2]
Дисковод: ASUS DRW-1814BLT Adapter: 4 ID: 0
Режим чтения : Достоверность
Использование точного потока : Да
Отключение кэша аудио : Да
Использование указателей C2 : Нет
Коррекция смещения при чтении : 6
Способность читать области Lead-in и Lead-out : Нет
Заполнение пропущенных сэмплов тишиной : Да
Удаление блоков с тишиной в начале и конце : Нет
При вычислениях CRC использовались нулевые сэмплы : Да
Интерфейс : Встроенный Win32-интерфейс для Win NT/2000
Обработка зазоров : Добавлено к предыдущему треку
Выходной формат : Пользовательский кодировщик
Выбранный битрейт : 128 kBit/s
Качество : Высокий
Добавление ID3-тега : Нет
Утилита сжатия : C:\Program Files\Exact Audio Copy\Flac\flac.exe
Дополнительные параметры : -V -8 -T "Genre=%genre%" -T "Artist=%artist%" -T "Title=%title%" -T "Album=%albumtitle%" -T "Date=%year%" -T "Tracknumber=%tracknr%" -T "Comment=EAC1.0b2 FLAC -8" %source%
TOC извлечённого CD
Трек | Старт | Длительность | Начальный сектор | Конечный сектор
---------------------------------------------------------------------
1 | 0:00.00 | 4:00.42 | 0 | 18041
2 | 4:00.42 | 4:25.47 | 18042 | 37963
3 | 8:26.14 | 3:23.46 | 37964 | 53234
4 | 11:49.60 | 4:51.37 | 53235 | 75096
5 | 16:41.22 | 3:49.17 | 75097 | 92288
6 | 20:30.39 | 4:07.61 | 92289 | 110874
7 | 24:38.25 | 3:04.71 | 110875 | 124745
8 | 27:43.21 | 3:51.34 | 124746 | 142104
9 | 31:34.55 | 6:50.49 | 142105 | 172903
10 | 38:25.29 | 5:01.69 | 172904 | 195547
11 | 43:27.23 | 6:02.20 | 195548 | 222717
12 | 49:29.43 | 3:42.01 | 222718 | 239368
13 | 53:11.44 | 2:45.57 | 239369 | 251800
14 | 55:57.26 | 3:37.23 | 251801 | 268098
15 | 59:34.49 | 7:19.48 | 268099 | 301071
Трек 1
Имя файла R:\Раздача 28\VA - Alternative Acoustic - 2006\CD1\01 The Autumn Stone.wav
Длина предзазора 0:00:02.00
Пиковый уровень 99.8 %
Скорость извлечения 4.9 X
Качество трека 100.0 %
CRC теста C48C90E9
CRC копии C48C90E9
Точное извлечение (достоверность 5) [1A761CE6] (AR v2)
Копирование... OK
Трек 2
Имя файла R:\Раздача 28\VA - Alternative Acoustic - 2006\CD1\02 Time Has Told Me.wav
Длина предзазора 0:00:01.51
Пиковый уровень 99.8 %
Скорость извлечения 5.6 X
Качество трека 100.0 %
CRC теста 1E93AF9B
CRC копии 1E93AF9B
Точное извлечение (достоверность 5) [6ECDD2DE] (AR v2)
Копирование... OK
Трек 3
Имя файла R:\Раздача 28\VA - Alternative Acoustic - 2006\CD1\03 Wildwood.wav
Длина предзазора 0:00:01.51
Пиковый уровень 96.6 %
Скорость извлечения 5.7 X
Качество трека 100.0 %
CRC теста 67002E4C
CRC копии 67002E4C
Точное извлечение (достоверность 5) [D9254610] (AR v2)
Копирование... OK
Трек 4
Имя файла R:\Раздача 28\VA - Alternative Acoustic - 2006\CD1\04 What I Am.wav
Длина предзазора 0:00:01.51
Пиковый уровень 99.8 %
Скорость извлечения 5.1 X
Качество трека 99.9 %
CRC теста 7CE9DBC0
CRC копии 7CE9DBC0
Точное извлечение (достоверность 5) [5BD3464C] (AR v2)
Копирование... OK
Трек 5
Имя файла R:\Раздача 28\VA - Alternative Acoustic - 2006\CD1\05 1972.wav
Длина предзазора 0:00:01.51
Пиковый уровень 89.2 %
Скорость извлечения 6.7 X
Качество трека 100.0 %
CRC теста DE2CFA67
CRC копии DE2CFA67
Точное извлечение (достоверность 5) [82A120CF] (AR v2)
Копирование... OK
Трек 6
Имя файла R:\Раздача 28\VA - Alternative Acoustic - 2006\CD1\06 You Wear It Well.wav
Длина предзазора 0:00:01.51
Пиковый уровень 99.8 %
Скорость извлечения 7.1 X
Качество трека 100.0 %
CRC теста 451F4EA8
CRC копии 451F4EA8
Точное извлечение (достоверность 5) [0AA336AC] (AR v2)
Копирование... OK
Трек 7
Имя файла R:\Раздача 28\VA - Alternative Acoustic - 2006\CD1\07 Brown Eyed Girl.wav
Длина предзазора 0:00:01.51
Пиковый уровень 99.8 %
Скорость извлечения 5.3 X
Качество трека 99.9 %
CRC теста 416292BF
CRC копии 416292BF
Точное извлечение (достоверность 5) [EB587C50] (AR v2)
Копирование... OK
Трек 8
Имя файла R:\Раздача 28\VA - Alternative Acoustic - 2006\CD1\08 Small World.wav
Длина предзазора 0:00:01.51
Пиковый уровень 68.9 %
Скорость извлечения 7.6 X
Качество трека 100.0 %
CRC теста 8C565E23
CRC копии 8C565E23
Точное извлечение (достоверность 5) [18033EAB] (AR v2)
Копирование... OK
Трек 9
Имя файла R:\Раздача 28\VA - Alternative Acoustic - 2006\CD1\09 Tears.wav
Длина предзазора 0:00:01.52
Пиковый уровень 75.0 %
Скорость извлечения 6.9 X
Качество трека 99.9 %
CRC теста 27919920
CRC копии 27919920
Точное извлечение (достоверность 5) [8D1FAE89] (AR v2)
Копирование... OK
Трек 10
Имя файла R:\Раздача 28\VA - Alternative Acoustic - 2006\CD1\10 Fair and Tender Ladies.wav
Длина предзазора 0:00:01.51
Пиковый уровень 98.8 %
Скорость извлечения 8.5 X
Качество трека 100.0 %
CRC теста E91A1BAC
CRC копии E91A1BAC
Точное извлечение (достоверность 5) [06AF06EE] (AR v2)
Копирование... OK
Трек 11
Имя файла R:\Раздача 28\VA - Alternative Acoustic - 2006\CD1\11 Coldheart.wav
Длина предзазора 0:00:01.51
Пиковый уровень 74.9 %
Скорость извлечения 8.8 X
Качество трека 100.0 %
CRC теста 3F277825
CRC копии 3F277825
Точное извлечение (достоверность 5) [FEC37517] (AR v2)
Копирование... OK
Трек 12
Имя файла R:\Раздача 28\VA - Alternative Acoustic - 2006\CD1\12 Marlene on the Wall.wav
Длина предзазора 0:00:01.51
Пиковый уровень 99.8 %
Скорость извлечения 7.8 X
Качество трека 100.0 %
CRC теста E5A047E6
CRC копии E5A047E6
Точное извлечение (достоверность 5) [32685280] (AR v2)
Копирование... OK
Трек 13
Имя файла R:\Раздача 28\VA - Alternative Acoustic - 2006\CD1\13 Everybody's Talking.wav
Длина предзазора 0:00:01.51
Пиковый уровень 91.1 %
Скорость извлечения 6.3 X
Качество трека 100.0 %
CRC теста 1CF8D8F9
CRC копии 1CF8D8F9
Точное извлечение (достоверность 5) [E9695B96] (AR v2)
Копирование... OK
Трек 14
Имя файла R:\Раздача 28\VA - Alternative Acoustic - 2006\CD1\14 Once I Was.wav
Длина предзазора 0:00:01.51
Пиковый уровень 99.8 %
Скорость извлечения 8.1 X
Качество трека 100.0 %
CRC теста 9CFFA5CA
CRC копии 9CFFA5CA
Точное извлечение (достоверность 5) [99E0043E] (AR v2)
Копирование... OK
Трек 15
Имя файла R:\Раздача 28\VA - Alternative Acoustic - 2006\CD1\15 Your Goin'Miss Your Canyman.wav
Длина предзазора 0:00:01.51
Пиковый уровень 95.4 %
Скорость извлечения 9.0 X
Качество трека 100.0 %
CRC теста 9F03D4DF
CRC копии 9F03D4DF
Точное извлечение (достоверность 5) [1B6813A2] (AR v2)
Копирование... OK
Все треки извлечены точно
Ошибок не произошло
Конец отчёта
==== Контрольная сумма отчёта 8090AD2DA5CA121B0C1D39E39183C800A48FDDB1EB5DBF3AA7F384F3B5E47D8B ====

Содержание индексной карты (.CUE)

REM GENRE Acoustic
REM DATE 2006
REM DISCID CC0FAE0F
REM COMMENT "ExactAudioCopy v1.0b3"
PERFORMER "Various"
TITLE "Alternative Acoustic [CD1/2]"
FILE "01 The Autumn Stone.wav" WAVE
TRACK 01 AUDIO
TITLE "The Autumn Stone"
PERFORMER "Small Faces"
INDEX 01 00:00:00
TRACK 02 AUDIO
TITLE "Time Has Told Me"
PERFORMER "Nick Drake"
INDEX 00 03:58:66
FILE "02 Time Has Told Me.wav" WAVE
INDEX 01 00:00:00
TRACK 03 AUDIO
TITLE "Wildwood"
PERFORMER "Paul Weller"
INDEX 00 04:23:71
FILE "03 Wildwood.wav" WAVE
INDEX 01 00:00:00
TRACK 04 AUDIO
TITLE "What I Am"
PERFORMER "Eddie Brickell"
INDEX 00 03:21:70
FILE "04 What I Am.wav" WAVE
INDEX 01 00:00:00
TRACK 05 AUDIO
TITLE "1972"
PERFORMER "Josh Rouse"
INDEX 00 04:49:61
FILE "05 1972.wav" WAVE
INDEX 01 00:00:00
TRACK 06 AUDIO
TITLE "You Wear It Well"
PERFORMER "Rod Stewart"
INDEX 00 03:47:41
FILE "06 You Wear It Well.wav" WAVE
INDEX 01 00:00:00
TRACK 07 AUDIO
TITLE "Brown Eyed Girl"
PERFORMER "Van Morrison"
INDEX 00 04:06:10
FILE "07 Brown Eyed Girl.wav" WAVE
INDEX 01 00:00:00
TRACK 08 AUDIO
TITLE "Small World"
PERFORMER "Roddy Frame"
INDEX 00 03:03:20
FILE "08 Small World.wav" WAVE
INDEX 01 00:00:00
TRACK 09 AUDIO
TITLE "Tears"
PERFORMER "Stone Roses"
INDEX 00 03:49:57
FILE "09 Tears.wav" WAVE
INDEX 01 00:00:00
TRACK 10 AUDIO
TITLE "Fair and Tender Ladies"
PERFORMER "Gene Clark & Carla Olson"
INDEX 00 06:48:73
FILE "10 Fair and Tender Ladies.wav" WAVE
INDEX 01 00:00:00
TRACK 11 AUDIO
TITLE "Coldheart"
PERFORMER "Dr Robert"
INDEX 00 05:00:18
FILE "11 Coldheart.wav" WAVE
INDEX 01 00:00:00
TRACK 12 AUDIO
TITLE "Marlene on the Wall"
PERFORMER "Suzanne Vega"
INDEX 00 06:00:44
FILE "12 Marlene on the Wall.wav" WAVE
INDEX 01 00:00:00
TRACK 13 AUDIO
TITLE "Everybody's Talking"
PERFORMER "Nilsson"
INDEX 00 03:40:25
FILE "13 Everybody's Talking.wav" WAVE
INDEX 01 00:00:00
TRACK 14 AUDIO
TITLE "Once I Was"
PERFORMER "Tim Buckley"
INDEX 00 02:44:06
FILE "14 Once I Was.wav" WAVE
INDEX 01 00:00:00
TRACK 15 AUDIO
TITLE "Your Goin'Miss Your Canyman"
PERFORMER "Terry Callier"
INDEX 00 03:35:47
FILE "15 Your Goin'Miss Your Canyman.wav" WAVE
INDEX 01 00:00:00

CD2

01. Elliott Smith / Say Yes [0:02:17.12]
02. Ryan Adams / My Winding Wheel [0:03:13.65]
03. Elvis Costello / New Amsterdam [0:02:13.39]
04. Tim Rose / Morning Dew [0:03:43.33]
05. Bert Jansch / Blackwater Side [0:03:47.19]
06. Traffic / 40,000 Headmen [0:03:16.23]
07. John Martyn / Solid Air [0:05:45.33]
08. The Rotary Connection / Amuse [0:04:02.04]
09. Janis Ian / At Seventeen [0:04:44.10]
10. Tim Hardin / If I were a Carpenter [0:02:41.45]
11. Free / My Brother Jake [0:02:56.14]
12. The Thorns / Think It Over [0:03:28.37]

Лог создания рипа

Exact Audio Copy V1.0 beta 3 from 29. August 2011
Отчёт EAC об извлечении, выполненном 17. ноября 2014, 19:02
Various / Alternative Acoustic - CD2
Дисковод: ASUS DRW-1814BLT Adapter: 4 ID: 0
Режим чтения : Достоверность
Использование точного потока : Да
Отключение кэша аудио : Да
Использование указателей C2 : Нет
Коррекция смещения при чтении : 6
Способность читать области Lead-in и Lead-out : Нет
Заполнение пропущенных сэмплов тишиной : Да
Удаление блоков с тишиной в начале и конце : Нет
При вычислениях CRC использовались нулевые сэмплы : Да
Интерфейс : Встроенный Win32-интерфейс для Win NT/2000
Обработка зазоров : Добавлено к предыдущему треку
Выходной формат : Пользовательский кодировщик
Выбранный битрейт : 128 kBit/s
Качество : Высокий
Добавление ID3-тега : Нет
Утилита сжатия : C:\Program Files\Exact Audio Copy\Flac\flac.exe
Дополнительные параметры : -V -8 -T "Genre=%genre%" -T "Artist=%artist%" -T "Title=%title%" -T "Album=%albumtitle%" -T "Date=%year%" -T "Tracknumber=%tracknr%" -T "Comment=EAC1.0b2 FLAC -8" %source%
TOC извлечённого CD
Трек | Старт | Длительность | Начальный сектор | Конечный сектор
---------------------------------------------------------------------
1 | 0:00.00 | 2:17.12 | 0 | 10286
2 | 2:17.12 | 3:13.65 | 10287 | 24826
3 | 5:31.02 | 2:13.39 | 24827 | 34840
4 | 7:44.41 | 3:43.33 | 34841 | 51598
5 | 11:27.74 | 3:47.19 | 51599 | 68642
6 | 15:15.18 | 3:16.23 | 68643 | 83365
7 | 18:31.41 | 5:45.33 | 83366 | 109273
8 | 24:16.74 | 4:02.04 | 109274 | 127427
9 | 28:19.03 | 4:44.10 | 127428 | 148737
10 | 33:03.13 | 2:41.45 | 148738 | 160857
11 | 35:44.58 | 2:56.14 | 160858 | 174071
12 | 38:40.72 | 3:28.37 | 174072 | 189708
Трек 1
Имя файла R:\Раздача 28\VA - Alternative Acoustic - 2006\CD2\01 Say Yes.wav
Длина предзазора 0:00:02.00
Пиковый уровень 99.8 %
Скорость извлечения 4.4 X
Качество трека 100.0 %
CRC теста 7BEDC78B
CRC копии 7BEDC78B
Точное извлечение (достоверность 5) [FE97185A] (AR v2)
Копирование... OK
Трек 2
Имя файла R:\Раздача 28\VA - Alternative Acoustic - 2006\CD2\02 My Winding Wheel.wav
Длина предзазора 0:00:01.51
Пиковый уровень 93.6 %
Скорость извлечения 3.7 X
Качество трека 99.9 %
CRC теста 6FDED0DB
CRC копии 6FDED0DB
Точное извлечение (достоверность 5) [3639F062] (AR v2)
Копирование... OK
Трек 3
Имя файла R:\Раздача 28\VA - Alternative Acoustic - 2006\CD2\03 New Amsterdam.wav
Длина предзазора 0:00:01.51
Пиковый уровень 91.7 %
Скорость извлечения 5.0 X
Качество трека 100.0 %
CRC теста 6C12D62E
CRC копии 6C12D62E
Точное извлечение (достоверность 5) [FA2D6913] (AR v2)
Копирование... OK
Трек 4
Имя файла R:\Раздача 28\VA - Alternative Acoustic - 2006\CD2\04 Morning Dew.wav
Длина предзазора 0:00:01.51
Пиковый уровень 94.4 %
Скорость извлечения 4.4 X
Качество трека 99.9 %
CRC теста 6597A4A0
CRC копии 6597A4A0
Точное извлечение (достоверность 5) [78DD746D] (AR v2)
Копирование... OK
Трек 5
Имя файла R:\Раздача 28\VA - Alternative Acoustic - 2006\CD2\05 Blackwater Side.wav
Длина предзазора 0:00:01.51
Пиковый уровень 99.8 %
Скорость извлечения 6.2 X
Качество трека 100.0 %
CRC теста 082D44C0
CRC копии 082D44C0
Точное извлечение (достоверность 5) [AB5F1C78] (AR v2)
Копирование... OK
Трек 6
Имя файла R:\Раздача 28\VA - Alternative Acoustic - 2006\CD2\06 40,000 Headmen.wav
Длина предзазора 0:00:01.51
Пиковый уровень 99.8 %
Скорость извлечения 6.4 X
Качество трека 100.0 %
CRC теста 03EF9558
CRC копии 03EF9558
Точное извлечение (достоверность 5) [B1CA7936] (AR v2)
Копирование... OK
Трек 7
Имя файла R:\Раздача 28\VA - Alternative Acoustic - 2006\CD2\07 Solid Air.wav
Длина предзазора 0:00:01.51
Пиковый уровень 99.8 %
Скорость извлечения 7.4 X
Качество трека 100.0 %
CRC теста 3A8525E9
CRC копии 3A8525E9
Точное извлечение (достоверность 5) [BF47D539] (AR v2)
Копирование... OK
Трек 8
Имя файла R:\Раздача 28\VA - Alternative Acoustic - 2006\CD2\08 Amuse.wav
Длина предзазора 0:00:01.51
Пиковый уровень 83.6 %
Скорость извлечения 7.4 X
Качество трека 100.0 %
CRC теста DF9EF86C
CRC копии DF9EF86C
Точное извлечение (достоверность 5) [AA8387BA] (AR v2)
Копирование... OK
Трек 9
Имя файла R:\Раздача 28\VA - Alternative Acoustic - 2006\CD2\09 At Seventeen.wav
Длина предзазора 0:00:01.51
Пиковый уровень 99.8 %
Скорость извлечения 8.0 X
Качество трека 100.0 %
CRC теста 2F7B2E48
CRC копии 2F7B2E48
Точное извлечение (достоверность 5) [5B9F20DD] (AR v2)
Копирование... OK
Трек 10
Имя файла R:\Раздача 28\VA - Alternative Acoustic - 2006\CD2\10 If I were a Carpenter.wav
Длина предзазора 0:00:01.51
Пиковый уровень 94.4 %
Скорость извлечения 5.3 X
Качество трека 100.0 %
CRC теста 890127E5
CRC копии 890127E5
Точное извлечение (достоверность 5) [D036A17A] (AR v2)
Копирование... OK
Трек 11
Имя файла R:\Раздача 28\VA - Alternative Acoustic - 2006\CD2\11 My Brother Jake.wav
Длина предзазора 0:00:01.52
Пиковый уровень 94.2 %
Скорость извлечения 7.6 X
Качество трека 100.0 %
CRC теста 10F238DB
CRC копии 10F238DB
Точное извлечение (достоверность 5) [3C0270D5] (AR v2)
Копирование... OK
Трек 12
Имя файла R:\Раздача 28\VA - Alternative Acoustic - 2006\CD2\12 Think It Over.wav
Длина предзазора 0:00:01.51
Пиковый уровень 81.7 %
Скорость извлечения 6.3 X
Качество трека 99.9 %
CRC теста 1CBC168B
CRC копии 1CBC168B
Точное извлечение (достоверность 5) [F6E98C06] (AR v2)
Копирование... OK
Все треки извлечены точно
Ошибок не произошло
Конец отчёта
==== Контрольная сумма отчёта B230A8195CF8AA31F6BF9A6682EF2E8067236D70FFA711A079796F8767F0D797 ====

Содержание индексной карты (.CUE)

REM GENRE Acoustic
REM DATE 2006
REM DISCID 9E09E10C
REM COMMENT "ExactAudioCopy v1.0b3"
PERFORMER "Various"
TITLE "Alternative Acoustic - CD2"
FILE "01 Say Yes.wav" WAVE
TRACK 01 AUDIO
TITLE "Say Yes"
PERFORMER "Elliott Smith"
INDEX 01 00:00:00
TRACK 02 AUDIO
TITLE "My Winding Wheel"
PERFORMER "Ryan Adams"
INDEX 00 02:15:36
FILE "02 My Winding Wheel.wav" WAVE
INDEX 01 00:00:00
TRACK 03 AUDIO
TITLE "New Amsterdam"
PERFORMER "Elvis Costello"
INDEX 00 03:12:14
FILE "03 New Amsterdam.wav" WAVE
INDEX 01 00:00:00
TRACK 04 AUDIO
TITLE "Morning Dew"
PERFORMER "Tim Rose"
INDEX 00 02:11:63
FILE "04 Morning Dew.wav" WAVE
INDEX 01 00:00:00
TRACK 05 AUDIO
TITLE "Blackwater Side"
PERFORMER "Bert Jansch"
INDEX 00 03:41:57
FILE "05 Blackwater Side.wav" WAVE
INDEX 01 00:00:00
TRACK 06 AUDIO
TITLE "40,000 Headmen"
PERFORMER "Traffic"
INDEX 00 03:45:43
FILE "06 40,000 Headmen.wav" WAVE
INDEX 01 00:00:00
TRACK 07 AUDIO
TITLE "Solid Air"
PERFORMER "John Martyn"
INDEX 00 03:14:47
FILE "07 Solid Air.wav" WAVE
INDEX 01 00:00:00
TRACK 08 AUDIO
TITLE "Amuse"
PERFORMER " The Rotary Connection"
INDEX 00 05:43:57
FILE "08 Amuse.wav" WAVE
INDEX 01 00:00:00
TRACK 09 AUDIO
TITLE "At Seventeen"
PERFORMER "Janis Ian"
INDEX 00 04:00:28
FILE "09 At Seventeen.wav" WAVE
INDEX 01 00:00:00
TRACK 10 AUDIO
TITLE "If I were a Carpenter"
PERFORMER "Tim Hardin"
INDEX 00 04:42:34
FILE "10 If I were a Carpenter.wav" WAVE
INDEX 01 00:00:00
TRACK 11 AUDIO
TITLE "My Brother Jake"
PERFORMER "Free"
INDEX 00 02:39:68
FILE "11 My Brother Jake.wav" WAVE
INDEX 01 00:00:00
TRACK 12 AUDIO
TITLE "Think It Over"
PERFORMER "The Thorns"
INDEX 00 02:54:38
FILE "12 Think It Over.wav" WAVE
INDEX 01 00:00:00

To download the file disable ad blocking, and reload the page.

disable adblock How to disable ad blocking?

Download by magnet link 665 MB Download Torrent

Login using:

Similar topics



   
Current time is: 18-Sep 17:39 :: All times are UTC ± 0