It Had To Be You.The Ultimate Love Songs

Жанр: Pop Rock, Ballad
Носитель: CD
Год издания: 2014
Издатель (лейбл): Sony
Номер по каталогу: 88843027302
Аудиокодек: FLAC (*.flac)
Тип рипа: tracks+.cue
Битрейт аудио: lossless
Продолжительность: 03:46:58
Источник (релизер): what.cd
Наличие сканов в содержимом раздачи: да
Треклист:

CD1


Продолжительность: 01:17:46
01. Coldplay - Fix You [04:55]
02. Lily Allen - Somewhere Only We Know [03:29]
03. Gabrielle Aplin - The Power Of Love [04:06]
04. Labrinth feat. Emeli Sande - Beneath Your Beautiful [03:57]
05. Christina Perri - Jar Of Hearts [03:34]
06. Dido - White Flag [03:37]
07. P!nk Feat. Nate Ruess - Just Give Me A Reason [04:04]
08. Bruno Mars - Just The Way You Are [03:40]
09. Annie Lennox - No More ,I Love You's [04:52]
10. Savage Garden - I Knew I Loved You [03:49]
11. Natasha Bedingfield - These Words [03:36]
12. Jason Mraz - I'm Yours [04:03]
13. David Gray - Babylon [04:25]
14. Birdy - Skinny Love [03:22]
15. Tom Odell - Another Love [03:48]
16. The Script - For The First Time [04:12]
17. Sixpence None The Richer - Kiss Me [03:29]
18. Jose Gonzalez - Heartbeats [02:40]
19. James Blunt - Bonfire Heart [03:58]
20. John Legend - Ordinary People [04:01]

log and sheet

Log

Exact Audio Copy V1.0 beta 3 from 29. August 2011
EAC extraction logfile from 13. November 2014, 14:38
Various Artists / It Had To Be You CD1
Used drive : ASUS SDRW-08D2S-U Adapter: 1 ID: 0
Read mode : Secure
Utilize accurate stream : Yes
Defeat audio cache : Yes
Make use of C2 pointers : No
Read offset correction : 6
Overread into Lead-In and Lead-Out : No
Fill up missing offset samples with silence : Yes
Delete leading and trailing silent blocks : No
Null samples used in CRC calculations : Yes
Used interface : Native Win32 interface for Win NT & 2000
Gap handling : Appended to previous track
Used output format : User Defined Encoder
Selected bitrate : 128 kBit/s
Quality : High
Add ID3 tag : No
Command line compressor : C:\Program Files (x86)\Exact Audio Copy\Flac\flac.exe
Additional command line options : -8 -V -T "ARTIST=%artist%" -T "TITLE=%title%" -T "ALBUM=%albumtitle%" -T "DATE=%year%" -T "TRACKNUMBER=%tracknr%" -T "TOTALTRACKS=%numtracks%" -T "GENRE=%genre%" -T "ALBUMARTIST=%albumartist%" -T "ALBUM ARTIST=%albumartist%" -T "COMMENT=EAC Secure Mode, Test & Copy, AccurateRip, FLAC -8" %source%
TOC of the extracted CD
Track | Start | Length | Start sector | End sector
---------------------------------------------------------
1 | 0:00.00 | 4:55.03 | 0 | 22127
2 | 4:55.03 | 3:29.71 | 22128 | 37873
3 | 8:24.74 | 4:06.21 | 37874 | 56344
4 | 12:31.20 | 3:57.72 | 56345 | 74191
5 | 16:29.17 | 3:34.08 | 74192 | 90249
6 | 20:03.25 | 3:37.41 | 90250 | 106565
7 | 23:40.66 | 4:04.21 | 106566 | 124886
8 | 27:45.12 | 3:40.64 | 124887 | 141450
9 | 31:26.01 | 4:52.22 | 141451 | 163372
10 | 36:18.23 | 3:49.01 | 163373 | 180548
11 | 40:07.24 | 3:36.51 | 180549 | 196799
12 | 43:44.00 | 4:03.12 | 196800 | 215036
13 | 47:47.12 | 4:25.43 | 215037 | 234954
14 | 52:12.55 | 3:22.21 | 234955 | 250125
15 | 55:35.01 | 3:48.16 | 250126 | 267241
16 | 59:23.17 | 4:12.49 | 267242 | 286190
17 | 63:35.66 | 3:29.61 | 286191 | 301926
18 | 67:05.52 | 2:40.64 | 301927 | 313990
19 | 69:46.41 | 3:58.07 | 313991 | 331847
20 | 73:44.48 | 4:01.63 | 331848 | 349985
Track 1
Filename D:\Subir\01 - Coldplay - Fix You.wav
Pre-gap length 0:00:02.00
Peak level 82.4 %
Extraction speed 2.4 X
Track quality 100.0 %
Test CRC DF63B7D4
Copy CRC DF63B7D4
Accurately ripped (confidence 1) [222AC293] (AR v2)
Copy OK
Track 2
Filename D:\Subir\02 - Lily Allen - Somewhere Only We Know.wav
Pre-gap length 0:00:00.31
Peak level 88.1 %
Extraction speed 2.6 X
Track quality 100.0 %
Test CRC D3028DAC
Copy CRC D3028DAC
Accurately ripped (confidence 1) [56562BAC] (AR v2)
Copy OK
Track 3
Filename D:\Subir\03 - Gabrielle Aplin - The Power Of Love.wav
Pre-gap length 0:00:01.60
Peak level 98.9 %
Extraction speed 2.8 X
Track quality 100.0 %
Test CRC 32C694E4
Copy CRC 32C694E4
Accurately ripped (confidence 1) [FA44BF6A] (AR v2)
Copy OK
Track 4
Filename D:\Subir\04 - Labrinth feat. Emeli Sande - Beneath Your Beautiful.wav
Pre-gap length 0:00:01.60
Peak level 89.1 %
Extraction speed 3.0 X
Track quality 100.0 %
Test CRC B83A80BA
Copy CRC B83A80BA
Accurately ripped (confidence 1) [A3AC08AB] (AR v2)
Copy OK
Track 5
Filename D:\Subir\05 - Christina Perri - Jar Of Hearts.wav
Pre-gap length 0:00:01.60
Peak level 84.1 %
Extraction speed 2.5 X
Track quality 99.9 %
Test CRC 7E0972A4
Copy CRC 7E0972A4
Accurately ripped (confidence 1) [7DBFF408] (AR v2)
Copy OK
Track 6
Filename D:\Subir\06 - Dido - White Flag.wav
Pre-gap length 0:00:01.60
Peak level 84.1 %
Extraction speed 3.3 X
Track quality 100.0 %
Test CRC E7C9A312
Copy CRC E7C9A312
Accurately ripped (confidence 1) [297F4D49] (AR v2)
Copy OK
Track 7
Filename D:\Subir\07 - P!nk Feat. Nate Ruess - Just Give Me A Reason.wav
Pre-gap length 0:00:01.60
Peak level 99.9 %
Extraction speed 3.5 X
Track quality 100.0 %
Test CRC 3B851141
Copy CRC 3B851141
Accurately ripped (confidence 1) [0C9FD468] (AR v2)
Copy OK
Track 8
Filename D:\Subir\08 - Bruno Mars - Just The Way You Are.wav
Pre-gap length 0:00:01.60
Peak level 89.1 %
Extraction speed 3.6 X
Track quality 100.0 %
Test CRC DBEE665A
Copy CRC DBEE665A
Accurately ripped (confidence 1) [B0B7D3D6] (AR v2)
Copy OK
Track 9
Filename D:\Subir\09 - Annie Lennox - No More ,I Love You's.wav
Pre-gap length 0:00:00.57
Peak level 98.2 %
Extraction speed 3.9 X
Track quality 100.0 %
Test CRC 50778952
Copy CRC 50778952
Accurately ripped (confidence 1) [637C3BA0] (AR v2)
Copy OK
Track 10
Filename D:\Subir\10 - Savage Garden - I Knew I Loved You.wav
Pre-gap length 0:00:01.60
Peak level 98.9 %
Extraction speed 3.9 X
Track quality 100.0 %
Test CRC F2E95067
Copy CRC F2E95067
Accurately ripped (confidence 1) [86F9D2BF] (AR v2)
Copy OK
Track 11
Filename D:\Subir\11 - Natasha Bedingfield - These Words.wav
Pre-gap length 0:00:01.60
Peak level 89.1 %
Extraction speed 4.0 X
Track quality 100.0 %
Test CRC 95A907E6
Copy CRC 95A907E6
Accurately ripped (confidence 1) [557A7B6A] (AR v2)
Copy OK
Track 12
Filename D:\Subir\12 - Jason Mraz - I'm Yours.wav
Pre-gap length 0:00:01.60
Peak level 85.7 %
Extraction speed 4.2 X
Track quality 100.0 %
Test CRC F4B34667
Copy CRC F4B34667
Accurately ripped (confidence 1) [EE638E4B] (AR v2)
Copy OK
Track 13
Filename D:\Subir\13 - David Gray - Babylon.wav
Pre-gap length 0:00:01.60
Peak level 98.8 %
Extraction speed 3.5 X
Track quality 99.9 %
Test CRC 553F4779
Copy CRC 553F4779
Accurately ripped (confidence 1) [81DA72C0] (AR v2)
Copy OK
Track 14
Filename D:\Subir\14 - Birdy - Skinny Love.wav
Pre-gap length 0:00:01.60
Peak level 68.5 %
Extraction speed 4.3 X
Track quality 100.0 %
Test CRC 7840D1C5
Copy CRC 7840D1C5
Accurately ripped (confidence 1) [3CC8612E] (AR v2)
Copy OK
Track 15
Filename D:\Subir\15 - Tom Odell - Another Love.wav
Pre-gap length 0:00:01.60
Peak level 81.4 %
Extraction speed 4.4 X
Track quality 100.0 %
Test CRC AF040FAE
Copy CRC AF040FAE
Accurately ripped (confidence 1) [A66C6859] (AR v2)
Copy OK
Track 16
Filename D:\Subir\16 - The Script - For The First Time.wav
Pre-gap length 0:00:01.60
Peak level 73.3 %
Extraction speed 3.7 X
Track quality 99.9 %
Test CRC D7BF0CB1
Copy CRC D7BF0CB1
Accurately ripped (confidence 1) [83274F4B] (AR v2)
Copy OK
Track 17
Filename D:\Subir\17 - Sixpence None The Richer - Kiss Me.wav
Pre-gap length 0:00:01.60
Peak level 88.1 %
Extraction speed 3.5 X
Track quality 99.9 %
Test CRC 1514CA02
Copy CRC 1514CA02
Accurately ripped (confidence 1) [B660675E] (AR v2)
Copy OK
Track 18
Filename D:\Subir\18 - Jose Gonzalez - Heartbeats.wav
Pre-gap length 0:00:01.60
Peak level 89.1 %
Extraction speed 4.4 X
Track quality 100.0 %
Test CRC 1816BC38
Copy CRC 1816BC38
Accurately ripped (confidence 1) [0799B115] (AR v2)
Copy OK
Track 19
Filename D:\Subir\19 - James Blunt - Bonfire Heart.wav
Pre-gap length 0:00:01.60
Peak level 77.7 %
Extraction speed 4.9 X
Track quality 100.0 %
Test CRC 28020FDB
Copy CRC 28020FDB
Accurately ripped (confidence 1) [FE0BC133] (AR v2)
Copy OK
Track 20
Filename D:\Subir\20 - John Legend - Ordinary People.wav
Pre-gap length 0:00:01.60
Peak level 98.8 %
Extraction speed 5.0 X
Track quality 100.0 %
Test CRC F82ECFDF
Copy CRC F82ECFDF
Accurately ripped (confidence 1) [8BE20258] (AR v2)
Copy OK
All tracks accurately ripped
No errors occurred
End of status report
---- CUETools DB Plugin V2.1.3
[CTDB TOCID: 1.cxilM70Cworyc2OeHyn89VZXM-] disk not present in database, Submit result: 1.cxilM70Cworyc2OeHyn89VZXM- has been uploaded
==== Log checksum 504E80F7C45D7F00372EEABD38502F1BEF60ABE75E7986D4F8ACF4D9CAD34767 ====

CUE

REM DISCID 36123A14
REM COMMENT "ExactAudioCopy v1.0b3"
PERFORMER "Various Artists"
TITLE "It Had To Be You CD1"
FILE "01 - Coldplay - Fix You.wav" WAVE
TRACK 01 AUDIO
TITLE "Fix You"
PERFORMER "Coldplay"
INDEX 01 00:00:00
TRACK 02 AUDIO
TITLE "Somewhere Only We Know"
PERFORMER "Lily Allen"
INDEX 00 04:54:47
FILE "02 - Lily Allen - Somewhere Only We Know.wav" WAVE
INDEX 01 00:00:00
TRACK 03 AUDIO
TITLE "The Power Of Love"
PERFORMER "Gabrielle Aplin"
INDEX 00 03:28:11
FILE "03 - Gabrielle Aplin - The Power Of Love.wav" WAVE
INDEX 01 00:00:00
TRACK 04 AUDIO
TITLE "Beneath Your Beautiful"
PERFORMER "Labrinth feat. Emeli Sande"
INDEX 00 04:04:36
FILE "04 - Labrinth feat. Emeli Sande - Beneath Your Beautiful.wav" WAVE
INDEX 01 00:00:00
TRACK 05 AUDIO
TITLE "Jar Of Hearts"
PERFORMER "Christina Perri"
INDEX 00 03:56:12
FILE "05 - Christina Perri - Jar Of Hearts.wav" WAVE
INDEX 01 00:00:00
TRACK 06 AUDIO
TITLE "White Flag"
PERFORMER "Dido"
INDEX 00 03:32:23
FILE "06 - Dido - White Flag.wav" WAVE
INDEX 01 00:00:00
TRACK 07 AUDIO
TITLE "Just Give Me A Reason"
PERFORMER "P!nk Feat. Nate Ruess"
INDEX 00 03:35:56
FILE "07 - P!nk Feat. Nate Ruess - Just Give Me A Reason.wav" WAVE
INDEX 01 00:00:00
TRACK 08 AUDIO
TITLE "Just The Way You Are"
PERFORMER "Bruno Mars"
INDEX 00 04:02:36
FILE "08 - Bruno Mars - Just The Way You Are.wav" WAVE
INDEX 01 00:00:00
TRACK 09 AUDIO
TITLE "No More ,I Love You's"
PERFORMER "Annie Lennox"
INDEX 00 03:40:07
FILE "09 - Annie Lennox - No More ,I Love You's.wav" WAVE
INDEX 01 00:00:00
TRACK 10 AUDIO
TITLE "I Knew I Loved You"
PERFORMER "Savage Garden"
INDEX 00 04:50:37
FILE "10 - Savage Garden - I Knew I Loved You.wav" WAVE
INDEX 01 00:00:00
TRACK 11 AUDIO
TITLE "These Words"
PERFORMER "Natasha Bedingfield"
INDEX 00 03:47:16
FILE "11 - Natasha Bedingfield - These Words.wav" WAVE
INDEX 01 00:00:00
TRACK 12 AUDIO
TITLE "I'm Yours"
PERFORMER "Jason Mraz"
INDEX 00 03:34:66
FILE "12 - Jason Mraz - I'm Yours.wav" WAVE
INDEX 01 00:00:00
TRACK 13 AUDIO
TITLE "Babylon"
PERFORMER "David Gray"
INDEX 00 04:01:27
FILE "13 - David Gray - Babylon.wav" WAVE
INDEX 01 00:00:00
TRACK 14 AUDIO
TITLE "Skinny Love"
PERFORMER "Birdy"
INDEX 00 04:23:58
FILE "14 - Birdy - Skinny Love.wav" WAVE
INDEX 01 00:00:00
TRACK 15 AUDIO
TITLE "Another Love"
PERFORMER "Tom Odell"
INDEX 00 03:20:36
FILE "15 - Tom Odell - Another Love.wav" WAVE
INDEX 01 00:00:00
TRACK 16 AUDIO
TITLE "For The First Time"
PERFORMER "The Script"
INDEX 00 03:46:31
FILE "16 - The Script - For The First Time.wav" WAVE
INDEX 01 00:00:00
TRACK 17 AUDIO
TITLE "Kiss Me"
PERFORMER "Sixpence None The Richer"
INDEX 00 04:10:64
FILE "17 - Sixpence None The Richer - Kiss Me.wav" WAVE
INDEX 01 00:00:00
TRACK 18 AUDIO
TITLE "Heartbeats"
PERFORMER "Jose Gonzalez"
INDEX 00 03:28:01
FILE "18 - Jose Gonzalez - Heartbeats.wav" WAVE
INDEX 01 00:00:00
TRACK 19 AUDIO
TITLE "Bonfire Heart"
PERFORMER "James Blunt"
INDEX 00 02:39:04
FILE "19 - James Blunt - Bonfire Heart.wav" WAVE
INDEX 01 00:00:00
TRACK 20 AUDIO
TITLE "Ordinary People"
PERFORMER "John Legend"
INDEX 00 03:56:22
FILE "20 - John Legend - Ordinary People.wav" WAVE
INDEX 01 00:00:00

CD2


Продолжительность: 01:19:08
01. Simply Red - Stars [04:09]
02. Marvin Gaye - Sexual Healing [03:58]
03. Luther Vandross - Never Too Much [03:52]
04. Spandau Ballet - True [05:32]
05. Bill Withers - Lovely Day [04:12]
06. George Michael & Aretha Franklin - I Knew You Were Waiting (For Me) [04:02]
07. Van Morrison - Brown Eyed Girl [03:05]
08. Celine Dion - Because You Loved Me [04:34]
09. Cyndi Lauper - True Colors [03:48]
10. Alicia Keys - Fallin' [03:17]
11. Justin Timberlake - Like I Love You [04:45]
12. Usher - You Make Me Wanna... [03:41]
13. Fugees - Killing Me Softly With His Song [04:01]
14. Billy Ocean - Suddenly [03:53]
15. The O'Jays - Love Train [02:59]
16. Rebecca Ferguson - Nothing's Real But Love [02:53]
17. Jennifer Hudson - If This Isnt Love [03:37]
18. Des'ree - I'm Kissing You (Love Theme from 'Romeo And Juliet') [04:05]
19. Sade - By Your Side [04:40]
20. Whitney Houston - Saving All My Love For You [03:55]

log and sheet

Log

Exact Audio Copy V1.0 beta 3 from 29. August 2011
EAC extraction logfile from 13. November 2014, 15:34
Various Artists / It Had To Be You CD2
Used drive : ASUS SDRW-08D2S-U Adapter: 1 ID: 0
Read mode : Secure
Utilize accurate stream : Yes
Defeat audio cache : Yes
Make use of C2 pointers : No
Read offset correction : 6
Overread into Lead-In and Lead-Out : No
Fill up missing offset samples with silence : Yes
Delete leading and trailing silent blocks : No
Null samples used in CRC calculations : Yes
Used interface : Native Win32 interface for Win NT & 2000
Gap handling : Appended to previous track
Used output format : User Defined Encoder
Selected bitrate : 128 kBit/s
Quality : High
Add ID3 tag : No
Command line compressor : C:\Program Files (x86)\Exact Audio Copy\Flac\flac.exe
Additional command line options : -8 -V -T "ARTIST=%artist%" -T "TITLE=%title%" -T "ALBUM=%albumtitle%" -T "DATE=%year%" -T "TRACKNUMBER=%tracknr%" -T "TOTALTRACKS=%numtracks%" -T "GENRE=%genre%" -T "ALBUMARTIST=%albumartist%" -T "ALBUM ARTIST=%albumartist%" -T "COMMENT=EAC Secure Mode, Test & Copy, AccurateRip, FLAC -8" %source%
TOC of the extracted CD
Track | Start | Length | Start sector | End sector
---------------------------------------------------------
1 | 0:00.00 | 4:09.17 | 0 | 18691
2 | 4:09.17 | 3:58.39 | 18692 | 36580
3 | 8:07.56 | 3:52.03 | 36581 | 53983
4 | 11:59.59 | 5:32.54 | 53984 | 78937
5 | 17:32.38 | 4:12.58 | 78938 | 97895
6 | 21:45.21 | 4:02.06 | 97896 | 116051
7 | 25:47.27 | 3:05.22 | 116052 | 129948
8 | 28:52.49 | 4:34.60 | 129949 | 150558
9 | 33:27.34 | 3:48.14 | 150559 | 167672
10 | 37:15.48 | 3:17.41 | 167673 | 182488
11 | 40:33.14 | 4:45.44 | 182489 | 203907
12 | 45:18.58 | 3:41.42 | 203908 | 220524
13 | 49:00.25 | 4:01.02 | 220525 | 238601
14 | 53:01.27 | 3:53.06 | 238602 | 256082
15 | 56:54.33 | 2:59.50 | 256083 | 269557
16 | 59:54.08 | 2:53.68 | 269558 | 282600
17 | 62:48.01 | 3:37.54 | 282601 | 298929
18 | 66:25.55 | 4:05.61 | 298930 | 317365
19 | 70:31.41 | 4:40.59 | 317366 | 338424
20 | 75:12.25 | 3:55.58 | 338425 | 356107
Track 1
Filename D:\Subir\01 - Simply Red - Stars.wav
Pre-gap length 0:00:02.00
Peak level 98.9 %
Extraction speed 2.8 X
Track quality 100.0 %
Test CRC 7EB21186
Copy CRC 7EB21186
Accurately ripped (confidence 1) [BB63BFA2] (AR v2)
Copy OK
Track 2
Filename D:\Subir\02 - Marvin Gaye - Sexual Healing.wav
Pre-gap length 0:00:00.29
Peak level 98.9 %
Extraction speed 3.2 X
Track quality 100.0 %
Test CRC 8F791AF8
Copy CRC 8F791AF8
Accurately ripped (confidence 1) [B0DFB9C8] (AR v2)
Copy OK
Track 3
Filename D:\Subir\03 - Luther Vandross - Never Too Much.wav
Pre-gap length 0:00:01.60
Peak level 98.9 %
Extraction speed 2.8 X
Track quality 99.9 %
Test CRC DAB08539
Copy CRC DAB08539
Accurately ripped (confidence 1) [73294030] (AR v2)
Copy OK
Track 4
Filename D:\Subir\04 - Spandau Ballet - True.wav
Pre-gap length 0:00:01.15
Peak level 98.9 %
Extraction speed 3.7 X
Track quality 100.0 %
Test CRC AF2E2BF8
Copy CRC AF2E2BF8
Accurately ripped (confidence 1) [B24DB2AF] (AR v2)
Copy OK
Track 5
Filename D:\Subir\05 - Bill Withers - Lovely Day.wav
Peak level 98.9 %
Extraction speed 3.8 X
Track quality 100.0 %
Test CRC C6DF7DE1
Copy CRC C6DF7DE1
Accurately ripped (confidence 1) [4B703290] (AR v2)
Copy OK
Track 6
Filename D:\Subir\06 - George Michael & Aretha Franklin - I Knew You Were Waiting (For Me).wav
Pre-gap length 0:00:01.60
Peak level 98.0 %
Extraction speed 4.0 X
Track quality 100.0 %
Test CRC 345EABFA
Copy CRC 345EABFA
Accurately ripped (confidence 1) [6E23052F] (AR v2)
Copy OK
Track 7
Filename D:\Subir\07 - Van Morrison - Brown Eyed Girl.wav
Pre-gap length 0:00:01.60
Peak level 98.9 %
Extraction speed 4.0 X
Track quality 100.0 %
Test CRC 4E4112EF
Copy CRC 4E4112EF
Accurately ripped (confidence 1) [E08EFF02] (AR v2)
Copy OK
Track 8
Filename D:\Subir\08 - Celine Dion - Because You Loved Me.wav
Pre-gap length 0:00:01.60
Peak level 98.9 %
Extraction speed 4.4 X
Track quality 100.0 %
Test CRC BEDF81EB
Copy CRC BEDF81EB
Accurately ripped (confidence 1) [AC5D7DBF] (AR v2)
Copy OK
Track 9
Filename D:\Subir\09 - Cyndi Lauper - True Colors.wav
Pre-gap length 0:00:01.59
Peak level 98.9 %
Extraction speed 4.4 X
Track quality 100.0 %
Test CRC 837B6920
Copy CRC 837B6920
Accurately ripped (confidence 1) [4F16EC9C] (AR v2)
Copy OK
Track 10
Filename D:\Subir\10 - Alicia Keys - Fallin'.wav
Pre-gap length 0:00:01.60
Peak level 88.1 %
Extraction speed 3.5 X
Track quality 99.9 %
Test CRC FDA60E72
Copy CRC FDA60E72
Accurately ripped (confidence 1) [74226C5F] (AR v2)
Copy OK
Track 11
Filename D:\Subir\11 - Justin Timberlake - Like I Love You.wav
Pre-gap length 0:00:01.60
Peak level 75.0 %
Extraction speed 4.8 X
Track quality 100.0 %
Test CRC C05D505C
Copy CRC C05D505C
Accurately ripped (confidence 1) [C1B463BD] (AR v2)
Copy OK
Track 12
Filename D:\Subir\12 - Usher - You Make Me Wanna....wav
Pre-gap length 0:00:01.60
Peak level 96.6 %
Extraction speed 4.8 X
Track quality 100.0 %
Test CRC 8914D8E9
Copy CRC 8914D8E9
Accurately ripped (confidence 1) [EAEE24F2] (AR v2)
Copy OK
Track 13
Filename D:\Subir\13 - Fugees - Killing Me Softly With His Song.wav
Pre-gap length 0:00:01.60
Peak level 88.9 %
Extraction speed 3.6 X
Track quality 99.9 %
Test CRC 52303D65
Copy CRC 52303D65
Accurately ripped (confidence 1) [4AD677DB] (AR v2)
Copy OK
Track 14
Filename D:\Subir\14 - Billy Ocean - Suddenly.wav
Pre-gap length 0:00:01.60
Peak level 98.8 %
Extraction speed 5.0 X
Track quality 100.0 %
Test CRC A80AEDB1
Copy CRC A80AEDB1
Accurately ripped (confidence 1) [0D1E2BBD] (AR v2)
Copy OK
Track 15
Filename D:\Subir\15 - The O'Jays - Love Train.wav
Pre-gap length 0:00:01.60
Peak level 98.8 %
Extraction speed 5.0 X
Track quality 100.0 %
Test CRC E89411B5
Copy CRC E89411B5
Accurately ripped (confidence 1) [519934E6] (AR v2)
Copy OK
Track 16
Filename D:\Subir\16 - Rebecca Ferguson - Nothing's Real But Love.wav
Pre-gap length 0:00:01.58
Peak level 99.8 %
Extraction speed 5.0 X
Track quality 100.0 %
Test CRC 3008A6FB
Copy CRC 3008A6FB
Accurately ripped (confidence 1) [01A5C4FA] (AR v2)
Copy OK
Track 17
Filename D:\Subir\17 - Jennifer Hudson - If This Isnt Love.wav
Pre-gap length 0:00:01.60
Peak level 86.3 %
Extraction speed 5.3 X
Track quality 100.0 %
Test CRC A788236E
Copy CRC A788236E
Accurately ripped (confidence 1) [AD9A4701] (AR v2)
Copy OK
Track 18
Filename D:\Subir\18 - Des'ree - I'm Kissing You (Love Theme from ''Romeo And Juliet'').wav
Pre-gap length 0:00:01.60
Peak level 98.8 %
Extraction speed 5.6 X
Track quality 100.0 %
Test CRC 146585F6
Copy CRC 146585F6
Accurately ripped (confidence 1) [666A6796] (AR v2)
Copy OK
Track 19
Filename D:\Subir\19 - Sade - By Your Side.wav
Pre-gap length 0:00:01.60
Peak level 98.9 %
Extraction speed 5.7 X
Track quality 100.0 %
Test CRC DEED92C9
Copy CRC DEED92C9
Accurately ripped (confidence 1) [5DBD12B7] (AR v2)
Copy OK
Track 20
Filename D:\Subir\20 - Whitney Houston - Saving All My Love For You.wav
Pre-gap length 0:00:01.60
Peak level 91.2 %
Extraction speed 5.7 X
Track quality 100.0 %
Test CRC 43B43BFA
Copy CRC 43B43BFA
Accurately ripped (confidence 1) [8D19D076] (AR v2)
Copy OK
All tracks accurately ripped
No errors occurred
End of status report
---- CUETools DB Plugin V2.1.3
[CTDB TOCID: r15YHIbDWr0eQuNQRNuFtEvd510-] disk not present in database, Submit result: r15YHIbDWr0eQuNQRNuFtEvd510- has been uploaded
==== Log checksum 7293230125459D047D73BE26BF1D9770E7094D53C83C5CB0F6BD3E34996037BA ====

CUE

REM DISCID 1E128C14
REM COMMENT "ExactAudioCopy v1.0b3"
PERFORMER "Various Artists"
TITLE "It Had To Be You CD2"
FILE "01 - Simply Red - Stars.wav" WAVE
TRACK 01 AUDIO
TITLE "Stars"
PERFORMER "Simply Red"
INDEX 01 00:00:00
TRACK 02 AUDIO
TITLE "Sexual Healing"
PERFORMER "Marvin Gaye"
INDEX 00 04:08:63
FILE "02 - Marvin Gaye - Sexual Healing.wav" WAVE
INDEX 01 00:00:00
TRACK 03 AUDIO
TITLE "Never Too Much"
PERFORMER "Luther Vandross"
INDEX 00 03:56:54
FILE "03 - Luther Vandross - Never Too Much.wav" WAVE
INDEX 01 00:00:00
TRACK 04 AUDIO
TITLE "True"
PERFORMER "Spandau Ballet"
INDEX 00 03:50:63
FILE "04 - Spandau Ballet - True.wav" WAVE
INDEX 01 00:00:00
FILE "05 - Bill Withers - Lovely Day.wav" WAVE
TRACK 05 AUDIO
TITLE "Lovely Day"
PERFORMER "Bill Withers"
INDEX 01 00:00:00
TRACK 06 AUDIO
TITLE "I Knew You Were Waiting (For Me)"
PERFORMER "George Michael & Aretha Franklin"
INDEX 00 04:10:73
FILE "06 - George Michael & Aretha Franklin - I Knew You Were Waiting (For Me).wav" WAVE
INDEX 01 00:00:00
TRACK 07 AUDIO
TITLE "Brown Eyed Girl"
PERFORMER "Van Morrison"
INDEX 00 04:00:21
FILE "07 - Van Morrison - Brown Eyed Girl.wav" WAVE
INDEX 01 00:00:00
TRACK 08 AUDIO
TITLE "Because You Loved Me"
PERFORMER "Celine Dion"
INDEX 00 03:03:37
FILE "08 - Celine Dion - Because You Loved Me.wav" WAVE
INDEX 01 00:00:00
TRACK 09 AUDIO
TITLE "True Colors"
PERFORMER "Cyndi Lauper"
INDEX 00 04:33:01
FILE "09 - Cyndi Lauper - True Colors.wav" WAVE
INDEX 01 00:00:00
TRACK 10 AUDIO
TITLE "Fallin'"
PERFORMER "Alicia Keys"
INDEX 00 03:46:29
FILE "10 - Alicia Keys - Fallin'.wav" WAVE
INDEX 01 00:00:00
TRACK 11 AUDIO
TITLE "Like I Love You"
PERFORMER "Justin Timberlake"
INDEX 00 03:15:56
FILE "11 - Justin Timberlake - Like I Love You.wav" WAVE
INDEX 01 00:00:00
TRACK 12 AUDIO
TITLE "You Make Me Wanna..."
PERFORMER "Usher"
INDEX 00 04:43:59
FILE "12 - Usher - You Make Me Wanna....wav" WAVE
INDEX 01 00:00:00
TRACK 13 AUDIO
TITLE "Killing Me Softly With His Song"
PERFORMER "Fugees"
INDEX 00 03:39:57
FILE "13 - Fugees - Killing Me Softly With His Song.wav" WAVE
INDEX 01 00:00:00
TRACK 14 AUDIO
TITLE "Suddenly"
PERFORMER "Billy Ocean"
INDEX 00 03:59:17
FILE "14 - Billy Ocean - Suddenly.wav" WAVE
INDEX 01 00:00:00
TRACK 15 AUDIO
TITLE "Love Train"
PERFORMER "The O'Jays"
INDEX 00 03:51:21
FILE "15 - The O'Jays - Love Train.wav" WAVE
INDEX 01 00:00:00
TRACK 16 AUDIO
TITLE "Nothing's Real But Love"
PERFORMER "Rebecca Ferguson"
INDEX 00 02:57:67
FILE "16 - Rebecca Ferguson - Nothing's Real But Love.wav" WAVE
INDEX 01 00:00:00
TRACK 17 AUDIO
TITLE "If This Isnt Love"
PERFORMER "Jennifer Hudson"
INDEX 00 02:52:08
FILE "17 - Jennifer Hudson - If This Isnt Love.wav" WAVE
INDEX 01 00:00:00
TRACK 18 AUDIO
TITLE "I'm Kissing You (Love Theme from 'Romeo And Juliet')"
PERFORMER "Des'ree"
INDEX 00 03:35:69
FILE "18 - Des'ree - I'm Kissing You (Love Theme from ''Romeo And Juliet'').wav" WAVE
INDEX 01 00:00:00
TRACK 19 AUDIO
TITLE "By Your Side"
PERFORMER "Sade"
INDEX 00 04:04:01
FILE "19 - Sade - By Your Side.wav" WAVE
INDEX 01 00:00:00
TRACK 20 AUDIO
TITLE "Saving All My Love For You"
PERFORMER "Whitney Houston"
INDEX 00 04:38:74
FILE "20 - Whitney Houston - Saving All My Love For You.wav" WAVE
INDEX 01 00:00:00

CD3


Продолжительность: 01:10:03
01. Andy Williams - It Had To Be You [02:43]
02. Elvis Presley - Cant Help Falling In Love [03:00]
03. Frank Sinatra - You Do Something To Me [02:33]
04. Tony Bennett - The Way You Look Tonight [03:25]
05. Petula Clark - Downtown (New Version) [03:32]
06. Henry Mancini & his Orchestra - Moon River [02:42]
07. Bob Dylan - Make You Feel My Love [03:33]
08. Dolly Parton - I Will Always Love You [03:06]
09. Jennifer Rush - The Power Of Love [04:25]
10. The Isley Brothers - Put A Little Love In Your Heart [03:02]
11. Love Affair - Everlasting Love [03:03]
12. Finley Quaye - Your Love Gets Sweeter [03:12]
13. Newton Faulkner - Dream Catch Me [03:58]
14. Big Mountain - Baby, I Love Your Way [04:23]
15. John Mayer - Wildfire [04:13]
16. Sara Bareilles - Love Song [03:54]
17. Katie Melua - The Closest Thing To Crazy [04:13]
18. Will Young - All Time Love [03:56]
19. Daniel Merriweather - Red [03:55]
20. Paloma Faith - Never Tear Us Apart [03:05]

log and sheet

Log

Exact Audio Copy V1.0 beta 3 from 29. August 2011
EAC extraction logfile from 13. November 2014, 17:02
Various Artists / It Had To Be You CD3
Used drive : ASUS SDRW-08D2S-U Adapter: 1 ID: 0
Read mode : Secure
Utilize accurate stream : Yes
Defeat audio cache : Yes
Make use of C2 pointers : No
Read offset correction : 6
Overread into Lead-In and Lead-Out : No
Fill up missing offset samples with silence : Yes
Delete leading and trailing silent blocks : No
Null samples used in CRC calculations : Yes
Used interface : Native Win32 interface for Win NT & 2000
Gap handling : Appended to previous track
Used output format : User Defined Encoder
Selected bitrate : 128 kBit/s
Quality : High
Add ID3 tag : No
Command line compressor : C:\Program Files (x86)\Exact Audio Copy\Flac\flac.exe
Additional command line options : -8 -V -T "ARTIST=%artist%" -T "TITLE=%title%" -T "ALBUM=%albumtitle%" -T "DATE=%year%" -T "TRACKNUMBER=%tracknr%" -T "TOTALTRACKS=%numtracks%" -T "GENRE=%genre%" -T "ALBUMARTIST=%albumartist%" -T "ALBUM ARTIST=%albumartist%" -T "COMMENT=EAC Secure Mode, Test & Copy, AccurateRip, FLAC -8" %source%
TOC of the extracted CD
Track | Start | Length | Start sector | End sector
---------------------------------------------------------
1 | 0:00.00 | 2:43.68 | 0 | 12292
2 | 2:43.68 | 3:00.17 | 12293 | 25809
3 | 5:44.10 | 2:33.50 | 25810 | 37334
4 | 8:17.60 | 3:25.23 | 37335 | 52732
5 | 11:43.08 | 3:32.24 | 52733 | 68656
6 | 15:15.32 | 2:42.55 | 68657 | 80861
7 | 17:58.12 | 3:33.03 | 80862 | 96839
8 | 21:31.15 | 3:06.44 | 96840 | 110833
9 | 24:37.59 | 4:25.13 | 110834 | 130721
10 | 29:02.72 | 3:02.59 | 130722 | 144430
11 | 32:05.56 | 3:03.50 | 144431 | 158205
12 | 35:09.31 | 3:12.63 | 158206 | 172668
13 | 38:22.19 | 3:58.12 | 172669 | 190530
14 | 42:20.31 | 4:23.73 | 190531 | 210328
15 | 46:44.29 | 4:13.71 | 210329 | 229374
16 | 50:58.25 | 3:54.35 | 229375 | 246959
17 | 54:52.60 | 4:13.01 | 246960 | 265935
18 | 59:05.61 | 3:56.54 | 265936 | 283689
19 | 63:02.40 | 3:55.07 | 283690 | 301321
20 | 66:57.47 | 3:05.59 | 301322 | 315255
Track 1
Filename D:\Subir\01 - Andy Williams - It Had To Be You.wav
Pre-gap length 0:00:02.00
Peak level 98.8 %
Extraction speed 2.6 X
Track quality 100.0 %
Test CRC 44DA7BAD
Copy CRC 44DA7BAD
Accurately ripped (confidence 1) [D2497E19] (AR v2)
Copy OK
Track 2
Filename D:\Subir\02 - Elvis Presley - Cant Help Falling In Love.wav
Pre-gap length 0:00:01.60
Peak level 98.9 %
Extraction speed 2.2 X
Track quality 99.9 %
Test CRC 2037F76B
Copy CRC 2037F76B
Accurately ripped (confidence 1) [5950ACE5] (AR v2)
Copy OK
Track 3
Filename D:\Subir\03 - Frank Sinatra - You Do Something To Me.wav
Pre-gap length 0:00:01.60
Peak level 98.9 %
Extraction speed 2.2 X
Track quality 99.9 %
Test CRC 8575C4ED
Copy CRC 8575C4ED
Accurately ripped (confidence 1) [7644F3DB] (AR v2)
Copy OK
Track 4
Filename D:\Subir\04 - Tony Bennett - The Way You Look Tonight.wav
Pre-gap length 0:00:00.63
Peak level 98.8 %
Extraction speed 3.3 X
Track quality 100.0 %
Test CRC F827980A
Copy CRC F827980A
Accurately ripped (confidence 1) [F74D562C] (AR v2)
Copy OK
Track 5
Filename D:\Subir\05 - Petula Clark - Downtown (New Version).wav
Pre-gap length 0:00:01.60
Peak level 98.9 %
Extraction speed 3.5 X
Track quality 100.0 %
Test CRC C535F761
Copy CRC C535F761
Accurately ripped (confidence 1) [DBB87ECF] (AR v2)
Copy OK
Track 6
Filename D:\Subir\06 - Henry Mancini & his Orchestra - Moon River.wav
Pre-gap length 0:00:00.03
Peak level 98.8 %
Extraction speed 3.4 X
Track quality 100.0 %
Test CRC 0FC55F8A
Copy CRC 0FC55F8A
Accurately ripped (confidence 1) [FB76298F] (AR v2)
Copy OK
Track 7
Filename D:\Subir\07 - Bob Dylan - Make You Feel My Love.wav
Pre-gap length 0:00:02.00
Peak level 98.9 %
Extraction speed 3.7 X
Track quality 100.0 %
Test CRC 0E42E80E
Copy CRC 0E42E80E
Accurately ripped (confidence 1) [E15791BA] (AR v2)
Copy OK
Track 8
Filename D:\Subir\08 - Dolly Parton - I Will Always Love You.wav
Pre-gap length 0:00:01.60
Peak level 98.9 %
Extraction speed 3.0 X
Track quality 99.9 %
Test CRC E0AED40A
Copy CRC E0AED40A
Accurately ripped (confidence 1) [1956A0E4] (AR v2)
Copy OK
Track 9
Filename D:\Subir\09 - Jennifer Rush - The Power Of Love.wav
Pre-gap length 0:00:01.59
Peak level 98.9 %
Extraction speed 4.2 X
Track quality 100.0 %
Test CRC 08349AC1
Copy CRC 08349AC1
Accurately ripped (confidence 1) [AFE00595] (AR v2)
Copy OK
Track 10
Filename D:\Subir\10 - The Isley Brothers - Put A Little Love In Your Heart.wav
Pre-gap length 0:00:01.60
Peak level 98.9 %
Extraction speed 4.1 X
Track quality 100.0 %
Test CRC A1E9968F
Copy CRC A1E9968F
Accurately ripped (confidence 1) [625CC056] (AR v2)
Copy OK
Track 11
Filename D:\Subir\11 - Love Affair - Everlasting Love.wav
Pre-gap length 0:00:01.60
Peak level 98.8 %
Extraction speed 4.2 X
Track quality 100.0 %
Test CRC 9C0F66D4
Copy CRC 9C0F66D4
Accurately ripped (confidence 1) [4F9347DA] (AR v2)
Copy OK
Track 12
Filename D:\Subir\12 - Finley Quaye - Your Love Gets Sweeter.wav
Pre-gap length 0:00:01.59
Peak level 87.1 %
Extraction speed 4.4 X
Track quality 100.0 %
Test CRC F7D70988
Copy CRC F7D70988
Accurately ripped (confidence 1) [D7F9FA12] (AR v2)
Copy OK
Track 13
Filename D:\Subir\13 - Newton Faulkner - Dream Catch Me.wav
Pre-gap length 0:00:00.33
Peak level 81.2 %
Extraction speed 4.7 X
Track quality 100.0 %
Test CRC B9675F3E
Copy CRC B9675F3E
Accurately ripped (confidence 1) [19DB27AE] (AR v2)
Copy OK
Track 14
Filename D:\Subir\14 - Big Mountain - Baby, I Love Your Way.wav
Pre-gap length 0:00:01.60
Peak level 98.9 %
Extraction speed 4.8 X
Track quality 100.0 %
Test CRC 6023789A
Copy CRC 6023789A
Accurately ripped (confidence 1) [7C9D59FB] (AR v2)
Copy OK
Track 15
Filename D:\Subir\15 - John Mayer - Wildfire.wav
Pre-gap length 0:00:01.60
Peak level 98.9 %
Extraction speed 4.0 X
Track quality 99.9 %
Test CRC A098BB2C
Copy CRC A098BB2C
Accurately ripped (confidence 1) [F685969B] (AR v2)
Copy OK
Track 16
Filename D:\Subir\16 - Sara Bareilles - Love Song.wav
Pre-gap length 0:00:01.60
Peak level 91.5 %
Extraction speed 5.0 X
Track quality 100.0 %
Test CRC 796F105B
Copy CRC 796F105B
Accurately ripped (confidence 1) [613BC493] (AR v2)
Copy OK
Track 17
Filename D:\Subir\17 - Katie Melua - The Closest Thing To Crazy.wav
Pre-gap length 0:00:01.60
Peak level 92.3 %
Extraction speed 5.2 X
Track quality 100.0 %
Test CRC 9627BF5C
Copy CRC 9627BF5C
Accurately ripped (confidence 1) [3ED77D1C] (AR v2)
Copy OK
Track 18
Filename D:\Subir\18 - Will Young - All Time Love.wav
Pre-gap length 0:00:01.60
Peak level 91.6 %
Extraction speed 4.2 X
Track quality 99.9 %
Test CRC 2F783483
Copy CRC 2F783483
Accurately ripped (confidence 1) [BC9B70D2] (AR v2)
Copy OK
Track 19
Filename D:\Subir\19 - Daniel Merriweather - Red.wav
Pre-gap length 0:00:01.60
Peak level 83.0 %
Extraction speed 5.4 X
Track quality 100.0 %
Test CRC 883E7EAF
Copy CRC 883E7EAF
Accurately ripped (confidence 1) [84CC9F66] (AR v2)
Copy OK
Track 20
Filename D:\Subir\20 - Paloma Faith - Never Tear Us Apart.wav
Pre-gap length 0:00:01.59
Peak level 83.9 %
Extraction speed 5.3 X
Track quality 100.0 %
Test CRC CDA58E39
Copy CRC CDA58E39
Accurately ripped (confidence 1) [22936135] (AR v2)
Copy OK
All tracks accurately ripped
No errors occurred
End of status report
---- CUETools DB Plugin V2.1.3
[CTDB TOCID: SvAuj3Ko3Vattk8Zc10xHch.2nM-] disk not present in database, Submit result: SvAuj3Ko3Vattk8Zc10xHch.2nM- has been uploaded
==== Log checksum BC8A280190ECCEFA16CD795E7CCACAE13E777E318536410B562C62D2DEB90F27 ====

CUE

REM DISCID 1C106B14
REM COMMENT "ExactAudioCopy v1.0b3"
PERFORMER "Various Artists"
TITLE "It Had To Be You CD3"
FILE "01 - Andy Williams - It Had To Be You.wav" WAVE
TRACK 01 AUDIO
TITLE "It Had To Be You"
PERFORMER "Andy Williams"
INDEX 01 00:00:00
TRACK 02 AUDIO
TITLE "Cant Help Falling In Love"
PERFORMER "Elvis Presley"
INDEX 00 02:42:08
FILE "02 - Elvis Presley - Cant Help Falling In Love.wav" WAVE
INDEX 01 00:00:00
TRACK 03 AUDIO
TITLE "You Do Something To Me"
PERFORMER "Frank Sinatra"
INDEX 00 02:58:32
FILE "03 - Frank Sinatra - You Do Something To Me.wav" WAVE
INDEX 01 00:00:00
TRACK 04 AUDIO
TITLE "The Way You Look Tonight"
PERFORMER "Tony Bennett"
INDEX 00 02:32:62
FILE "04 - Tony Bennett - The Way You Look Tonight.wav" WAVE
INDEX 01 00:00:00
TRACK 05 AUDIO
TITLE "Downtown (New Version)"
PERFORMER "Petula Clark"
INDEX 00 03:23:38
FILE "05 - Petula Clark - Downtown (New Version).wav" WAVE
INDEX 01 00:00:00
TRACK 06 AUDIO
TITLE "Moon River"
PERFORMER "Henry Mancini & his Orchestra"
INDEX 00 03:32:21
FILE "06 - Henry Mancini & his Orchestra - Moon River.wav" WAVE
INDEX 01 00:00:00
TRACK 07 AUDIO
TITLE "Make You Feel My Love"
PERFORMER "Bob Dylan"
INDEX 00 02:40:55
FILE "07 - Bob Dylan - Make You Feel My Love.wav" WAVE
INDEX 01 00:00:00
TRACK 08 AUDIO
TITLE "I Will Always Love You"
PERFORMER "Dolly Parton"
INDEX 00 03:31:18
FILE "08 - Dolly Parton - I Will Always Love You.wav" WAVE
INDEX 01 00:00:00
TRACK 09 AUDIO
TITLE "The Power Of Love"
PERFORMER "Jennifer Rush"
INDEX 00 03:04:60
FILE "09 - Jennifer Rush - The Power Of Love.wav" WAVE
INDEX 01 00:00:00
TRACK 10 AUDIO
TITLE "Put A Little Love In Your Heart"
PERFORMER "The Isley Brothers"
INDEX 00 04:23:28
FILE "10 - The Isley Brothers - Put A Little Love In Your Heart.wav" WAVE
INDEX 01 00:00:00
TRACK 11 AUDIO
TITLE "Everlasting Love"
PERFORMER "Love Affair"
INDEX 00 03:00:74
FILE "11 - Love Affair - Everlasting Love.wav" WAVE
INDEX 01 00:00:00
TRACK 12 AUDIO
TITLE "Your Love Gets Sweeter"
PERFORMER "Finley Quaye"
INDEX 00 03:01:66
FILE "12 - Finley Quaye - Your Love Gets Sweeter.wav" WAVE
INDEX 01 00:00:00
TRACK 13 AUDIO
TITLE "Dream Catch Me"
PERFORMER "Newton Faulkner"
INDEX 00 03:12:30
FILE "13 - Newton Faulkner - Dream Catch Me.wav" WAVE
INDEX 01 00:00:00
TRACK 14 AUDIO
TITLE "Baby, I Love Your Way"
PERFORMER "Big Mountain"
INDEX 00 03:56:27
FILE "14 - Big Mountain - Baby, I Love Your Way.wav" WAVE
INDEX 01 00:00:00
TRACK 15 AUDIO
TITLE "Wildfire"
PERFORMER "John Mayer"
INDEX 00 04:22:13
FILE "15 - John Mayer - Wildfire.wav" WAVE
INDEX 01 00:00:00
TRACK 16 AUDIO
TITLE "Love Song"
PERFORMER "Sara Bareilles"
INDEX 00 04:12:11
FILE "16 - Sara Bareilles - Love Song.wav" WAVE
INDEX 01 00:00:00
TRACK 17 AUDIO
TITLE "The Closest Thing To Crazy"
PERFORMER "Katie Melua"
INDEX 00 03:52:50
FILE "17 - Katie Melua - The Closest Thing To Crazy.wav" WAVE
INDEX 01 00:00:00
TRACK 18 AUDIO
TITLE "All Time Love"
PERFORMER "Will Young"
INDEX 00 04:11:16
FILE "18 - Will Young - All Time Love.wav" WAVE
INDEX 01 00:00:00
TRACK 19 AUDIO
TITLE "Red"
PERFORMER "Daniel Merriweather"
INDEX 00 03:54:69
FILE "19 - Daniel Merriweather - Red.wav" WAVE
INDEX 01 00:00:00
TRACK 20 AUDIO
TITLE "Never Tear Us Apart"
PERFORMER "Paloma Faith"
INDEX 00 03:53:23
FILE "20 - Paloma Faith - Never Tear Us Apart.wav" WAVE
INDEX 01 00:00:00

To download the file disable ad blocking, and reload the page.

disable adblock How to disable ad blocking?

Download by magnet link 1.44 GB Download Torrent

Login using:

Similar topics

(Pop-Rock) Rod Stewart - Blood Red Roses (Deluxe) - 2018, MP3, 320 kbps
 145 MB   0 | 0   28-Sep-18 11:20   3


   
Current time is: 16-Nov 00:52 :: All times are UTC + 3