Classic Rock presents: Bright Sparks
Жанр: Hard Rock, Heavy Blues, Rock 'n' Roll, Garage Punk
Носитель: CD
Страна-производитель диска: EU
Год издания: 2014
Издатель (лейбл): Classic Rock / Future Publishing
Номер по каталогу: ROC201-09-14
Аудиокодек: FLAC (*.flac)
Тип рипа: tracks+.cue
Битрейт аудио: lossless
Продолжительность: 00:57:08
Источник (релизер): свой диск
Наличие сканов в содержимом раздачи: да
Треклист:
01. Scorpion vs. Tarantula - Chasing Alive (2:56)
02. The Legendary - If I Was a Girl (3:11)
03. Heavy Necker - Momento Mori (4:30)
04. Ghost County - The Dive (3:54)
05. The Deaf Commission - Until the End (3:12)
06. Frankie McQueen - Mama Told Me (3:06)
07. We're Traveled - Last Calls & Assholes (3:26)
08. Smokin' Durrys - Should've Known Better (2:48)
09. Wizard Sex - Rock-n-Roll Is My Business (2:49)
10. Tipi Valley - Rock 'n Roll Lives On (2:28)
11. Fire Red Empress - Left Unspoken (3:36)
12. The Hip Priests - Zero Fucks Given (3:49)
13. Lewis & The Strange Magics - How to Be You (5:49)
14. Grand Line - On the Way (3:28)
15. Hot Fire - Bite the Bullet (4:15)
16. Ironhead - Going Down (3:52)
сборник-приложение к 201-му номеру журнала Classic Rock

Лог создания рипа

Exact Audio Copy V1.0 beta 3 from 29. August 2011
EAC extraction logfile from 1. October 2014, 14:10
Various Artists / Bright Sparks
Used drive : ATAPI iHAS120 X Adapter: 3 ID: 0
Read mode : Secure
Utilize accurate stream : Yes
Defeat audio cache : Yes
Make use of C2 pointers : No
Read offset correction : 48
Overread into Lead-In and Lead-Out : No
Fill up missing offset samples with silence : Yes
Delete leading and trailing silent blocks : No
Null samples used in CRC calculations : Yes
Used interface : Native Win32 interface for Win NT & 2000
Gap handling : Appended to previous track
Used output format : User Defined Encoder
Selected bitrate : 128 kBit/s
Quality : High
Add ID3 tag : No
Command line compressor : C:\Program Files (x86)\Exact Audio Copy\Flac\flac.exe
Additional command line options : -8 -V -T "ARTIST=%artist%" -T "TITLE=%title%" -T "ALBUM=%albumtitle%" -T "DATE=%year%" -T "TRACKNUMBER=%tracknr%" -T "TOTALTRACKS=%numtracks%" -T "GENRE=%genre%" -T "ALBUMARTIST=%albumartist%" -T "ALBUM ARTIST=%albumartist%" -T "COMMENT=EAC Secure Mode, Test & Copy, AccurateRip, FLAC -8" %source%
TOC of the extracted CD
Track | Start | Length | Start sector | End sector
---------------------------------------------------------
1 | 0:00.00 | 2:56.10 | 0 | 13209
2 | 2:56.10 | 3:11.08 | 13210 | 27542
3 | 6:07.18 | 4:29.40 | 27543 | 47757
4 | 10:36.58 | 3:54.33 | 47758 | 65340
5 | 14:31.16 | 3:12.33 | 65341 | 79773
6 | 17:43.49 | 3:05.55 | 79774 | 93703
7 | 20:49.29 | 3:26.30 | 93704 | 109183
8 | 24:15.59 | 2:48.11 | 109184 | 121794
9 | 27:03.70 | 2:48.53 | 121795 | 134447
10 | 29:52.48 | 2:27.67 | 134448 | 145539
11 | 32:20.40 | 3:35.59 | 145540 | 161723
12 | 35:56.24 | 3:49.02 | 161724 | 178900
13 | 39:45.26 | 5:49.35 | 178901 | 205110
14 | 45:34.61 | 3:27.40 | 205111 | 220675
15 | 49:02.26 | 4:14.44 | 220676 | 239769
16 | 53:16.70 | 3:51.39 | 239770 | 257133
Track 1
Filename D:\Bright Sparks\01 - Scorpion vs. Tarantula - Chasing Alive.wav
Pre-gap length 0:00:02.00
Peak level 98.8 %
Extraction speed 2.2 X
Track quality 100.0 %
Test CRC 83DBD998
Copy CRC 83DBD998
Accurately ripped (confidence 1) [DA5E38FB] (AR v2)
Copy OK
Track 2
Filename D:\Bright Sparks\02 - The Legendary - If I Was a Girl.wav
Pre-gap length 0:00:02.00
Peak level 98.8 %
Extraction speed 2.4 X
Track quality 100.0 %
Test CRC 7083DCC0
Copy CRC 7083DCC0
Accurately ripped (confidence 1) [6DD60A03] (AR v2)
Copy OK
Track 3
Filename D:\Bright Sparks\03 - Heavy Necker - Momento Mori.wav
Pre-gap length 0:00:02.00
Peak level 99.4 %
Extraction speed 2.8 X
Track quality 100.0 %
Test CRC 193D5C43
Copy CRC 193D5C43
Accurately ripped (confidence 1) [93B9A529] (AR v2)
Copy OK
Track 4
Filename D:\Bright Sparks\04 - Ghost County - The Dive.wav
Pre-gap length 0:00:02.00
Peak level 98.8 %
Extraction speed 3.0 X
Track quality 100.0 %
Test CRC 8CC86043
Copy CRC 8CC86043
Accurately ripped (confidence 1) [1221ECB0] (AR v2)
Copy OK
Track 5
Filename D:\Bright Sparks\05 - The Deaf Commission - Until the End.wav
Pre-gap length 0:00:02.00
Peak level 98.8 %
Extraction speed 3.1 X
Track quality 100.0 %
Test CRC E6CCE80F
Copy CRC E6CCE80F
Accurately ripped (confidence 1) [8547B489] (AR v2)
Copy OK
Track 6
Filename D:\Bright Sparks\06 - Frankie McQueen - Mama Told Me.wav
Pre-gap length 0:00:02.00
Peak level 98.8 %
Extraction speed 3.3 X
Track quality 100.0 %
Test CRC 344176F6
Copy CRC 344176F6
Accurately ripped (confidence 1) [7CB4ED02] (AR v2)
Copy OK
Track 7
Filename D:\Bright Sparks\07 - We're Traveled - Last Calls & Assholes.wav
Pre-gap length 0:00:02.00
Peak level 98.8 %
Extraction speed 3.4 X
Track quality 100.0 %
Test CRC C2C0F174
Copy CRC C2C0F174
Accurately ripped (confidence 1) [A41B8E48] (AR v2)
Copy OK
Track 8
Filename D:\Bright Sparks\08 - Smokin' Durrys - Should've Known Better.wav
Pre-gap length 0:00:02.00
Peak level 98.8 %
Extraction speed 3.5 X
Track quality 100.0 %
Test CRC 0668C7FC
Copy CRC 0668C7FC
Accurately ripped (confidence 1) [E70EA62C] (AR v2)
Copy OK
Track 9
Filename D:\Bright Sparks\09 - Wizard Sex - Rock-n-Roll Is My Business.wav
Pre-gap length 0:00:02.00
Peak level 98.8 %
Extraction speed 3.6 X
Track quality 100.0 %
Test CRC E54058E9
Copy CRC E54058E9
Accurately ripped (confidence 1) [B273A210] (AR v2)
Copy OK
Track 10
Filename D:\Bright Sparks\10 - Tipi Valley - Rock 'n Roll Lives On.wav
Pre-gap length 0:00:02.00
Peak level 97.7 %
Extraction speed 3.6 X
Track quality 100.0 %
Test CRC 7DED6865
Copy CRC 7DED6865
Accurately ripped (confidence 1) [02EFF316] (AR v2)
Copy OK
Track 11
Filename D:\Bright Sparks\11 - Fire Red Empress - Left Unspoken.wav
Pre-gap length 0:00:02.00
Peak level 98.8 %
Extraction speed 3.5 X
Track quality 99.9 %
Test CRC D9AE2011
Copy CRC D9AE2011
Accurately ripped (confidence 1) [62FD9184] (AR v2)
Copy OK
Track 12
Filename D:\Bright Sparks\12 - The Hip Priests - Zero Fucks Given.wav
Pre-gap length 0:00:02.00
Peak level 98.8 %
Extraction speed 4.2 X
Track quality 100.0 %
Test CRC A7693ADD
Copy CRC A7693ADD
Accurately ripped (confidence 1) [9CD6B48D] (AR v2)
Copy OK
Track 13
Filename D:\Bright Sparks\13 - Lewis & The Strange Magics - How to Be You.wav
Pre-gap length 0:00:02.00
Peak level 98.8 %
Extraction speed 4.5 X
Track quality 100.0 %
Test CRC B00C70B0
Copy CRC B00C70B0
Accurately ripped (confidence 1) [D988F8B8] (AR v2)
Copy OK
Track 14
Filename D:\Bright Sparks\14 - Grand Line - On the Way.wav
Pre-gap length 0:00:02.00
Peak level 98.8 %
Extraction speed 4.4 X
Track quality 100.0 %
Test CRC 142FCB4B
Copy CRC 142FCB4B
Accurately ripped (confidence 1) [705B1248] (AR v2)
Copy OK
Track 15
Filename D:\Bright Sparks\15 - Hot Fire - Bite the Bullet.wav
Pre-gap length 0:00:02.00
Peak level 98.8 %
Extraction speed 4.7 X
Track quality 100.0 %
Test CRC B8D2F3A4
Copy CRC B8D2F3A4
Accurately ripped (confidence 1) [6C30A946] (AR v2)
Copy OK
Track 16
Filename D:\Bright Sparks\16 - Ironhead - Going Down.wav
Pre-gap length 0:00:02.00
Peak level 100.0 %
Extraction speed 4.8 X
Track quality 100.0 %
Test CRC BE1181D6
Copy CRC BE1181D6
Accurately ripped (confidence 1) [1339FDB0] (AR v2)
Copy OK
All tracks accurately ripped
No errors occurred
End of status report
==== Log checksum 3F6695C4ACD2B54814A1E4DC9B207580EDE8D89169EABB1A7B5F74487EC5D565 ====

Содержание индексной карты (.CUE)

REM GENRE Rock
REM DATE 2014
REM DISCID FE0D6410
REM COMMENT "ExactAudioCopy v1.0b3"
PERFORMER "Various Artists"
TITLE "Bright Sparks"
FILE "01 - Scorpion vs. Tarantula - Chasing Alive.wav" WAVE
TRACK 01 AUDIO
TITLE "Chasing Alive"
PERFORMER "Scorpion vs. Tarantula"
INDEX 01 00:00:00
TRACK 02 AUDIO
TITLE "If I Was a Girl"
PERFORMER "The Legendary"
INDEX 00 02:54:10
FILE "02 - The Legendary - If I Was a Girl.wav" WAVE
INDEX 01 00:00:00
TRACK 03 AUDIO
TITLE "Momento Mori"
PERFORMER "Heavy Necker"
INDEX 00 03:09:08
FILE "03 - Heavy Necker - Momento Mori.wav" WAVE
INDEX 01 00:00:00
TRACK 04 AUDIO
TITLE "The Dive"
PERFORMER "Ghost County"
INDEX 00 04:27:40
FILE "04 - Ghost County - The Dive.wav" WAVE
INDEX 01 00:00:00
TRACK 05 AUDIO
TITLE "Until the End"
PERFORMER "The Deaf Commission"
INDEX 00 03:52:33
FILE "05 - The Deaf Commission - Until the End.wav" WAVE
INDEX 01 00:00:00
TRACK 06 AUDIO
TITLE "Mama Told Me"
PERFORMER "Frankie McQueen"
INDEX 00 03:10:33
FILE "06 - Frankie McQueen - Mama Told Me.wav" WAVE
INDEX 01 00:00:00
TRACK 07 AUDIO
TITLE "Last Calls & Assholes"
PERFORMER "We're Traveled"
INDEX 00 03:03:55
FILE "07 - We're Traveled - Last Calls & Assholes.wav" WAVE
INDEX 01 00:00:00
TRACK 08 AUDIO
TITLE "Should've Known Better"
PERFORMER "Smokin' Durrys"
INDEX 00 03:24:30
FILE "08 - Smokin' Durrys - Should've Known Better.wav" WAVE
INDEX 01 00:00:00
TRACK 09 AUDIO
TITLE "Rock-n-Roll Is My Business"
PERFORMER "Wizard Sex"
INDEX 00 02:46:11
FILE "09 - Wizard Sex - Rock-n-Roll Is My Business.wav" WAVE
INDEX 01 00:00:00
TRACK 10 AUDIO
TITLE "Rock 'n Roll Lives On"
PERFORMER "Tipi Valley"
INDEX 00 02:46:53
FILE "10 - Tipi Valley - Rock 'n Roll Lives On.wav" WAVE
INDEX 01 00:00:00
TRACK 11 AUDIO
TITLE "Left Unspoken"
PERFORMER "Fire Red Empress"
INDEX 00 02:25:67
FILE "11 - Fire Red Empress - Left Unspoken.wav" WAVE
INDEX 01 00:00:00
TRACK 12 AUDIO
TITLE "Zero Fucks Given"
PERFORMER "The Hip Priests"
INDEX 00 03:33:59
FILE "12 - The Hip Priests - Zero Fucks Given.wav" WAVE
INDEX 01 00:00:00
TRACK 13 AUDIO
TITLE "How to Be You"
PERFORMER "Lewis & The Strange Magics"
INDEX 00 03:47:02
FILE "13 - Lewis & The Strange Magics - How to Be You.wav" WAVE
INDEX 01 00:00:00
TRACK 14 AUDIO
TITLE "On the Way"
PERFORMER "Grand Line"
INDEX 00 05:47:35
FILE "14 - Grand Line - On the Way.wav" WAVE
INDEX 01 00:00:00
TRACK 15 AUDIO
TITLE "Bite the Bullet"
PERFORMER "Hot Fire"
INDEX 00 03:25:40
FILE "15 - Hot Fire - Bite the Bullet.wav" WAVE
INDEX 01 00:00:00
TRACK 16 AUDIO
TITLE "Going Down"
PERFORMER "Ironhead"
INDEX 00 04:12:44
FILE "16 - Ironhead - Going Down.wav" WAVE
INDEX 01 00:00:00

Скриншот спектра частот

To download the file disable ad blocking, and reload the page.

disable adblock How to disable ad blocking?

Download by magnet link 430 MB Download Torrent

Login using:

Similar topics

(Hard Rock, Heavy Metal) O.S.S.Y (OSSY) - A.D. 2010 - 2010, MP3, 320 kbps
 103 MB   0 | 0   Yesterday 20:55   0


   
Current time is: 20-Sep 00:08 :: All times are UTC ± 0