Various Artists - The Art Of McCartney
Жанр: Rock
Носитель: CD
Страна-производитель диска: EU
Год издания: 2014
Издатель (лейбл): Arctic Poppy
Номер по каталогу: APCDREM1402
Аудиокодек: FLAC (*.flac)
Тип рипа: image+.cue
Битрейт аудио: lossless
Продолжительность: 02:04:35
Источник (релизер): usenet
Наличие сканов в содержимом раздачи: да
Треклист:
CD-1:
01. Billy Joel - Maybe I'm Amazed [5:06]
02. Bob Dylan - Things We Said Today [3:02]
03. Heart - Band On The Run [5:15]
04. Steve Miller - Junior's Farm [4:18]
05. Yusuf/Cat Stevens - The Long and Winding Road [3:31]
06. Harry Connick Jr. - My Love [4:06]
07. Brian Wilson - Wanderlust [4:17]
08. Corinne Bailey Rae - Bluebird [3:24]
09. Willie Nelson - Yesterday [3:02]
10. Jeff Lynne - Junk [2:13]
11. Barry Gibb - When I'm 64 [2:41]
12. Jamie Cullum - Every Night [2:58]
13. Kiss - Venus and Mars/ Rock Show [6:40]
14. Paul Rodgers - Let Me Roll It [4:32]
15. Roger Daltrey - Helter Skelter [4:02]
16. Def Leppard - Helen Wheels [3:51]
17. The Cure (feat. James McCartney) - Hello Goodbye [4:02]
CD-2:
01. Billy Joel - Live And Let Die [3:09]
02. Chrissie Hynde - Let It Be [3:49]
03. Robin Zander & Rick Nielsen of Cheap Trick - Jet [4:12]
04. Joe Elliott - Hi Hi Hi [3:11]
05. Heart - Letting Go [3:59]
06. Steve Miller - Hey Jude [5:14]
07. Owl City - Listen To What The Man Said [3:37]
08. Perry Farrell - Got To Get You Into My Life [2:42]
09. Dion - Drive My Car [2:52]
10. Allen Toussaint - Lady Madonna [2:15]
11. Dr. John - Let 'Em In [5:13]
12. Smokey Robinson - So Bad [3:20]
13. The Airborne Toxic Event - No More Lonely Nights [3:36]
14. Alice Cooper - Eleanor Rigby [2:08]
15. Toots Hibbert with Sly & Robbie - Come And Get It [2:22]
16. B.B. King - On The Way [3:20]
17. Sammy Hagar - Birthday [2:38]

Лог создания рипа

CD1

Exact Audio Copy V1.0 beta 3 from 29. August 2011
EAC extraction logfile from 15. November 2014, 15:26
- / The Art Of McCartney (CD1)
Used drive : PIONEER DVD-RW DVR-221L Adapter: 1 ID: 0
Read mode : Secure
Utilize accurate stream : Yes
Defeat audio cache : Yes
Make use of C2 pointers : No
Read offset correction : 6
Overread into Lead-In and Lead-Out : No
Fill up missing offset samples with silence : Yes
Delete leading and trailing silent blocks : No
Null samples used in CRC calculations : Yes
Used interface : Installed external ASPI interface
Used output format : Internal WAV Routines
Sample format : 44.100 Hz; 16 Bit; Stereo
TOC of the extracted CD
Track | Start | Length | Start sector | End sector
---------------------------------------------------------
1 | 0:00.00 | 5:06.05 | 0 | 22954
2 | 5:06.05 | 3:01.57 | 22955 | 36586
3 | 8:07.62 | 5:14.41 | 36587 | 60177
4 | 13:22.28 | 4:17.51 | 60178 | 79503
5 | 17:40.04 | 3:30.46 | 79504 | 95299
6 | 21:10.50 | 4:05.58 | 95300 | 113732
7 | 25:16.33 | 4:17.32 | 113733 | 133039
8 | 29:33.65 | 3:24.22 | 133040 | 148361
9 | 32:58.12 | 3:01.58 | 148362 | 161994
10 | 35:59.70 | 2:13.32 | 161995 | 172001
11 | 38:13.27 | 2:40.44 | 172002 | 184045
12 | 40:53.71 | 2:58.17 | 184046 | 197412
13 | 43:52.13 | 6:40.37 | 197413 | 227449
14 | 50:32.50 | 4:32.37 | 227450 | 247886
15 | 55:05.12 | 4:02.03 | 247887 | 266039
16 | 59:07.15 | 3:50.42 | 266040 | 283331
17 | 62:57.57 | 4:01.64 | 283332 | 301470
Range status and errors
Selected range
Filename D:\POST 2\The Art Of McCartney (EAC)\CD1\The Art Of McCartney (CD1).wav
Peak level 96.6 %
Extraction speed 4.6 X
Range quality 100.0 %
Test CRC 3981CF56
Copy CRC 3981CF56
Copy OK
No errors occurred
AccurateRip summary
Track 1 not present in database
Track 2 not present in database
Track 3 not present in database
Track 4 not present in database
Track 5 not present in database
Track 6 not present in database
Track 7 not present in database
Track 8 not present in database
Track 9 not present in database
Track 10 not present in database
Track 11 not present in database
Track 12 not present in database
Track 13 not present in database
Track 14 not present in database
Track 15 not present in database
Track 16 not present in database
Track 17 not present in database
None of the tracks are present in the AccurateRip database
End of status report

CD2

Exact Audio Copy V1.0 beta 3 from 29. August 2011
EAC extraction logfile from 15. November 2014, 16:18
- / The Art Of McCartney (CD2)
Used drive : PIONEER DVD-RW DVR-221L Adapter: 1 ID: 0
Read mode : Secure
Utilize accurate stream : Yes
Defeat audio cache : Yes
Make use of C2 pointers : No
Read offset correction : 6
Overread into Lead-In and Lead-Out : No
Fill up missing offset samples with silence : Yes
Delete leading and trailing silent blocks : No
Null samples used in CRC calculations : Yes
Used interface : Installed external ASPI interface
Used output format : Internal WAV Routines
Sample format : 44.100 Hz; 16 Bit; Stereo
TOC of the extracted CD
Track | Start | Length | Start sector | End sector
---------------------------------------------------------
1 | 0:00.00 | 3:08.59 | 0 | 14158
2 | 3:08.59 | 3:48.45 | 14159 | 31303
3 | 6:57.29 | 4:11.63 | 31304 | 50191
4 | 11:09.17 | 3:10.45 | 50192 | 64486
5 | 14:19.62 | 3:59.14 | 64487 | 82425
6 | 18:19.01 | 5:14.17 | 82426 | 105992
7 | 23:33.18 | 3:36.55 | 105993 | 122247
8 | 27:09.73 | 2:41.60 | 122248 | 134382
9 | 29:51.58 | 2:52.29 | 134383 | 147311
10 | 32:44.12 | 2:15.37 | 147312 | 157473
11 | 34:59.49 | 5:12.40 | 157474 | 180913
12 | 40:12.14 | 3:19.50 | 180914 | 195888
13 | 43:31.64 | 3:36.24 | 195889 | 212112
14 | 47:08.13 | 2:08.31 | 212113 | 221743
15 | 49:16.44 | 2:21.43 | 221744 | 232361
16 | 51:38.12 | 3:19.61 | 232362 | 247347
17 | 54:57.73 | 2:38.13 | 247348 | 259210
Range status and errors
Selected range
Filename D:\POST 2\The Art Of McCartney (EAC)\CD2\The Art Of McCartney (CD2).wav
Peak level 96.6 %
Extraction speed 7.3 X
Range quality 99.9 %
Test CRC 23B9A338
Copy CRC 23B9A338
Copy OK
No errors occurred
AccurateRip summary
Track 1 not present in database
Track 2 not present in database
Track 3 not present in database
Track 4 not present in database
Track 5 not present in database
Track 6 not present in database
Track 7 not present in database
Track 8 not present in database
Track 9 not present in database
Track 10 not present in database
Track 11 not present in database
Track 12 not present in database
Track 13 not present in database
Track 14 not present in database
Track 15 not present in database
Track 16 not present in database
Track 17 not present in database
None of the tracks are present in the AccurateRip database
End of status report

To download the file disable ad blocking, and reload the page.

disable adblock How to disable ad blocking?

Download by magnet link 854 MB Download Torrent

Login using:

Similar topics



   
Current time is: 18-Sep 17:41 :: All times are UTC ± 0