Girlism - Colours Of Female Music
Жанр: Pop Rock
Страна-производитель диска: Holland
Год издания: 1991
Издатель (лейбл): Ausfahrt\EFA
Номер по каталогу: 06149
Аудиокодек: FLAC (*.flac)
Тип рипа: tracks+.cue
Битрейт аудио: lossless
Продолжительность: 1:13:09.
Источник (релизер): clustert
Наличие сканов в содержимом раздачи: да
Треклист:
01. Darling Buds / Fall [0:03:56.20]
02. Romeo Void / Say No [0:04:35.00]
03. Rita Mitsouko / Marcia Baila [0:05:34.00]
04. Betty Boo / Doin The Do [0:03:44.10]
05. Jenny Morris / Bag Lady [0:03:13.20]
06. Sade / Nothing Can Come Between Us [0:04:22.25]
07. Adele Bertei / Loneliest Girl (Pentimento) [0:04:38.00]
08. Alison Moyet / All Cried Out [0:06:51.17]
09. Sylvia Juncosa / Unfortunately [0:05:26.70]
10. The Breeders / Hellbound [0:02:20.33]
11. Malaria! / Your Turn To Run [0:04:07.42]
12. Fuzzbox / X X Sex [0:02:01.18]
13. Cosmopolitans / How To Keep Your Husband Happy [0:02:45.27]
14. Lolitas / Il S'en Fout [0:04:41.38]
15. Anna Palm / In Need [0:04:54.67]
16. Nancy Sinatra / These Boots Are Made For Walking [0:02:42.25]
17. Strawberry Switchblade / Since Yesterday [0:02:56.05]
18. Anne Clark / Abuse [0:04:18.70]

Лог создания рипа

Exact Audio Copy V1.0 beta 3 from 29. August 2011
Отчёт EAC об извлечении, выполненном 3. ноября 2014, 21:00
VA / Girlism
Дисковод: ASUS DRW-1814BLT Adapter: 4 ID: 0
Режим чтения : Достоверность
Использование точного потока : Да
Отключение кэша аудио : Да
Использование указателей C2 : Нет
Коррекция смещения при чтении : 6
Способность читать области Lead-in и Lead-out : Нет
Заполнение пропущенных сэмплов тишиной : Да
Удаление блоков с тишиной в начале и конце : Нет
При вычислениях CRC использовались нулевые сэмплы : Да
Интерфейс : Встроенный Win32-интерфейс для Win NT/2000
Обработка зазоров : Добавлено к предыдущему треку
Выходной формат : Пользовательский кодировщик
Выбранный битрейт : 128 kBit/s
Качество : Высокий
Добавление ID3-тега : Нет
Утилита сжатия : C:\Program Files\Exact Audio Copy\Flac\flac.exe
Дополнительные параметры : -V -8 -T "Genre=%genre%" -T "Artist=%artist%" -T "Title=%title%" -T "Album=%albumtitle%" -T "Date=%year%" -T "Tracknumber=%tracknr%" -T "Comment=EAC1.0b2 FLAC -8" %source%
TOC извлечённого CD
Трек | Старт | Длительность | Начальный сектор | Конечный сектор
---------------------------------------------------------------------
1 | 0:00.00 | 3:56.20 | 0 | 17719
2 | 3:56.20 | 4:35.00 | 17720 | 38344
3 | 8:31.20 | 5:34.00 | 38345 | 63394
4 | 14:05.20 | 3:44.10 | 63395 | 80204
5 | 17:49.30 | 3:13.20 | 80205 | 94699
6 | 21:02.50 | 4:22.25 | 94700 | 114374
7 | 25:25.00 | 4:38.00 | 114375 | 135224
8 | 30:03.00 | 6:51.17 | 135225 | 166066
9 | 36:54.17 | 5:26.70 | 166067 | 190586
10 | 42:21.12 | 2:20.33 | 190587 | 201119
11 | 44:41.45 | 4:07.42 | 201120 | 219686
12 | 48:49.12 | 2:01.18 | 219687 | 228779
13 | 50:50.30 | 2:45.27 | 228780 | 241181
14 | 53:35.57 | 4:41.38 | 241182 | 262294
15 | 58:17.20 | 4:54.67 | 262295 | 284411
16 | 63:12.12 | 2:42.25 | 284412 | 296586
17 | 65:54.37 | 2:56.05 | 296587 | 309791
18 | 68:50.42 | 4:18.70 | 309792 | 329211
Трек 1
Имя файла R:\Раздача 27\VA - Girlism - 1991 - Colours Of Female Music\01 Fall.wav
Длина предзазора 0:00:02.00
Пиковый уровень 89.8 %
Скорость извлечения 4.8 X
Качество трека 100.0 %
CRC теста A0D4CAC8
CRC копии A0D4CAC8
Точное извлечение (достоверность 1) [0CA0091F] (AR v2)
Копирование... OK
Трек 2
Имя файла R:\Раздача 27\VA - Girlism - 1991 - Colours Of Female Music\02 Say No.wav
Пиковый уровень 86.4 %
Скорость извлечения 5.4 X
Качество трека 100.0 %
CRC теста B17BC9D2
CRC копии B17BC9D2
Точное извлечение (достоверность 1) [B4CA8069] (AR v2)
Копирование... OK
Трек 3
Имя файла R:\Раздача 27\VA - Girlism - 1991 - Colours Of Female Music\03 Marcia Baila.wav
Пиковый уровень 98.9 %
Скорость извлечения 4.4 X
Качество трека 99.9 %
CRC теста 4B8EF1FD
CRC копии 4B8EF1FD
Точное извлечение (достоверность 1) [E8B6DC92] (AR v2)
Копирование... OK
Трек 4
Имя файла R:\Раздача 27\VA - Girlism - 1991 - Colours Of Female Music\04 Doin The Do.wav
Пиковый уровень 91.7 %
Скорость извлечения 4.9 X
Качество трека 100.0 %
CRC теста 7AFBF843
CRC копии 7AFBF843
Точное извлечение (достоверность 1) [6E21D5CF] (AR v2)
Копирование... OK
Трек 5
Имя файла R:\Раздача 27\VA - Girlism - 1991 - Colours Of Female Music\05 Bag Lady.wav
Пиковый уровень 95.4 %
Скорость извлечения 6.2 X
Качество трека 100.0 %
CRC теста B5DC06A5
CRC копии B5DC06A5
Точное извлечение (достоверность 1) [1BFB2274] (AR v2)
Копирование... OK
Трек 6
Имя файла R:\Раздача 27\VA - Girlism - 1991 - Colours Of Female Music\06 Nothing Can Come Between Us.wav
Пиковый уровень 94.8 %
Скорость извлечения 6.8 X
Качество трека 100.0 %
CRC теста 1ABC14F9
CRC копии 1ABC14F9
Точное извлечение (достоверность 1) [7708785E] (AR v2)
Копирование... OK
Трек 7
Имя файла R:\Раздача 27\VA - Girlism - 1991 - Colours Of Female Music\07 Loneliest Girl (Pentimento).wav
Пиковый уровень 94.2 %
Скорость извлечения 7.2 X
Качество трека 100.0 %
CRC теста 5153AEEE
CRC копии 5153AEEE
Точное извлечение (достоверность 1) [BCA57D45] (AR v2)
Копирование... OK
Трек 8
Имя файла R:\Раздача 27\VA - Girlism - 1991 - Colours Of Female Music\08 All Cried Out.wav
Пиковый уровень 100.0 %
Скорость извлечения 7.9 X
Качество трека 100.0 %
CRC теста CFDE52B7
CRC копии CFDE52B7
Точность не определена (достоверность 1) [7C554F11], AccurateRip вернул [D6305623] (AR v2)
Копирование... OK
Трек 9
Имя файла R:\Раздача 27\VA - Girlism - 1991 - Colours Of Female Music\09 Unfortunately.wav
Пиковый уровень 85.1 %
Скорость извлечения 8.1 X
Качество трека 100.0 %
CRC теста CDB9AE4A
CRC копии CDB9AE4A
Точное извлечение (достоверность 1) [3F045A9E] (AR v2)
Копирование... OK
Трек 10
Имя файла R:\Раздача 27\VA - Girlism - 1991 - Colours Of Female Music\10 Hellbound.wav
Пиковый уровень 92.6 %
Скорость извлечения 4.9 X
Качество трека 99.9 %
CRC теста 33698755
CRC копии 33698755
Точное извлечение (достоверность 1) [54BB170A] (AR v2)
Копирование... OK
Трек 11
Имя файла R:\Раздача 27\VA - Girlism - 1991 - Colours Of Female Music\11 Your Turn To Run.wav
Пиковый уровень 92.2 %
Скорость извлечения 8.3 X
Качество трека 100.0 %
CRC теста 0173FF18
CRC копии 0173FF18
Точное извлечение (достоверность 1) [6AC391E0] (AR v2)
Копирование... OK
Трек 12
Имя файла R:\Раздача 27\VA - Girlism - 1991 - Colours Of Female Music\12 X X Sex.wav
Пиковый уровень 91.0 %
Скорость извлечения 7.4 X
Качество трека 100.0 %
CRC теста 26863023
CRC копии 26863023
Точное извлечение (достоверность 1) [2E91522E] (AR v2)
Копирование... OK
Трек 13
Имя файла R:\Раздача 27\VA - Girlism - 1991 - Colours Of Female Music\13 How To Keep Your Husband Happy.wav
Пиковый уровень 93.0 %
Скорость извлечения 5.6 X
Качество трека 99.9 %
CRC теста 24DA3BEB
CRC копии 24DA3BEB
Точное извлечение (достоверность 1) [F53A26C3] (AR v2)
Копирование... OK
Трек 14
Имя файла R:\Раздача 27\VA - Girlism - 1991 - Colours Of Female Music\14 Il S'en Fout.wav
Пиковый уровень 91.2 %
Скорость извлечения 6.5 X
Качество трека 99.9 %
CRC теста 2E86A034
CRC копии 2E86A034
Точное извлечение (достоверность 1) [4F2280E9] (AR v2)
Копирование... OK
Трек 15
Имя файла R:\Раздача 27\VA - Girlism - 1991 - Colours Of Female Music\15 In Need.wav
Пиковый уровень 97.7 %
Скорость извлечения 9.3 X
Качество трека 100.0 %
CRC теста E5022AC2
CRC копии E5022AC2
Точное извлечение (достоверность 1) [E8DB2BEF] (AR v2)
Копирование... OK
Трек 16
Имя файла R:\Раздача 27\VA - Girlism - 1991 - Colours Of Female Music\16 These Boots Are Made For Walking.wav
Пиковый уровень 97.7 %
Скорость извлечения 5.9 X
Качество трека 99.9 %
CRC теста 4FF918F9
CRC копии 4FF918F9
Точность не определена (достоверность 1) [7D3D3C7A], AccurateRip вернул [7EEB661D] (AR v2)
Копирование... OK
Трек 17
Имя файла R:\Раздача 27\VA - Girlism - 1991 - Colours Of Female Music\17 Since Yesterday.wav
Пиковый уровень 88.3 %
Скорость извлечения 8.9 X
Качество трека 100.0 %
CRC теста F1958AE4
CRC копии F1958AE4
Точное извлечение (достоверность 1) [91DFE290] (AR v2)
Копирование... OK
Трек 18
Имя файла R:\Раздача 27\VA - Girlism - 1991 - Colours Of Female Music\18 Abuse.wav
Длина предзазора 0:00:00.01
Пиковый уровень 100.0 %
Скорость извлечения 9.7 X
Качество трека 100.0 %
CRC теста 8398BC26
CRC копии 8398BC26
Точное извлечение (достоверность 1) [6573FAFB] (AR v2)
Копирование... OK
16 трек(и) скопированы точно
2 трек(и) не удалось проверить на точность
Некоторые треки не прошли проверку на точность
Ошибок не произошло
Конец отчёта
==== Контрольная сумма отчёта DF2696E6066135B6BEDA783DE6651E25527C73F03080F84683386ABD7DDD983C ====

Содержание индексной карты (.CUE)

REM GENRE Pop
REM DATE 1991
REM DISCID 02112512
REM COMMENT "ExactAudioCopy v1.0b3"
PERFORMER "VA"
TITLE "Girlism"
FILE "01 Fall.wav" WAVE
TRACK 01 AUDIO
TITLE "Fall"
PERFORMER "Darling Buds"
ISRC 000000000000
INDEX 01 00:00:00
FILE "02 Say No.wav" WAVE
TRACK 02 AUDIO
TITLE "Say No"
PERFORMER "Romeo Void"
ISRC 000000000000
INDEX 01 00:00:00
FILE "03 Marcia Baila.wav" WAVE
TRACK 03 AUDIO
TITLE "Marcia Baila"
PERFORMER "Rita Mitsouko"
ISRC 000000000000
INDEX 01 00:00:00
FILE "04 Doin The Do.wav" WAVE
TRACK 04 AUDIO
TITLE "Doin The Do"
PERFORMER "Betty Boo"
ISRC 000000000000
INDEX 01 00:00:00
FILE "05 Bag Lady.wav" WAVE
TRACK 05 AUDIO
TITLE "Bag Lady"
PERFORMER "Jenny Morris"
ISRC 000000000000
INDEX 01 00:00:00
FILE "06 Nothing Can Come Between Us.wav" WAVE
TRACK 06 AUDIO
TITLE "Nothing Can Come Between Us"
PERFORMER "Sade"
ISRC 000000000000
INDEX 01 00:00:00
FILE "07 Loneliest Girl (Pentimento).wav" WAVE
TRACK 07 AUDIO
TITLE "Loneliest Girl (Pentimento)"
PERFORMER "Adele Bertei"
ISRC 000000000000
INDEX 01 00:00:00
FILE "08 All Cried Out.wav" WAVE
TRACK 08 AUDIO
TITLE "All Cried Out"
PERFORMER "Alison Moyet"
ISRC 000000000000
INDEX 01 00:00:00
FILE "09 Unfortunately.wav" WAVE
TRACK 09 AUDIO
TITLE "Unfortunately"
PERFORMER "Sylvia Juncosa"
ISRC 000000000000
INDEX 01 00:00:00
FILE "10 Hellbound.wav" WAVE
TRACK 10 AUDIO
TITLE "Hellbound"
PERFORMER "The Breeders"
ISRC 000000000000
INDEX 01 00:00:00
FILE "11 Your Turn To Run.wav" WAVE
TRACK 11 AUDIO
TITLE "Your Turn To Run"
PERFORMER "Malaria!"
ISRC 000000000000
INDEX 01 00:00:00
FILE "12 X X Sex.wav" WAVE
TRACK 12 AUDIO
TITLE "X X Sex"
PERFORMER "Fuzzbox"
ISRC 000000000000
INDEX 01 00:00:00
FILE "13 How To Keep Your Husband Happy.wav" WAVE
TRACK 13 AUDIO
TITLE "How To Keep Your Husband Happy"
PERFORMER "Cosmopolitans"
ISRC 000000000000
INDEX 01 00:00:00
FILE "14 Il S'en Fout.wav" WAVE
TRACK 14 AUDIO
TITLE "Il S'en Fout"
PERFORMER "Lolitas"
ISRC 000000000000
INDEX 01 00:00:00
FILE "15 In Need.wav" WAVE
TRACK 15 AUDIO
TITLE "In Need"
PERFORMER "Anna Palm"
ISRC 000000000000
INDEX 01 00:00:00
FILE "16 These Boots Are Made For Walking.wav" WAVE
TRACK 16 AUDIO
TITLE "These Boots Are Made For Walking"
PERFORMER "Nancy Sinatra"
ISRC 000000000000
INDEX 01 00:00:00
FILE "17 Since Yesterday.wav" WAVE
TRACK 17 AUDIO
TITLE "Since Yesterday"
PERFORMER "Strawberry Switchblade"
ISRC 000000000000
INDEX 01 00:00:00
TRACK 18 AUDIO
TITLE "Abuse"
PERFORMER "Anne Clark"
ISRC 000000000000
INDEX 00 02:56:04
FILE "18 Abuse.wav" WAVE
INDEX 01 00:00:00

To download the file disable ad blocking, and reload the page.

disable adblock How to disable ad blocking?

Download by magnet link 457 MB Download Torrent

Login using:

Similar topics

(Pop/Rock) Marc Lavoine - Volume 10 - 2010, FLAC (image+.cue) lossless
 285 MB   0 | 0   30-Apr-17 21:46   0


   
Current time is: 20-Sep 01:40 :: All times are UTC ± 0