Me Time
Жанр: Soul, Pop Rock
Носитель: CD
Год издания: 2007
Издатель (лейбл): Warner Music TV
Номер по каталогу: WMTV047
Аудиокодек: FLAC (*.flac)
Тип рипа: tracks+.cue
Битрейт аудио: lossless
Продолжительность: 02:37:43
Источник (релизер): what.cd
Наличие сканов в содержимом раздачи: да
Треклист:
CD 1
01. Natalie Imbruglia - Big Mistake [04:34]
02. KT Tunstall - Other Side Of The World [03:32]
03. Tasmin Archer - Sleeping Satellite [04:40]
04. Paolo Nutini - Last Request [03:40]
05. Vonda Shepard - You Belong To Me [02:52]
06. Katie Melua - Nine Million Bicycles [03:14]
07. Lene Marlin - Sitting Down Here [03:54]
08. Suzanne Vega - Luka [03:52]
09. Emiliana Torrini - To Be Free [03:26]
10. Beth Orton - Stolen Car [05:20]
11. Macy Gray - I Try [03:40]
12. Fiona Apple - Paper Bag [03:39]
13. Alanis Morissette - Ironic [03:47]
14. Sophie Zelmani - Always You [02:50]
15. Damien Rice - 9 Crimes [03:39]
16. Sarah McLachlan - Angel [04:23]
17. Bjork - All Is Full Of Love [04:36]
18. James Blunt - High [04:03]
19. Stina Nordenstam - Get On With Your Life [03:26]
20. Edie Brickell And New Bohemians - What I Am [04:55]
CD 2
01. Ray LaMontagne - Trouble [03:58]
02. Tori Amos - Cornflake Girl [05:05]
03. KD Lang - Constant Craving [04:12]
04. Nerina Pallot - Sophia [03:38]
05. David Gray - Sail Away [05:13]
06. Jewel - Foolish Games [04:01]
07. Amanda Ghost - Cellophane [03:35]
08. Nina Gordon - Tonight And The Rest Of My Life [04:23]
09. Donna Lewis - I Love You Always Forever [03:48]
10. Eliza Carthy - Train Song [03:59]
11. Heather Nova - Walk This World [03:48]
12. Natalie Merchant - Wonder [04:17]
13. Tracy Dawn - You Deserve To Be Loved [04:47]
14. Aimee Mann - Today's The Day [04:41]
15. Jet - Look What You've Done [03:50]
16. Skye - Feel Good Inc. [03:19]
17. Ani DiFranco - Not A Pretty Girl [03:55]
18. Joan Osborne - One Of Us [04:16]
19. Julee Criuse - Falling [04:37]

logs and sheets

Log EAC CD 1

Exact Audio Copy V1.0 beta 1 from 15. November 2010
EAC extraction logfile from 2. January 2013, 22:35
Various Artists / Me Time CD1
Used drive : Optiarc DVD RW AD-7200A Adapter: 4 ID: 1
Read mode : Secure
Utilize accurate stream : Yes
Defeat audio cache : Yes
Make use of C2 pointers : No
Read offset correction : 48
Overread into Lead-In and Lead-Out : No
Fill up missing offset samples with silence : Yes
Delete leading and trailing silent blocks : No
Null samples used in CRC calculations : Yes
Used interface : Installed external ASPI interface
Gap handling : Appended to previous track
Used output format : User Defined Encoder
Selected bitrate : 1024 kBit/s
Quality : High
Add ID3 tag : No
Command line compressor : C:\Program Files\FLAC\flac.exe
Additional command line options : -8 -V -T "ARTIST=%a" -T "TITLE=%t" -T "ALBUM=%g" -T "DATE=%y" -T "TRACKNUMBER=%n" -T "TOTALTRACKS=%x" -T "GENRE=%m" -T "ALBUMARTIST=%v" -T "ALBUM ARTIST=%v" -T "COMMENT=EAC Secure Mode, Test & Copy, AccurateRip, FLAC -8" %s
TOC of the extracted CD
Track | Start | Length | Start sector | End sector
---------------------------------------------------------
1 | 0:00.00 | 4:34.70 | 0 | 20619
2 | 4:34.70 | 3:32.66 | 20620 | 36585
3 | 8:07.61 | 4:40.70 | 36586 | 57655
4 | 12:48.56 | 3:40.28 | 57656 | 74183
5 | 16:29.09 | 2:52.42 | 74184 | 87125
6 | 19:21.51 | 3:14.23 | 87126 | 101698
7 | 22:35.74 | 3:54.07 | 101699 | 119255
8 | 26:30.06 | 3:52.41 | 119256 | 136696
9 | 30:22.47 | 3:26.30 | 136697 | 152176
10 | 33:49.02 | 5:20.12 | 152177 | 176188
11 | 39:09.14 | 3:40.08 | 176189 | 192696
12 | 42:49.22 | 3:39.43 | 192697 | 209164
13 | 46:28.65 | 3:47.43 | 209165 | 226232
14 | 50:16.33 | 2:50.36 | 226233 | 239018
15 | 53:06.69 | 3:39.50 | 239019 | 255493
16 | 56:46.44 | 4:23.30 | 255494 | 275248
17 | 61:09.74 | 4:36.67 | 275249 | 296015
18 | 65:46.66 | 4:03.41 | 296016 | 314281
19 | 69:50.32 | 3:26.61 | 314282 | 329792
20 | 73:17.18 | 4:55.28 | 329793 | 351945
Track 1
Filename C:\Converted Music\EAC\01 - Natalie Imbruglia - Big Mistake.wav
Pre-gap length 0:00:02.00
Peak level 97.8 %
Extraction speed 2.3 X
Track quality 99.9 %
Test CRC E1E0E2CF
Copy CRC E1E0E2CF
Accurately ripped (confidence 1) [5A458AA1]
Copy OK
Track 2
Filename C:\Converted Music\EAC\02 - KT Tunstall - Other Side Of The World.wav
Pre-gap length 0:00:00.51
Peak level 76.7 %
Extraction speed 2.7 X
Track quality 100.0 %
Test CRC 5577F4E6
Copy CRC 5577F4E6
Accurately ripped (confidence 1) [C50B12E1]
Copy OK
Track 3
Filename C:\Converted Music\EAC\03 - Tasmin Archer - Sleeping Satellite.wav
Pre-gap length 0:00:00.51
Peak level 100.0 %
Extraction speed 2.7 X
Track quality 99.9 %
Test CRC 3E56B7AB
Copy CRC 3E56B7AB
Accurately ripped (confidence 1) [C5D4EAFB]
Copy OK
Track 4
Filename C:\Converted Music\EAC\04 - Paolo Nutini - Last Request.wav
Pre-gap length 0:00:00.51
Peak level 83.9 %
Extraction speed 3.1 X
Track quality 100.0 %
Test CRC 176A29B3
Copy CRC 176A29B3
Accurately ripped (confidence 1) [823FDB7F]
Copy OK
Track 5
Filename C:\Converted Music\EAC\05 - Vonda Shepard - You Belong To Me.wav
Pre-gap length 0:00:00.51
Peak level 100.0 %
Extraction speed 3.1 X
Track quality 100.0 %
Test CRC DD56E5CA
Copy CRC DD56E5CA
Accurately ripped (confidence 1) [01390545]
Copy OK
Track 6
Filename C:\Converted Music\EAC\06 - Katie Melua - Nine Million Bicycles.wav
Pre-gap length 0:00:00.51
Peak level 100.0 %
Extraction speed 3.4 X
Track quality 100.0 %
Test CRC D4AFDABC
Copy CRC D4AFDABC
Accurately ripped (confidence 1) [29448722]
Copy OK
Track 7
Filename C:\Converted Music\EAC\07 - Lene Marlin - Sitting Down Here.wav
Pre-gap length 0:00:00.51
Peak level 82.1 %
Extraction speed 3.2 X
Track quality 99.9 %
Test CRC 7455E726
Copy CRC 7455E726
Accurately ripped (confidence 1) [DAB31635]
Copy OK
Track 8
Filename C:\Converted Music\EAC\08 - Suzanne Vega - Luka.wav
Pre-gap length 0:00:00.51
Peak level 89.4 %
Extraction speed 3.8 X
Track quality 100.0 %
Test CRC 1538EE03
Copy CRC 1538EE03
Accurately ripped (confidence 1) [237845D4]
Copy OK
Track 9
Filename C:\Converted Music\EAC\09 - Emiliana Torrini - To Be Free.wav
Pre-gap length 0:00:00.51
Peak level 97.7 %
Extraction speed 3.8 X
Track quality 100.0 %
Test CRC 1A494F3C
Copy CRC 1A494F3C
Accurately ripped (confidence 1) [879B052D]
Copy OK
Track 10
Filename C:\Converted Music\EAC\10 - Beth Orton - Stolen Car.wav
Pre-gap length 0:00:00.51
Peak level 100.0 %
Extraction speed 4.3 X
Track quality 100.0 %
Test CRC AC98C401
Copy CRC AC98C401
Accurately ripped (confidence 1) [E5820448]
Copy OK
Track 11
Filename C:\Converted Music\EAC\11 - Macy Gray - I Try.wav
Pre-gap length 0:00:00.51
Peak level 91.1 %
Extraction speed 4.2 X
Track quality 100.0 %
Test CRC 57BA52A9
Copy CRC 57BA52A9
Accurately ripped (confidence 1) [781384AD]
Copy OK
Track 12
Filename C:\Converted Music\EAC\12 - Fiona Apple - Paper Bag.wav
Pre-gap length 0:00:00.51
Peak level 94.4 %
Extraction speed 4.4 X
Track quality 100.0 %
Test CRC 63908EE8
Copy CRC 63908EE8
Accurately ripped (confidence 1) [6670731B]
Copy OK
Track 13
Filename C:\Converted Music\EAC\13 - Alanis Morissette - Ironic.wav
Pre-gap length 0:00:00.51
Peak level 100.0 %
Extraction speed 4.5 X
Track quality 100.0 %
Test CRC B3D01281
Copy CRC B3D01281
Accurately ripped (confidence 1) [B4E5955B]
Copy OK
Track 14
Filename C:\Converted Music\EAC\14 - Sophie Zelmani - Always You.wav
Pre-gap length 0:00:00.51
Peak level 94.4 %
Extraction speed 4.4 X
Track quality 100.0 %
Test CRC D56D9549
Copy CRC D56D9549
Accurately ripped (confidence 1) [E33C301F]
Copy OK
Track 15
Filename C:\Converted Music\EAC\15 - Damien Rice - 9 Crimes.wav
Pre-gap length 0:00:00.51
Peak level 83.1 %
Extraction speed 4.7 X
Track quality 100.0 %
Test CRC 0B3B6FBC
Copy CRC 0B3B6FBC
Accurately ripped (confidence 1) [4031DA1F]
Copy OK
Track 16
Filename C:\Converted Music\EAC\16 - Sarah McLachlan - Angel.wav
Pre-gap length 0:00:00.51
Peak level 86.1 %
Extraction speed 5.0 X
Track quality 100.0 %
Test CRC 2B609396
Copy CRC 2B609396
Accurately ripped (confidence 1) [12267E13]
Copy OK
Track 17
Filename C:\Converted Music\EAC\17 - Bjork - All Is Full Of Love.wav
Pre-gap length 0:00:00.51
Peak level 72.4 %
Extraction speed 5.1 X
Track quality 100.0 %
Test CRC 426817F1
Copy CRC 426817F1
Accurately ripped (confidence 1) [B0A991E3]
Copy OK
Track 18
Filename C:\Converted Music\EAC\18 - James Blunt - High.wav
Pre-gap length 0:00:00.51
Peak level 92.1 %
Extraction speed 5.2 X
Track quality 100.0 %
Test CRC 326889AC
Copy CRC 326889AC
Accurately ripped (confidence 1) [BDCFE427]
Copy OK
Track 19
Filename C:\Converted Music\EAC\19 - Stina Nordenstam - Get On With Your Life.wav
Pre-gap length 0:00:00.51
Peak level 81.3 %
Extraction speed 5.2 X
Track quality 100.0 %
Test CRC 86FB1D4F
Copy CRC 86FB1D4F
Accurately ripped (confidence 1) [1F55781C]
Copy OK
Track 20
Filename C:\Converted Music\EAC\20 - Edie Brickell And New Bohemians - What I Am.wav
Pre-gap length 0:00:00.51
Peak level 100.0 %
Extraction speed 5.6 X
Track quality 100.0 %
Test CRC 5A274BE1
Copy CRC 5A274BE1
Accurately ripped (confidence 1) [F8D16090]
Copy OK
All tracks accurately ripped
No errors occurred
End of status report
==== Log checksum 57240BFF0BCFBDCBE9AE3CDB33A65B503AA4D9F330708EE5CB77258C2C4307F2 ====

cue CD 1

REM GENRE Misc
REM DATE 2007
REM DISCID 36125414
REM COMMENT "ExactAudioCopy v1.0b1"
PERFORMER "Various Artists"
TITLE "Me Time CD1"
FILE "01 - Natalie Imbruglia - Big Mistake.wav" WAVE
TRACK 01 AUDIO
TITLE "Big Mistake"
PERFORMER "Natalie Imbruglia"
FLAGS DCP
INDEX 01 00:00:00
TRACK 02 AUDIO
TITLE "Other Side Of The World"
PERFORMER "KT Tunstall"
FLAGS DCP
INDEX 00 04:34:19
FILE "02 - KT Tunstall - Other Side Of The World.wav" WAVE
INDEX 01 00:00:00
TRACK 03 AUDIO
TITLE "Sleeping Satellite"
PERFORMER "Tasmin Archer"
FLAGS DCP
INDEX 00 03:32:15
FILE "03 - Tasmin Archer - Sleeping Satellite.wav" WAVE
INDEX 01 00:00:00
TRACK 04 AUDIO
TITLE "Last Request"
PERFORMER "Paolo Nutini"
FLAGS DCP
INDEX 00 04:40:19
FILE "04 - Paolo Nutini - Last Request.wav" WAVE
INDEX 01 00:00:00
TRACK 05 AUDIO
TITLE "You Belong To Me"
PERFORMER "Vonda Shepard"
FLAGS DCP
INDEX 00 03:39:52
FILE "05 - Vonda Shepard - You Belong To Me.wav" WAVE
INDEX 01 00:00:00
TRACK 06 AUDIO
TITLE "Nine Million Bicycles"
PERFORMER "Katie Melua"
FLAGS DCP
INDEX 00 02:51:66
FILE "06 - Katie Melua - Nine Million Bicycles.wav" WAVE
INDEX 01 00:00:00
TRACK 07 AUDIO
TITLE "Sitting Down Here"
PERFORMER "Lene Marlin"
FLAGS DCP
INDEX 00 03:13:47
FILE "07 - Lene Marlin - Sitting Down Here.wav" WAVE
INDEX 01 00:00:00
TRACK 08 AUDIO
TITLE "Luka"
PERFORMER "Suzanne Vega"
FLAGS DCP
INDEX 00 03:53:31
FILE "08 - Suzanne Vega - Luka.wav" WAVE
INDEX 01 00:00:00
TRACK 09 AUDIO
TITLE "To Be Free"
PERFORMER "Emiliana Torrini"
FLAGS DCP
INDEX 00 03:51:65
FILE "09 - Emiliana Torrini - To Be Free.wav" WAVE
INDEX 01 00:00:00
TRACK 10 AUDIO
TITLE "Stolen Car"
PERFORMER "Beth Orton"
FLAGS DCP
INDEX 00 03:25:54
FILE "10 - Beth Orton - Stolen Car.wav" WAVE
INDEX 01 00:00:00
TRACK 11 AUDIO
TITLE "I Try"
PERFORMER "Macy Gray"
FLAGS DCP
INDEX 00 05:19:36
FILE "11 - Macy Gray - I Try.wav" WAVE
INDEX 01 00:00:00
TRACK 12 AUDIO
TITLE "Paper Bag"
PERFORMER "Fiona Apple"
FLAGS DCP
INDEX 00 03:39:32
FILE "12 - Fiona Apple - Paper Bag.wav" WAVE
INDEX 01 00:00:00
TRACK 13 AUDIO
TITLE "Ironic"
PERFORMER "Alanis Morissette"
FLAGS DCP
INDEX 00 03:38:67
FILE "13 - Alanis Morissette - Ironic.wav" WAVE
INDEX 01 00:00:00
TRACK 14 AUDIO
TITLE "Always You"
PERFORMER "Sophie Zelmani"
FLAGS DCP
INDEX 00 03:46:67
FILE "14 - Sophie Zelmani - Always You.wav" WAVE
INDEX 01 00:00:00
TRACK 15 AUDIO
TITLE "9 Crimes"
PERFORMER "Damien Rice"
FLAGS DCP
INDEX 00 02:49:60
FILE "15 - Damien Rice - 9 Crimes.wav" WAVE
INDEX 01 00:00:00
TRACK 16 AUDIO
TITLE "Angel"
PERFORMER "Sarah McLachlan"
FLAGS DCP
INDEX 00 03:38:74
FILE "16 - Sarah McLachlan - Angel.wav" WAVE
INDEX 01 00:00:00
TRACK 17 AUDIO
TITLE "All Is Full Of Love"
PERFORMER "Bjork"
FLAGS DCP
INDEX 00 04:22:54
FILE "17 - Bjork - All Is Full Of Love.wav" WAVE
INDEX 01 00:00:00
TRACK 18 AUDIO
TITLE "High"
PERFORMER "James Blunt"
FLAGS DCP
INDEX 00 04:36:16
FILE "18 - James Blunt - High.wav" WAVE
INDEX 01 00:00:00
TRACK 19 AUDIO
TITLE "Get On With Your Life"
PERFORMER "Stina Nordenstam"
FLAGS DCP
INDEX 00 04:02:65
FILE "19 - Stina Nordenstam - Get On With Your Life.wav" WAVE
INDEX 01 00:00:00
TRACK 20 AUDIO
TITLE "What I Am"
PERFORMER "Edie Brickell And New Bohemians"
FLAGS DCP
INDEX 00 03:26:10
FILE "20 - Edie Brickell And New Bohemians - What I Am.wav" WAVE
INDEX 01 00:00:00

Log EAC CD 2

Exact Audio Copy V1.0 beta 1 from 15. November 2010
EAC extraction logfile from 2. January 2013, 23:30
Various Artists / Me Time CD2
Used drive : Optiarc DVD RW AD-7200A Adapter: 4 ID: 1
Read mode : Secure
Utilize accurate stream : Yes
Defeat audio cache : Yes
Make use of C2 pointers : No
Read offset correction : 48
Overread into Lead-In and Lead-Out : No
Fill up missing offset samples with silence : Yes
Delete leading and trailing silent blocks : No
Null samples used in CRC calculations : Yes
Used interface : Installed external ASPI interface
Gap handling : Appended to previous track
Used output format : User Defined Encoder
Selected bitrate : 1024 kBit/s
Quality : High
Add ID3 tag : No
Command line compressor : C:\Program Files\FLAC\flac.exe
Additional command line options : -8 -V -T "ARTIST=%a" -T "TITLE=%t" -T "ALBUM=%g" -T "DATE=%y" -T "TRACKNUMBER=%n" -T "TOTALTRACKS=%x" -T "GENRE=%m" -T "ALBUMARTIST=%v" -T "ALBUM ARTIST=%v" -T "COMMENT=EAC Secure Mode, Test & Copy, AccurateRip, FLAC -8" %s
TOC of the extracted CD
Track | Start | Length | Start sector | End sector
---------------------------------------------------------
1 | 0:00.00 | 3:58.59 | 0 | 17908
2 | 3:58.59 | 5:05.30 | 17909 | 40813
3 | 9:04.14 | 4:12.19 | 40814 | 59732
4 | 13:16.33 | 3:38.66 | 59733 | 76148
5 | 16:55.24 | 5:13.23 | 76149 | 99646
6 | 22:08.47 | 4:01.11 | 99647 | 117732
7 | 26:09.58 | 3:35.31 | 117733 | 133888
8 | 29:45.14 | 4:23.22 | 133889 | 153635
9 | 34:08.36 | 3:48.52 | 153636 | 170787
10 | 37:57.13 | 3:59.00 | 170788 | 188712
11 | 41:56.13 | 3:48.49 | 188713 | 205861
12 | 45:44.62 | 4:17.53 | 205862 | 225189
13 | 50:02.40 | 4:47.16 | 225190 | 246730
14 | 54:49.56 | 4:41.64 | 246731 | 267869
15 | 59:31.45 | 3:50.17 | 267870 | 285136
16 | 63:21.62 | 3:19.30 | 285137 | 300091
17 | 66:41.17 | 3:55.17 | 300092 | 317733
18 | 70:36.34 | 4:16.47 | 317734 | 336980
19 | 74:53.06 | 4:37.60 | 336981 | 357815
Track 1
Filename C:\Converted Music\EAC\01 - Ray LaMontagne - Trouble.wav
Pre-gap length 0:00:02.00
Peak level 100.0 %
Extraction speed 2.5 X
Track quality 100.0 %
Test CRC D12994AF
Copy CRC D12994AF
Accurately ripped (confidence 1) [12A0FB55]
Copy OK
Track 2
Filename C:\Converted Music\EAC\02 - Tori Amos - Cornflake Girl.wav
Pre-gap length 0:00:00.63
Peak level 98.8 %
Extraction speed 2.9 X
Track quality 100.0 %
Test CRC 1D829F62
Copy CRC 1D829F62
Accurately ripped (confidence 1) [798496A8]
Copy OK
Track 3
Filename C:\Converted Music\EAC\03 - KD Lang - Constant Craving.wav
Pre-gap length 0:00:00.63
Peak level 100.0 %
Extraction speed 3.0 X
Track quality 100.0 %
Test CRC 9732C852
Copy CRC 9732C852
Accurately ripped (confidence 1) [46E10B27]
Copy OK
Track 4
Filename C:\Converted Music\EAC\04 - Nerina Pallot - Sophia.wav
Pre-gap length 0:00:00.63
Peak level 66.8 %
Extraction speed 3.2 X
Track quality 100.0 %
Test CRC 771A4957
Copy CRC 771A4957
Accurately ripped (confidence 1) [2BA53E5E]
Copy OK
Track 5
Filename C:\Converted Music\EAC\05 - David Gray - Sail Away.wav
Pre-gap length 0:00:00.63
Peak level 100.0 %
Extraction speed 3.6 X
Track quality 100.0 %
Test CRC 5EC9DAB8
Copy CRC 5EC9DAB8
Accurately ripped (confidence 1) [7F14194D]
Copy OK
Track 6
Filename C:\Converted Music\EAC\06 - Jewel - Foolish Games.wav
Pre-gap length 0:00:00.63
Peak level 91.7 %
Extraction speed 3.7 X
Track quality 100.0 %
Test CRC F3A63C61
Copy CRC F3A63C61
Accurately ripped (confidence 1) [925FD490]
Copy OK
Track 7
Filename C:\Converted Music\EAC\07 - Amanda Ghost - Cellophane.wav
Pre-gap length 0:00:00.63
Peak level 96.6 %
Extraction speed 3.7 X
Track quality 100.0 %
Test CRC 92B4171A
Copy CRC 92B4171A
Accurately ripped (confidence 1) [99DB8881]
Copy OK
Track 8
Filename C:\Converted Music\EAC\08 - Nina Gordon - Tonight And The Rest Of My Life.wav
Pre-gap length 0:00:00.63
Peak level 76.8 %
Extraction speed 4.0 X
Track quality 100.0 %
Test CRC B2336AF2
Copy CRC B2336AF2
Accurately ripped (confidence 1) [260CE61D]
Copy OK
Track 9
Filename C:\Converted Music\EAC\09 - Donna Lewis - I Love You Always Forever.wav
Pre-gap length 0:00:00.63
Peak level 100.0 %
Extraction speed 4.1 X
Track quality 100.0 %
Test CRC 96137157
Copy CRC 96137157
Accurately ripped (confidence 1) [BF76209C]
Copy OK
Track 10
Filename C:\Converted Music\EAC\10 - Eliza Carthy - Train Song.wav
Pre-gap length 0:00:00.63
Peak level 87.5 %
Extraction speed 4.2 X
Track quality 100.0 %
Test CRC 4871AD2F
Copy CRC 4871AD2F
Accurately ripped (confidence 1) [333CD34F]
Copy OK
Track 11
Filename C:\Converted Music\EAC\11 - Heather Nova - Walk This World.wav
Pre-gap length 0:00:00.63
Peak level 100.0 %
Extraction speed 4.4 X
Track quality 100.0 %
Test CRC F2434C4D
Copy CRC F2434C4D
Accurately ripped (confidence 1) [E5BEFB73]
Copy OK
Track 12
Filename C:\Converted Music\EAC\12 - Natalie Merchant - Wonder.wav
Pre-gap length 0:00:00.63
Peak level 94.4 %
Extraction speed 4.1 X
Track quality 99.9 %
Test CRC 973FDEE3
Copy CRC 973FDEE3
Accurately ripped (confidence 1) [EE6FD2A5]
Copy OK
Track 13
Filename C:\Converted Music\EAC\13 - Tracy Dawn - You Deserve To Be Loved.wav
Pre-gap length 0:00:00.63
Peak level 96.6 %
Extraction speed 4.3 X
Track quality 99.9 %
Test CRC D8E8371F
Copy CRC D8E8371F
Accurately ripped (confidence 1) [5FE36744]
Copy OK
Track 14
Filename C:\Converted Music\EAC\14 - Aimee Mann - Today's The Day.wav
Pre-gap length 0:00:00.63
Peak level 100.0 %
Extraction speed 5.0 X
Track quality 100.0 %
Test CRC FFD86780
Copy CRC FFD86780
Accurately ripped (confidence 1) [FAB7B3F6]
Copy OK
Track 15
Filename C:\Converted Music\EAC\15 - Jet - Look What You've Done.wav
Pre-gap length 0:00:00.63
Peak level 83.0 %
Extraction speed 5.0 X
Track quality 100.0 %
Test CRC 997828DA
Copy CRC 997828DA
Accurately ripped (confidence 1) [50F36B7E]
Copy OK
Track 16
Filename C:\Converted Music\EAC\16 - Skye - Feel Good Inc..wav
Pre-gap length 0:00:00.63
Peak level 90.1 %
Extraction speed 5.0 X
Track quality 100.0 %
Test CRC 7DCD23FB
Copy CRC 7DCD23FB
Accurately ripped (confidence 1) [15FC120E]
Copy OK
Track 17
Filename C:\Converted Music\EAC\17 - Ani DiFranco - Not A Pretty Girl.wav
Pre-gap length 0:00:00.63
Peak level 92.2 %
Extraction speed 5.3 X
Track quality 100.0 %
Test CRC 8370F7D6
Copy CRC 8370F7D6
Accurately ripped (confidence 1) [1FDE7FA7]
Copy OK
Track 18
Filename C:\Converted Music\EAC\18 - Joan Osborne - One Of Us.wav
Pre-gap length 0:00:00.63
Peak level 100.0 %
Extraction speed 5.4 X
Track quality 100.0 %
Test CRC F9F30F8A
Copy CRC F9F30F8A
Accurately ripped (confidence 1) [D2DFEF89]
Copy OK
Track 19
Filename C:\Converted Music\EAC\19 - Julee Criuse - Falling.wav
Pre-gap length 0:00:00.63
Peak level 100.0 %
Extraction speed 5.6 X
Track quality 100.0 %
Test CRC 36D19A55
Copy CRC 36D19A55
Accurately ripped (confidence 1) [78304C48]
Copy OK
All tracks accurately ripped
No errors occurred
End of status report
==== Log checksum 00D4A63AD58D721BF41E802AD15B46A7FE3DF007CEE6DD60D808D9637550718E ====

cue CD 2

REM GENRE Misc
REM DATE 2007
REM DISCID 0712A213
REM COMMENT "ExactAudioCopy v1.0b1"
PERFORMER "Various Artists"
TITLE "Me Time CD2"
FILE "01 - Ray LaMontagne - Trouble.wav" WAVE
TRACK 01 AUDIO
TITLE "Trouble"
PERFORMER "Ray LaMontagne"
INDEX 01 00:00:00
TRACK 02 AUDIO
TITLE "Cornflake Girl"
PERFORMER "Tori Amos"
INDEX 00 03:57:71
FILE "02 - Tori Amos - Cornflake Girl.wav" WAVE
INDEX 01 00:00:00
TRACK 03 AUDIO
TITLE "Constant Craving"
PERFORMER "KD Lang"
INDEX 00 05:04:42
FILE "03 - KD Lang - Constant Craving.wav" WAVE
INDEX 01 00:00:00
TRACK 04 AUDIO
TITLE "Sophia"
PERFORMER "Nerina Pallot"
INDEX 00 04:11:31
FILE "04 - Nerina Pallot - Sophia.wav" WAVE
INDEX 01 00:00:00
TRACK 05 AUDIO
TITLE "Sail Away"
PERFORMER "David Gray"
INDEX 00 03:38:03
FILE "05 - David Gray - Sail Away.wav" WAVE
INDEX 01 00:00:00
TRACK 06 AUDIO
TITLE "Foolish Games"
PERFORMER "Jewel"
INDEX 00 05:12:35
FILE "06 - Jewel - Foolish Games.wav" WAVE
INDEX 01 00:00:00
TRACK 07 AUDIO
TITLE "Cellophane"
PERFORMER "Amanda Ghost"
INDEX 00 04:00:23
FILE "07 - Amanda Ghost - Cellophane.wav" WAVE
INDEX 01 00:00:00
TRACK 08 AUDIO
TITLE "Tonight And The Rest Of My Life"
PERFORMER "Nina Gordon"
INDEX 00 03:34:43
FILE "08 - Nina Gordon - Tonight And The Rest Of My Life.wav" WAVE
INDEX 01 00:00:00
TRACK 09 AUDIO
TITLE "I Love You Always Forever"
PERFORMER "Donna Lewis"
INDEX 00 04:22:34
FILE "09 - Donna Lewis - I Love You Always Forever.wav" WAVE
INDEX 01 00:00:00
TRACK 10 AUDIO
TITLE "Train Song"
PERFORMER "Eliza Carthy"
INDEX 00 03:47:64
FILE "10 - Eliza Carthy - Train Song.wav" WAVE
INDEX 01 00:00:00
TRACK 11 AUDIO
TITLE "Walk This World"
PERFORMER "Heather Nova"
INDEX 00 03:58:12
FILE "11 - Heather Nova - Walk This World.wav" WAVE
INDEX 01 00:00:00
TRACK 12 AUDIO
TITLE "Wonder"
PERFORMER "Natalie Merchant"
INDEX 00 03:47:61
FILE "12 - Natalie Merchant - Wonder.wav" WAVE
INDEX 01 00:00:00
TRACK 13 AUDIO
TITLE "You Deserve To Be Loved"
PERFORMER "Tracy Dawn"
INDEX 00 04:16:65
FILE "13 - Tracy Dawn - You Deserve To Be Loved.wav" WAVE
INDEX 01 00:00:00
TRACK 14 AUDIO
TITLE "Today's The Day"
PERFORMER "Aimee Mann"
INDEX 00 04:46:28
FILE "14 - Aimee Mann - Today's The Day.wav" WAVE
INDEX 01 00:00:00
TRACK 15 AUDIO
TITLE "Look What You've Done"
PERFORMER "Jet"
INDEX 00 04:41:01
FILE "15 - Jet - Look What You've Done.wav" WAVE
INDEX 01 00:00:00
TRACK 16 AUDIO
TITLE "Feel Good Inc."
PERFORMER "Skye"
INDEX 00 03:49:29
FILE "16 - Skye - Feel Good Inc..wav" WAVE
INDEX 01 00:00:00
TRACK 17 AUDIO
TITLE "Not A Pretty Girl"
PERFORMER "Ani DiFranco"
INDEX 00 03:18:42
FILE "17 - Ani DiFranco - Not A Pretty Girl.wav" WAVE
INDEX 01 00:00:00
TRACK 18 AUDIO
TITLE "One Of Us"
PERFORMER "Joan Osborne"
INDEX 00 03:54:29
FILE "18 - Joan Osborne - One Of Us.wav" WAVE
INDEX 01 00:00:00
TRACK 19 AUDIO
TITLE "Falling"
PERFORMER "Julee Criuse"
INDEX 00 04:15:59
FILE "19 - Julee Criuse - Falling.wav" WAVE
INDEX 01 00:00:00

If you like the topic, please click share to help develop our site.

To download the file disable ad blocking, and reload the page.

disable adblock How to disable ad blocking?

Download by magnet link 1.04 GB Download Torrent

Login using:

Similar topics

(Psychedelic | Stoner Rock) VA - The Wall [Redux] - 2018, MP3, 320 kbps
 225 MB   0 | 0   11-Nov-18 11:20   15


   
Current time is: 20-Apr 05:19 :: All times are UTC + 3