VA - Celebrating Jon Lord (The Composer & The Rock Legend) Japan (VQCX-10144/45/46)
Жанр: Rock
Носитель: CD
Страна-производитель диска: Japan
Год издания: 2014
Издатель (лейбл): Ear Music/Ward Records
Номер по каталогу: VQCX-10144/45/46
Страна исполнителя (группы): UK
Аудиокодек: FLAC (*.flac)
Тип рипа: image+.cue
Битрейт аудио: lossless
Продолжительность: 02:53:02
Источник (релизер): jarpomarx
Наличие сканов в содержимом раздачи: да
Треклист:

2014 - The Composer (00:59:24)

The Composer CD
1 Fantasia
2 Durham Awakes
3 All Those Years Ago (feat. Steve Balsamo & Micky Moody)
4 Pictured Within (feat. Miller Anderson)
5 Sarabande (feat. Rick Wakeman)
6 One From the Meadow (feat. Margo Buchanan)
7 Bourrée
8 Afterwards (feat. Jeremy Irons & Paul Mann)

Лог создания рипа

Exact Audio Copy V0.99 prebeta 5 from 4. May 2009
Archivo Log de extracciones desde 29. Octubre 2014, 21:41
VV.AA. / Celebrating Jon Lord - The Composer - Japan (VQCX-10144)
Usar unidad : HL-DT-STDVDRAM GH22NS70 Adapter: 0 ID: 0
Modo de Lectura : Seguro
Utilizar Corriente Exacta : Sí
Descartar Audio caché : Sí
Utilizar los punteros C2 : No
Corrección de Desplazamiento de Lectura : 667
Sobreleer tanto en Lead-In como en Lead-Out : No
Rellenar las muestras faltantes con silencios : Sí
Eliminar silencios inicial y final : No
Se han usado muestras nulas en los cálculos CRC : Sí
Interfaz usada : Interfaz propio de Win32 para Windowns NT y 2000
Formato de Salida utilizado : Compresor definido por el usuario
Bitrate seleccionado : 32 kBit/s
Calidad : Alta
Añadir Etiqueta ID3 : No
Compresor de linea de comandos : C:\Program Files (x86)\Exact Audio Copy\Flac\flac.exe
Opciones adicionales en línea de comandos : -6 -V %s
TOC del CD extraido
Pista | Inicio | Duración | Sector inicial | Sector final
-------------------------------------------------------------
1 | 0:00.00 | 4:14.21 | 0 | 19070
2 | 4:14.21 | 8:54.09 | 19071 | 59129
3 | 13:08.30 | 6:47.32 | 59130 | 89686
4 | 19:55.62 | 9:09.41 | 89687 | 130902
5 | 29:05.28 | 8:36.15 | 130903 | 169617
6 | 37:41.43 | 9:58.65 | 169618 | 214532
7 | 47:40.33 | 7:22.64 | 214533 | 247746
8 | 55:03.22 | 4:20.72 | 247747 | 267318
Gama de estados y errores
Seleccionar gama
Nombre de Archivo E:\Música\EAC\Deep Purple\Celebrating Jon Lord\VV.AA. - Celebrating Jon Lord - The Composer - Japan (VQCX-10144).wav
Nivel Pico 99.8 %
Gama de Calidad 100.0 %
Test CRC F223E785
Copiar CRC F223E785
Copia OK
Sin Errores
Resumen AccurateRip
Pista 1 no presente en la base de datos
Pista 2 no presente en la base de datos
Pista 3 no presente en la base de datos
Pista 4 no presente en la base de datos
Pista 5 no presente en la base de datos
Pista 6 no presente en la base de datos
Pista 7 no presente en la base de datos
Pista 8 no presente en la base de datos
Ninguna de las pistas está presente en la base de datos AccurateRip
Final del Informe

2014 - The Rock Legend 2CD (01:53:38)

The Rock Legend CD 1 (51:31)

1 Things Get Better (feat. Paul Weller)
2 I Take What I Want (feat. Paul Weller & Micky Moody)
3 Silas and Jerome (feat. Phil Campbell, Ian Paice & Bernie Marsden)
4 I'm Gonna Stop Drinking (feat. Phil Campbell, Ian Paice & Bernie Marsden)
5 Soldier of Fortune (feat. Steve Balsamo, Sandi Thom & Micky Moody)
6 You Keep on Moving (feat. Glenn Hughes, Bruce Dickinson, Ian Paice, Don Airey & Micky Moody)
7 Burn (feat. Glenn Hughes, Bruce Dickinson, Ian Paice, Don Airey & Rick Wakeman)
8 This Time Around (feat. Glenn Hughes)
Bonus
9 Ain't No Telling
10 Sails Of Charon

Лог создания рипа CD1

Exact Audio Copy V0.99 prebeta 5 from 4. May 2009
Archivo Log de extracciones desde 29. Octubre 2014, 19:57
VV.AA. / Jon Lord - The Rock Legend CD1 - Japan (VQCX-10145)
Usar unidad : HL-DT-STDVDRAM GH22NS70 Adapter: 0 ID: 0
Modo de Lectura : Seguro
Utilizar Corriente Exacta : Sí
Descartar Audio caché : Sí
Utilizar los punteros C2 : No
Corrección de Desplazamiento de Lectura : 667
Sobreleer tanto en Lead-In como en Lead-Out : No
Rellenar las muestras faltantes con silencios : Sí
Eliminar silencios inicial y final : No
Se han usado muestras nulas en los cálculos CRC : Sí
Interfaz usada : Interfaz propio de Win32 para Windowns NT y 2000
Formato de Salida utilizado : Compresor definido por el usuario
Bitrate seleccionado : 32 kBit/s
Calidad : Alta
Añadir Etiqueta ID3 : No
Compresor de linea de comandos : C:\Program Files (x86)\Exact Audio Copy\Flac\flac.exe
Opciones adicionales en línea de comandos : -6 -V %s
TOC del CD extraido
Pista | Inicio | Duración | Sector inicial | Sector final
-------------------------------------------------------------
1 | 0:00.00 | 3:02.04 | 0 | 13653
2 | 3:02.04 | 4:47.46 | 13654 | 35224
3 | 7:49.50 | 3:37.62 | 35225 | 51561
4 | 11:27.37 | 5:28.31 | 51562 | 76192
5 | 16:55.68 | 5:25.70 | 76193 | 100637
6 | 22:21.63 | 5:49.48 | 100638 | 126860
7 | 28:11.36 | 8:40.36 | 126861 | 165896
8 | 36:51.72 | 4:50.58 | 165897 | 187704
9 | 41:42.55 | 5:03.64 | 187705 | 210493
10 | 46:46.44 | 4:44.14 | 210494 | 231807
Gama de estados y errores
Seleccionar gama
Nombre de Archivo E:\Música\EAC\Deep Purple\Celebrating Jon Lord\VV.AA. - Jon Lord - The Rock Legend CD1 - Japan (VQCX-10145).wav
Nivel Pico 100.0 %
Gama de Calidad 100.0 %
Test CRC 8860C1BD
Copiar CRC 8860C1BD
Copia OK
Sin Errores
Resumen AccurateRip
Pista 1 no presente en la base de datos
Pista 2 no presente en la base de datos
Pista 3 no presente en la base de datos
Pista 4 no presente en la base de datos
Pista 5 no presente en la base de datos
Pista 6 no presente en la base de datos
Pista 7 no presente en la base de datos
Pista 8 no presente en la base de datos
Pista 9 no presente en la base de datos
Pista 10 no presente en la base de datos
Ninguna de las pistas está presente en la base de datos AccurateRip
Final del Informe

The Rock Legend CD 2 (01:02:07)

Deep Purple Celebrating Jon Lord
1 Uncommon Man
2 Above and Beyond
3 Lazy
4 When a Blind Man Cries
5 Perfect Strangers
6 Black Night
7 Hush (feat. Bruce Dickinson, Rick Wakeman, Phil Campbell, Bernie Marsden & Micky Moody)

Лог создания рипа CD2

Exact Audio Copy V0.99 prebeta 5 from 4. May 2009
Archivo Log de extracciones desde 29. Octubre 2014, 21:19
VV.AA. / Jon Lord - The Rock Legend CD2 - Japan (VQCX-10146)
Usar unidad : HL-DT-STDVDRAM GH22NS70 Adapter: 0 ID: 0
Modo de Lectura : Seguro
Utilizar Corriente Exacta : Sí
Descartar Audio caché : Sí
Utilizar los punteros C2 : No
Corrección de Desplazamiento de Lectura : 667
Sobreleer tanto en Lead-In como en Lead-Out : No
Rellenar las muestras faltantes con silencios : Sí
Eliminar silencios inicial y final : No
Se han usado muestras nulas en los cálculos CRC : Sí
Interfaz usada : Interfaz propio de Win32 para Windowns NT y 2000
Formato de Salida utilizado : Compresor definido por el usuario
Bitrate seleccionado : 32 kBit/s
Calidad : Alta
Añadir Etiqueta ID3 : No
Compresor de linea de comandos : C:\Program Files (x86)\Exact Audio Copy\Flac\flac.exe
Opciones adicionales en línea de comandos : -6 -V %s
TOC del CD extraido
Pista | Inicio | Duración | Sector inicial | Sector final
-------------------------------------------------------------
1 | 0:00.00 | 8:24.33 | 0 | 37832
2 | 8:24.33 | 6:16.55 | 37833 | 66087
3 | 14:41.13 | 9:37.30 | 66088 | 109392
4 | 24:18.43 | 8:01.58 | 109393 | 145525
5 | 32:20.26 | 10:09.57 | 145526 | 191257
6 | 42:30.08 | 8:35.32 | 191258 | 229914
7 | 51:05.40 | 11:01.50 | 229915 | 279539
Gama de estados y errores
Seleccionar gama
Nombre de Archivo E:\Música\EAC\Deep Purple\Celebrating Jon Lord\VV.AA. - Jon Lord - The Rock Legend CD2 - Japan (VQCX-10146).wav
Nivel Pico 98.8 %
Gama de Calidad 100.0 %
Test CRC 9F73D6B4
Copiar CRC 9F73D6B4
Copia OK
Sin Errores
Resumen AccurateRip
Pista 1 no presente en la base de datos
Pista 2 no presente en la base de datos
Pista 3 no presente en la base de datos
Pista 4 no presente en la base de datos
Pista 5 no presente en la base de datos
Pista 6 no presente en la base de datos
Pista 7 no presente en la base de datos
Ninguna de las pistas está presente en la base de datos AccurateRip
Final del Informe

To download the file disable ad blocking, and reload the page.

disable adblock How to disable ad blocking?

Download by magnet link 1.42 GB Download Torrent

Login using:

Similar topics



   
Current time is: 23-Sep 17:00 :: All times are UTC ± 0