Heartrock - Rock Fur's Herz vol.8 (2CD)
Жанр: Heartrock
Страна-производитель диска: EC
Год издания: 1996
Издатель (лейбл): BMG Ariola Media GmbH
Номер по каталогу: 7432137584-2
Аудиокодек: FLAC (*.flac)
Тип рипа: tracks+.cue
Битрейт аудио: lossless
Продолжительность: 1:16:32 + 1:16:39
Источник (релизер): clustert
Наличие сканов в содержимом раздачи: да

CD1

01. Everything But The Girl / Missing [0:04:05.43]
02. George Michael / Praying For Time [0:04:41.20]
03. Robert Miles / Children [0:03:52.25]
04. Andru Donalds / Mishale [0:04:00.00]
05. Sheryl Crow / Strong Enough [0:03:11.42]
06. Marla Glen / Believer [0:03:54.70]
07. Take That / How Deep Is Your Love [0:03:41.60]
08. Celine Dion / Where Does My Heart Beat Now [0:04:12.15]
09. R. Kelly feat. Ronald Isley / Down Low [0:03:47.50]
10. Robin S / What I Do Best [0:04:24.15]
11. All-4-One / Tapestry [0:03:10.43]
12. Deborah Cox / Who Do U Love [0:04:00.67]
13. Diana Ross & Lionel Richie / Endless Love [0:04:27.70]
14. Sade / Your Love Is King [0:03:57.63]
15. Curtis Stigers / This Time [0:04:41.15]
16. Guns N' Roses / Since I Don't Have You [0:04:18.52]
17. Nick Cave & The Bad Seeds & Kylie Minogue / Where The Wild Roses Grow [0:03:57.15]
18. Backstreet Boys / I'll Never Break Your Heart [0:04:26.10]
19. Teeko X. feat. Rod D. / Killing Me Softly [0:03:40.00]

Лог создания рипа

Exact Audio Copy V1.0 beta 3 from 29. August 2011
Отчёт EAC об извлечении, выполненном 22. октября 2014, 23:13
VA / Heart Rock Vol.8 CD 1
Дисковод: ASUS DRW-1814BLT Adapter: 4 ID: 0
Режим чтения : Достоверность
Использование точного потока : Да
Отключение кэша аудио : Да
Использование указателей C2 : Нет
Коррекция смещения при чтении : 6
Способность читать области Lead-in и Lead-out : Нет
Заполнение пропущенных сэмплов тишиной : Да
Удаление блоков с тишиной в начале и конце : Нет
При вычислениях CRC использовались нулевые сэмплы : Да
Интерфейс : Встроенный Win32-интерфейс для Win NT/2000
Обработка зазоров : Добавлено к предыдущему треку
Выходной формат : Пользовательский кодировщик
Выбранный битрейт : 128 kBit/s
Качество : Высокий
Добавление ID3-тега : Нет
Утилита сжатия : C:\Program Files\Exact Audio Copy\Flac\flac.exe
Дополнительные параметры : -V -8 -T "Genre=%genre%" -T "Artist=%artist%" -T "Title=%title%" -T "Album=%albumtitle%" -T "Date=%year%" -T "Tracknumber=%tracknr%" -T "Comment=EAC1.0b2 FLAC -8" %source%
TOC извлечённого CD
Трек | Старт | Длительность | Начальный сектор | Конечный сектор
---------------------------------------------------------------------
1 | 0:00.32 | 4:05.43 | 32 | 18449
2 | 4:06.00 | 4:41.20 | 18450 | 39544
3 | 8:47.20 | 3:52.25 | 39545 | 56969
4 | 12:39.45 | 4:00.00 | 56970 | 74969
5 | 16:39.45 | 3:11.42 | 74970 | 89336
6 | 19:51.12 | 3:54.70 | 89337 | 106956
7 | 23:46.07 | 3:41.60 | 106957 | 123591
8 | 27:27.67 | 4:12.15 | 123592 | 142506
9 | 31:40.07 | 3:47.50 | 142507 | 159581
10 | 35:27.57 | 4:24.15 | 159582 | 179396
11 | 39:51.72 | 3:10.43 | 179397 | 193689
12 | 43:02.40 | 4:00.67 | 193690 | 211756
13 | 47:03.32 | 4:27.70 | 211757 | 231851
14 | 51:31.27 | 3:57.63 | 231852 | 249689
15 | 55:29.15 | 4:41.15 | 249690 | 270779
16 | 60:10.30 | 4:18.52 | 270780 | 290181
17 | 64:29.07 | 3:57.15 | 290182 | 307971
18 | 68:26.22 | 4:26.10 | 307972 | 327931
19 | 72:52.32 | 3:40.00 | 327932 | 344431
Трек 1
Имя файла R:\Раздача 26\VA - Heartrock - Rock Fur's Herz vol.8 (2CD)\CD1\01 Missing.wav
Длина предзазора 0:00:02.32
Пиковый уровень 99.0 %
Скорость извлечения 5.6 X
Качество трека 100.0 %
CRC теста BB0EBC0B
CRC копии BB0EBC0B
Точное извлечение (достоверность 2) [739A1868] (AR v2)
Копирование... OK
Трек 2
Имя файла R:\Раздача 26\VA - Heartrock - Rock Fur's Herz vol.8 (2CD)\CD1\02 Praying For Time.wav
Длина предзазора 0:00:01.25
Пиковый уровень 99.0 %
Скорость извлечения 6.3 X
Качество трека 100.0 %
CRC теста 1694E868
CRC копии 1694E868
Точное извлечение (достоверность 2) [47579C7B] (AR v2)
Копирование... OK
Трек 3
Имя файла R:\Раздача 26\VA - Heartrock - Rock Fur's Herz vol.8 (2CD)\CD1\03 Children.wav
Длина предзазора 0:00:01.40
Пиковый уровень 100.0 %
Скорость извлечения 6.7 X
Качество трека 100.0 %
CRC теста 32583240
CRC копии 32583240
Точное извлечение (достоверность 2) [C78D0D97] (AR v2)
Копирование... OK
Трек 4
Имя файла R:\Раздача 26\VA - Heartrock - Rock Fur's Herz vol.8 (2CD)\CD1\04 Mishale.wav
Длина предзазора 0:00:01.55
Пиковый уровень 86.8 %
Скорость извлечения 5.3 X
Качество трека 99.9 %
CRC теста AA3ACC62
CRC копии AA3ACC62
Точное извлечение (достоверность 2) [FF11B195] (AR v2)
Копирование... OK
Трек 5
Имя файла R:\Раздача 26\VA - Heartrock - Rock Fur's Herz vol.8 (2CD)\CD1\05 Strong Enough.wav
Длина предзазора 0:00:01.20
Пиковый уровень 99.0 %
Скорость извлечения 5.2 X
Качество трека 99.9 %
CRC теста AE3DFD33
CRC копии AE3DFD33
Точное извлечение (достоверность 2) [4E527A88] (AR v2)
Копирование... OK
Трек 6
Имя файла R:\Раздача 26\VA - Heartrock - Rock Fur's Herz vol.8 (2CD)\CD1\06 Believer.wav
Длина предзазора 0:00:01.45
Пиковый уровень 99.0 %
Скорость извлечения 7.7 X
Качество трека 100.0 %
CRC теста 8D0D4E3A
CRC копии 8D0D4E3A
Точное извлечение (достоверность 2) [839BEAE3] (AR v2)
Копирование... OK
Трек 7
Имя файла R:\Раздача 26\VA - Heartrock - Rock Fur's Herz vol.8 (2CD)\CD1\07 How Deep Is Your Love.wav
Длина предзазора 0:00:01.60
Пиковый уровень 99.0 %
Скорость извлечения 8.0 X
Качество трека 100.0 %
CRC теста AB3A8D76
CRC копии AB3A8D76
Точное извлечение (достоверность 2) [4F622400] (AR v2)
Копирование... OK
Трек 8
Имя файла R:\Раздача 26\VA - Heartrock - Rock Fur's Herz vol.8 (2CD)\CD1\08 Where Does My Heart Beat Now.wav
Длина предзазора 0:00:01.02
Пиковый уровень 99.0 %
Скорость извлечения 8.5 X
Качество трека 100.0 %
CRC теста 127474E8
CRC копии 127474E8
Точное извлечение (достоверность 2) [66B50006] (AR v2)
Копирование... OK
Трек 9
Имя файла R:\Раздача 26\VA - Heartrock - Rock Fur's Herz vol.8 (2CD)\CD1\09 Down Low.wav
Длина предзазора 0:00:01.27
Пиковый уровень 87.6 %
Скорость извлечения 8.6 X
Качество трека 100.0 %
CRC теста 9F8962AF
CRC копии 9F8962AF
Точное извлечение (достоверность 2) [FE03844B] (AR v2)
Копирование... OK
Трек 10
Имя файла R:\Раздача 26\VA - Heartrock - Rock Fur's Herz vol.8 (2CD)\CD1\10 What I Do Best.wav
Длина предзазора 0:00:01.30
Пиковый уровень 99.0 %
Скорость извлечения 9.2 X
Качество трека 100.0 %
CRC теста 5FBC0C7D
CRC копии 5FBC0C7D
Точное извлечение (достоверность 2) [1E203877] (AR v2)
Копирование... OK
Трек 11
Имя файла R:\Раздача 26\VA - Heartrock - Rock Fur's Herz vol.8 (2CD)\CD1\11 Tapestry.wav
Длина предзазора 0:00:01.12
Пиковый уровень 97.7 %
Скорость извлечения 6.6 X
Качество трека 99.9 %
CRC теста 7B4990FE
CRC копии 7B4990FE
Точное извлечение (достоверность 2) [DB825EBA] (AR v2)
Копирование... OK
Трек 12
Имя файла R:\Раздача 26\VA - Heartrock - Rock Fur's Herz vol.8 (2CD)\CD1\12 Who Do U Love.wav
Длина предзазора 0:00:01.28
Пиковый уровень 99.0 %
Скорость извлечения 9.6 X
Качество трека 100.0 %
CRC теста 4599EDC6
CRC копии 4599EDC6
Точное извлечение (достоверность 2) [77D49EF1] (AR v2)
Копирование... OK
Трек 13
Имя файла R:\Раздача 26\VA - Heartrock - Rock Fur's Herz vol.8 (2CD)\CD1\13 Endless Love.wav
Длина предзазора 0:00:01.02
Пиковый уровень 99.0 %
Скорость извлечения 7.5 X
Качество трека 99.9 %
CRC теста F9733CC0
CRC копии F9733CC0
Точное извлечение (достоверность 2) [E7FB4146] (AR v2)
Копирование... OK
Трек 14
Имя файла R:\Раздача 26\VA - Heartrock - Rock Fur's Herz vol.8 (2CD)\CD1\14 Your Love Is King.wav
Длина предзазора 0:00:01.25
Пиковый уровень 99.6 %
Скорость извлечения 10.1 X
Качество трека 100.0 %
CRC теста AB154E79
CRC копии AB154E79
Точное извлечение (достоверность 2) [C92BA408] (AR v2)
Копирование... OK
Трек 15
Имя файла R:\Раздача 26\VA - Heartrock - Rock Fur's Herz vol.8 (2CD)\CD1\15 This Time.wav
Длина предзазора 0:00:01.23
Пиковый уровень 99.0 %
Скорость извлечения 8.0 X
Качество трека 99.9 %
CRC теста AE53C701
CRC копии AE53C701
Точное извлечение (достоверность 2) [BD01EFFE] (AR v2)
Копирование... OK
Трек 16
Имя файла R:\Раздача 26\VA - Heartrock - Rock Fur's Herz vol.8 (2CD)\CD1\16 Since I Don't Have You.wav
Длина предзазора 0:00:01.08
Пиковый уровень 96.9 %
Скорость извлечения 10.8 X
Качество трека 100.0 %
CRC теста A30461A2
CRC копии A30461A2
Точное извлечение (достоверность 2) [0C5A05BA] (AR v2)
Копирование... OK
Трек 17
Имя файла R:\Раздача 26\VA - Heartrock - Rock Fur's Herz vol.8 (2CD)\CD1\17 Where The Wild Roses Grow.wav
Длина предзазора 0:00:00.65
Пиковый уровень 84.5 %
Скорость извлечения 10.9 X
Качество трека 100.0 %
CRC теста 571B15BA
CRC копии 571B15BA
Точное извлечение (достоверность 2) [25AD0BBB] (AR v2)
Копирование... OK
Трек 18
Имя файла R:\Раздача 26\VA - Heartrock - Rock Fur's Herz vol.8 (2CD)\CD1\18 I'll Never Break Your Heart.wav
Длина предзазора 0:00:01.35
Пиковый уровень 99.0 %
Скорость извлечения 11.2 X
Качество трека 100.0 %
CRC теста 262C7EE7
CRC копии 262C7EE7
Точное извлечение (достоверность 2) [FE026E5A] (AR v2)
Копирование... OK
Трек 19
Имя файла R:\Раздача 26\VA - Heartrock - Rock Fur's Herz vol.8 (2CD)\CD1\19 Killing Me Softly.wav
Длина предзазора 0:00:01.32
Пиковый уровень 87.7 %
Скорость извлечения 11.1 X
Качество трека 100.0 %
CRC теста 668B7EEC
CRC копии 668B7EEC
Точное извлечение (достоверность 2) [02196ADD] (AR v2)
Копирование... OK
Все треки извлечены точно
Ошибок не произошло
Конец отчёта
==== Контрольная сумма отчёта 789AA6629941D87E8DC2CC5A91DE7FB56613EDB8ADEA9C853FBF0604BE0D5CB3 ====

Содержание индексной карты (.CUE)

REM GENRE "Pop - Rock"
REM DATE 1996
REM DISCID 0811F013
REM COMMENT "ExactAudioCopy v1.0b3"
CATALOG 7432137584280
PERFORMER "VA"
TITLE "Heart Rock Vol.8 CD 1"
FILE "01 Missing.wav" WAVE
TRACK 01 AUDIO
TITLE "Missing"
PERFORMER "Everything But The Girl"
PREGAP 00:00:32
INDEX 01 00:00:00
TRACK 02 AUDIO
TITLE "Praying For Time"
PERFORMER "George Michael"
INDEX 00 04:04:18
FILE "02 Praying For Time.wav" WAVE
INDEX 01 00:00:00
TRACK 03 AUDIO
TITLE "Children"
PERFORMER "Robert Miles"
INDEX 00 04:39:55
FILE "03 Children.wav" WAVE
INDEX 01 00:00:00
TRACK 04 AUDIO
TITLE "Mishale"
PERFORMER "Andru Donalds"
INDEX 00 03:50:45
FILE "04 Mishale.wav" WAVE
INDEX 01 00:00:00
TRACK 05 AUDIO
TITLE "Strong Enough"
PERFORMER "Sheryl Crow"
INDEX 00 03:58:55
FILE "05 Strong Enough.wav" WAVE
INDEX 01 00:00:00
TRACK 06 AUDIO
TITLE "Believer"
PERFORMER "Marla Glen"
INDEX 00 03:09:72
FILE "06 Believer.wav" WAVE
INDEX 01 00:00:00
TRACK 07 AUDIO
TITLE "How Deep Is Your Love"
PERFORMER "Take That"
ISRC GAPnA9600020
INDEX 00 03:53:10
FILE "07 How Deep Is Your Love.wav" WAVE
INDEX 01 00:00:00
TRACK 08 AUDIO
TITLE "Where Does My Heart Beat Now"
PERFORMER "Celine Dion"
INDEX 00 03:40:58
FILE "08 Where Does My Heart Beat Now.wav" WAVE
INDEX 01 00:00:00
TRACK 09 AUDIO
TITLE "Down Low"
PERFORMER "R. Kelly feat. Ronald Isley"
INDEX 00 04:10:63
FILE "09 Down Low.wav" WAVE
INDEX 01 00:00:00
TRACK 10 AUDIO
TITLE "What I Do Best"
PERFORMER "Robin S"
INDEX 00 03:46:20
FILE "10 What I Do Best.wav" WAVE
INDEX 01 00:00:00
TRACK 11 AUDIO
TITLE "Tapestry"
PERFORMER "All-4-One"
INDEX 00 04:23:03
FILE "11 Tapestry.wav" WAVE
INDEX 01 00:00:00
TRACK 12 AUDIO
TITLE "Who Do U Love"
PERFORMER "Deborah Cox"
INDEX 00 03:09:15
FILE "12 Who Do U Love.wav" WAVE
INDEX 01 00:00:00
TRACK 13 AUDIO
TITLE "Endless Love"
PERFORMER "Diana Ross & Lionel Richie"
INDEX 00 03:59:65
FILE "13 Endless Love.wav" WAVE
INDEX 01 00:00:00
TRACK 14 AUDIO
TITLE "Your Love Is King"
PERFORMER "Sade"
INDEX 00 04:26:45
FILE "14 Your Love Is King.wav" WAVE
INDEX 01 00:00:00
TRACK 15 AUDIO
TITLE "This Time"
PERFORMER "Curtis Stigers"
INDEX 00 03:56:40
FILE "15 This Time.wav" WAVE
INDEX 01 00:00:00
TRACK 16 AUDIO
TITLE "Since I Don't Have You"
PERFORMER "Guns N' Roses"
INDEX 00 04:40:07
FILE "16 Since I Don't Have You.wav" WAVE
INDEX 01 00:00:00
TRACK 17 AUDIO
TITLE "Where The Wild Roses Grow"
PERFORMER "Nick Cave & The Bad Seeds & Kylie Minogue"
INDEX 00 04:17:62
FILE "17 Where The Wild Roses Grow.wav" WAVE
INDEX 01 00:00:00
TRACK 18 AUDIO
TITLE "I'll Never Break Your Heart"
PERFORMER "Backstreet Boys"
ISRC GAPjK9500321
INDEX 00 03:55:55
FILE "18 I'll Never Break Your Heart.wav" WAVE
INDEX 01 00:00:00
TRACK 19 AUDIO
TITLE "Killing Me Softly"
PERFORMER "Teeko X. feat. Rod D."
INDEX 00 04:24:53
FILE "19 Killing Me Softly.wav" WAVE
INDEX 01 00:00:00

CD2

01. Queen / Somebody To Love [0:04:57.38]
02. Meat Loaf / I'd Do Anything For Love [0:05:30.60]
03. Rod Stewart / Every Beat Of My Heart [0:05:19.57]
04. Joshua Kadison / Jessie [0:05:17.30]
05. Lisa Stansfield / All Around The World [0:04:27.48]
06. Richard Marx / Angelia [0:05:17.65]
07. Jim Capaldi / That's Love [0:03:35.47]
08. Bryan Ferry & Roxy Music / Jealous Guy [0:04:54.70]
09. Beverley Craven / Promise Me [0:03:34.48]
10. Daryl Hall & John Oates / One On One [0:03:53.47]
11. Steve Winwood / While You See A Chance [0:05:11.20]
12. Styx / Boat On The River [0:03:12.23]
13. Huey Lewis And The News / Stuck With You [0:04:27.72]
14. Paul Young / One Hope In A Hopeless World [0:04:18.35]
15. Robert Palmer / Know By Now [0:04:09.60]
16. Tina Turner / Private Dancer [0:04:00.35]
17. Rod Stewart / You're In My Heart [0:04:29.08]

Лог создания рипа

Exact Audio Copy V1.0 beta 3 from 29. August 2011
Отчёт EAC об извлечении, выполненном 22. октября 2014, 23:40
VA / Heart Rock Vol.8 (Disc 2)
Дисковод: ASUS DRW-1814BLT Adapter: 4 ID: 0
Режим чтения : Достоверность
Использование точного потока : Да
Отключение кэша аудио : Да
Использование указателей C2 : Нет
Коррекция смещения при чтении : 6
Способность читать области Lead-in и Lead-out : Нет
Заполнение пропущенных сэмплов тишиной : Да
Удаление блоков с тишиной в начале и конце : Нет
При вычислениях CRC использовались нулевые сэмплы : Да
Интерфейс : Встроенный Win32-интерфейс для Win NT/2000
Обработка зазоров : Добавлено к предыдущему треку
Выходной формат : Пользовательский кодировщик
Выбранный битрейт : 128 kBit/s
Качество : Высокий
Добавление ID3-тега : Нет
Утилита сжатия : C:\Program Files\Exact Audio Copy\Flac\flac.exe
Дополнительные параметры : -V -8 -T "Genre=%genre%" -T "Artist=%artist%" -T "Title=%title%" -T "Album=%albumtitle%" -T "Date=%year%" -T "Tracknumber=%tracknr%" -T "Comment=EAC1.0b2 FLAC -8" %source%
TOC извлечённого CD
Трек | Старт | Длительность | Начальный сектор | Конечный сектор
---------------------------------------------------------------------
1 | 0:00.32 | 4:57.38 | 32 | 22344
2 | 4:57.70 | 5:30.60 | 22345 | 47154
3 | 10:28.55 | 5:19.57 | 47155 | 71136
4 | 15:48.37 | 5:17.30 | 71137 | 94941
5 | 21:05.67 | 4:27.48 | 94942 | 115014
6 | 25:33.40 | 5:17.65 | 115015 | 138854
7 | 30:51.30 | 3:35.47 | 138855 | 155026
8 | 34:27.02 | 4:54.70 | 155027 | 177146
9 | 39:21.72 | 3:34.48 | 177147 | 193244
10 | 42:56.45 | 3:53.47 | 193245 | 210766
11 | 46:50.17 | 5:11.20 | 210767 | 234111
12 | 52:01.37 | 3:12.23 | 234112 | 248534
13 | 55:13.60 | 4:27.72 | 248535 | 268631
14 | 59:41.57 | 4:18.35 | 268632 | 288016
15 | 64:00.17 | 4:09.60 | 288017 | 306751
16 | 68:10.02 | 4:00.35 | 306752 | 324786
17 | 72:10.37 | 4:29.08 | 324787 | 344969
Трек 1
Имя файла R:\Раздача 26\VA - Heartrock - Rock Fur's Herz vol.8 (2CD)\CD2\01 Somebody To Love.wav
Длина предзазора 0:00:02.32
Пиковый уровень 99.0 %
Скорость извлечения 5.9 X
Качество трека 100.0 %
CRC теста 00E803C3
CRC копии 00E803C3
Точное извлечение (достоверность 1) [DF55C382] (AR v2)
Копирование... OK
Трек 2
Имя файла R:\Раздача 26\VA - Heartrock - Rock Fur's Herz vol.8 (2CD)\CD2\02 I'd Do Anything For Love.wav
Длина предзазора 0:00:00.55
Пиковый уровень 99.0 %
Скорость извлечения 6.7 X
Качество трека 100.0 %
CRC теста 3F320691
CRC копии 3F320691
Точное извлечение (достоверность 1) [9301F8F5] (AR v2)
Копирование... OK
Трек 3
Имя файла R:\Раздача 26\VA - Heartrock - Rock Fur's Herz vol.8 (2CD)\CD2\03 Every Beat Of My Heart.wav
Длина предзазора 0:00:00.70
Пиковый уровень 99.0 %
Скорость извлечения 7.3 X
Качество трека 100.0 %
CRC теста 3BF0F0A6
CRC копии 3BF0F0A6
Точное извлечение (достоверность 1) [4B18B370] (AR v2)
Копирование... OK
Трек 4
Имя файла R:\Раздача 26\VA - Heartrock - Rock Fur's Herz vol.8 (2CD)\CD2\04 Jessie.wav
Длина предзазора 0:00:01.20
Пиковый уровень 97.3 %
Скорость извлечения 6.0 X
Качество трека 99.9 %
CRC теста 442EB707
CRC копии 442EB707
Точное извлечение (достоверность 1) [FB130F91] (AR v2)
Копирование... OK
Трек 5
Имя файла R:\Раздача 26\VA - Heartrock - Rock Fur's Herz vol.8 (2CD)\CD2\05 All Around The World.wav
Длина предзазора 0:00:00.72
Пиковый уровень 99.7 %
Скорость извлечения 8.0 X
Качество трека 100.0 %
CRC теста 610E5FF3
CRC копии 610E5FF3
Точное извлечение (достоверность 1) [FC52E749] (AR v2)
Копирование... OK
Трек 6
Имя файла R:\Раздача 26\VA - Heartrock - Rock Fur's Herz vol.8 (2CD)\CD2\06 Angelia.wav
Длина предзазора 0:00:01.08
Пиковый уровень 99.0 %
Скорость извлечения 8.7 X
Качество трека 100.0 %
CRC теста 146F5DE9
CRC копии 146F5DE9
Точное извлечение (достоверность 1) [D7FBE76F] (AR v2)
Копирование... OK
Трек 7
Имя файла R:\Раздача 26\VA - Heartrock - Rock Fur's Herz vol.8 (2CD)\CD2\07 That's Love.wav
Длина предзазора 0:00:02.15
Пиковый уровень 99.0 %
Скорость извлечения 8.6 X
Качество трека 100.0 %
CRC теста F8A35BAF
CRC копии F8A35BAF
Точное извлечение (достоверность 1) [183E5DBD] (AR v2)
Копирование... OK
Трек 8
Имя файла R:\Раздача 26\VA - Heartrock - Rock Fur's Herz vol.8 (2CD)\CD2\08 Jealous Guy.wav
Длина предзазора 0:00:01.45
Пиковый уровень 99.0 %
Скорость извлечения 9.3 X
Качество трека 100.0 %
CRC теста 7CB99423
CRC копии 7CB99423
Точное извлечение (достоверность 1) [361B04C2] (AR v2)
Копирование... OK
Трек 9
Имя файла R:\Раздача 26\VA - Heartrock - Rock Fur's Herz vol.8 (2CD)\CD2\09 Promise Me.wav
Длина предзазора 0:00:01.27
Пиковый уровень 99.0 %
Скорость извлечения 9.2 X
Качество трека 100.0 %
CRC теста 2FBE2626
CRC копии 2FBE2626
Точное извлечение (достоверность 1) [4929F2A9] (AR v2)
Копирование... OK
Трек 10
Имя файла R:\Раздача 26\VA - Heartrock - Rock Fur's Herz vol.8 (2CD)\CD2\10 One On One.wav
Длина предзазора 0:00:01.08
Пиковый уровень 99.0 %
Скорость извлечения 9.6 X
Качество трека 100.0 %
CRC теста 0345C413
CRC копии 0345C413
Точное извлечение (достоверность 1) [13D192D0] (AR v2)
Копирование... OK
Трек 11
Имя файла R:\Раздача 26\VA - Heartrock - Rock Fur's Herz vol.8 (2CD)\CD2\11 While You See A Chance.wav
Длина предзазора 0:00:00.60
Пиковый уровень 99.0 %
Скорость извлечения 10.3 X
Качество трека 100.0 %
CRC теста FEA9B311
CRC копии FEA9B311
Точное извлечение (достоверность 1) [BBDE55CC] (AR v2)
Копирование... OK
Трек 12
Имя файла R:\Раздача 26\VA - Heartrock - Rock Fur's Herz vol.8 (2CD)\CD2\12 Boat On The River.wav
Длина предзазора 0:00:01.40
Пиковый уровень 99.0 %
Скорость извлечения 9.9 X
Качество трека 100.0 %
CRC теста 17DDD65E
CRC копии 17DDD65E
Точное извлечение (достоверность 1) [59B0780E] (AR v2)
Копирование... OK
Трек 13
Имя файла R:\Раздача 26\VA - Heartrock - Rock Fur's Herz vol.8 (2CD)\CD2\13 Stuck With You.wav
Длина предзазора 0:00:01.63
Пиковый уровень 99.0 %
Скорость извлечения 10.6 X
Качество трека 100.0 %
CRC теста 3A77D290
CRC копии 3A77D290
Точное извлечение (достоверность 1) [443668B4] (AR v2)
Копирование... OK
Трек 14
Имя файла R:\Раздача 26\VA - Heartrock - Rock Fur's Herz vol.8 (2CD)\CD2\14 One Hope In A Hopeless World.wav
Длина предзазора 0:00:01.15
Пиковый уровень 100.0 %
Скорость извлечения 10.9 X
Качество трека 100.0 %
CRC теста BC98026F
CRC копии BC98026F
Точное извлечение (достоверность 1) [C17480CB] (AR v2)
Копирование... OK
Трек 15
Имя файла R:\Раздача 26\VA - Heartrock - Rock Fur's Herz vol.8 (2CD)\CD2\15 Know By Now.wav
Длина предзазора 0:00:01.37
Пиковый уровень 93.3 %
Скорость извлечения 11.0 X
Качество трека 100.0 %
CRC теста F6B4946C
CRC копии F6B4946C
Точное извлечение (достоверность 1) [7AF4CCBA] (AR v2)
Копирование... OK
Трек 16
Имя файла R:\Раздача 26\VA - Heartrock - Rock Fur's Herz vol.8 (2CD)\CD2\16 Private Dancer.wav
Длина предзазора 0:00:00.65
Пиковый уровень 99.0 %
Скорость извлечения 11.2 X
Качество трека 100.0 %
CRC теста 41AC6615
CRC копии 41AC6615
Точное извлечение (достоверность 1) [C44A6D9C] (AR v2)
Копирование... OK
Трек 17
Имя файла R:\Раздача 26\VA - Heartrock - Rock Fur's Herz vol.8 (2CD)\CD2\17 You're In My Heart.wav
Длина предзазора 0:00:01.32
Пиковый уровень 99.0 %
Скорость извлечения 11.5 X
Качество трека 100.0 %
CRC теста BE621A48
CRC копии BE621A48
Точное извлечение (достоверность 1) [9BD2090E] (AR v2)
Копирование... OK
Все треки извлечены точно
Ошибок не произошло
Конец отчёта
==== Контрольная сумма отчёта 94BFD82B2937CCDBCCAC0A15039EAEC4592DF9881EBE2AA38558EDC72D294F48 ====

Содержание индексной карты (.CUE)

REM GENRE Pop-Rock
REM DATE 1996
REM DISCID F211F711
REM COMMENT "ExactAudioCopy v1.0b3"
CATALOG 7432137584280
PERFORMER "VA"
TITLE "Heart Rock Vol.8 (Disc 2)"
FILE "01 Somebody To Love.wav" WAVE
TRACK 01 AUDIO
TITLE "Somebody To Love"
PERFORMER "Queen"
PREGAP 00:00:32
INDEX 01 00:00:00
TRACK 02 AUDIO
TITLE "I'd Do Anything For Love"
PERFORMER "Meat Loaf"
INDEX 00 04:56:58
FILE "02 I'd Do Anything For Love.wav" WAVE
INDEX 01 00:00:00
TRACK 03 AUDIO
TITLE "Every Beat Of My Heart"
PERFORMER "Rod Stewart"
INDEX 00 05:29:65
FILE "03 Every Beat Of My Heart.wav" WAVE
INDEX 01 00:00:00
TRACK 04 AUDIO
TITLE "Jessie"
PERFORMER "Joshua Kadison"
INDEX 00 05:18:37
FILE "04 Jessie.wav" WAVE
INDEX 01 00:00:00
TRACK 05 AUDIO
TITLE "All Around The World"
PERFORMER "Lisa Stansfield"
INDEX 00 05:16:33
FILE "05 All Around The World.wav" WAVE
INDEX 01 00:00:00
TRACK 06 AUDIO
TITLE "Angelia"
PERFORMER "Richard Marx"
INDEX 00 04:26:40
FILE "06 Angelia.wav" WAVE
INDEX 01 00:00:00
TRACK 07 AUDIO
TITLE "That's Love"
PERFORMER "Jim Capaldi"
INDEX 00 05:15:50
FILE "07 That's Love.wav" WAVE
INDEX 01 00:00:00
TRACK 08 AUDIO
TITLE "Jealous Guy"
PERFORMER "Bryan Ferry & Roxy Music"
INDEX 00 03:34:02
FILE "08 Jealous Guy.wav" WAVE
INDEX 01 00:00:00
TRACK 09 AUDIO
TITLE "Promise Me"
PERFORMER "Beverley Craven"
INDEX 00 04:53:43
FILE "09 Promise Me.wav" WAVE
INDEX 01 00:00:00
TRACK 10 AUDIO
TITLE "One On One"
PERFORMER "Daryl Hall & John Oates"
INDEX 00 03:33:40
FILE "10 One On One.wav" WAVE
INDEX 01 00:00:00
TRACK 11 AUDIO
TITLE "While You See A Chance"
PERFORMER "Steve Winwood"
INDEX 00 03:52:62
FILE "11 While You See A Chance.wav" WAVE
INDEX 01 00:00:00
TRACK 12 AUDIO
TITLE "Boat On The River"
PERFORMER "Styx"
INDEX 00 05:09:55
FILE "12 Boat On The River.wav" WAVE
INDEX 01 00:00:00
TRACK 13 AUDIO
TITLE "Stuck With You"
PERFORMER "Huey Lewis And The News"
INDEX 00 03:10:35
FILE "13 Stuck With You.wav" WAVE
INDEX 01 00:00:00
TRACK 14 AUDIO
TITLE "One Hope In A Hopeless World"
PERFORMER "Paul Young"
INDEX 00 04:26:57
FILE "14 One Hope In A Hopeless World.wav" WAVE
INDEX 01 00:00:00
TRACK 15 AUDIO
TITLE "Know By Now"
PERFORMER "Robert Palmer"
INDEX 00 04:16:73
FILE "15 Know By Now.wav" WAVE
INDEX 01 00:00:00
TRACK 16 AUDIO
TITLE "Private Dancer"
PERFORMER "Tina Turner"
INDEX 00 04:08:70
FILE "16 Private Dancer.wav" WAVE
INDEX 01 00:00:00
TRACK 17 AUDIO
TITLE "You're In My Heart"
PERFORMER "Rod Stewart"
INDEX 00 03:59:03
FILE "17 You're In My Heart.wav" WAVE
INDEX 01 00:00:00

To download the file disable ad blocking, and reload the page.

disable adblock How to disable ad blocking?

Download by magnet link 1007 MB Download Torrent

Login using:

Similar topics

(Psytrance) Hyriderz - The Therapist - 2018, MP3, 320 kbps
 34 MB   0 | 0   09-May-18 09:10   1
(Hard Rock / AOR) EverLevel - Hardwork - 2018, MP3, 320 kbps
 184 MB   0 | 0   18-Mar-18 09:30   0


   
Current time is: 20-Sep 00:15 :: All times are UTC ± 0