Heartrock - Rock Fur's Herz vol.6 (2CD)
Жанр: Heartrock
Страна-производитель диска: Germany
Год издания: 1994
Издатель (лейбл): BMG Ariola Media GmbH
Номер по каталогу: 7432122283-2
Аудиокодек: FLAC (*.flac)
Тип рипа: tracks+.cue
Битрейт аудио: lossless
Продолжительность: 1:14:19 + 1:12:43
Источник (релизер): clustert
Наличие сканов в содержимом раздачи: да

CD1

01. Crash Test Dummies / In The Days Of The Caveman [0:03:42.03]
02. Tina Turner / Let´s Stay Together [0:05:17.55]
03. Roxette / Fading Like A Flower [0:03:51.17]
04. Haddaway / I Miss You [0:03:39.68]
05. Eros Ramazzotti / Se Bastasse Una Canzone [0:05:07.37]
06. Fleetwood Mac / Dreams [0:04:16.58]
07. Jon Secada / Just Another Day [0:04:18.55]
08. The Alan Parsons Project / Don´t Let It Show [0:04:19.70]
09. Lisa Stansfield / So Natural [0:04:43.55]
10. Christopher Cross / Is There Something [0:03:59.07]
11. Dione Warwick / Age Of Miracles [0:04:43.25]
12. Sheena Easton / You Could Been With Me [0:03:44.13]
13. John Miles / The Right To Sing [0:03:44.55]
14. Gary Moore / Separate Ways [0:04:54.07]
15. Eurythmics / Angel [0:05:11.30]
16. Bonnie Tyler / Stay [0:04:04.68]
17. Meat Loaf / Heaven Can Wait [0:04:40.27]

Лог создания рипа

Exact Audio Copy V1.0 beta 3 from 29. August 2011
Отчёт EAC об извлечении, выполненном 22. октября 2014, 22:11
VA / Heart Rock Vol. 6 (CD 1/2)
Дисковод: ASUS DRW-1814BLT Adapter: 4 ID: 0
Режим чтения : Достоверность
Использование точного потока : Да
Отключение кэша аудио : Да
Использование указателей C2 : Нет
Коррекция смещения при чтении : 6
Способность читать области Lead-in и Lead-out : Нет
Заполнение пропущенных сэмплов тишиной : Да
Удаление блоков с тишиной в начале и конце : Нет
При вычислениях CRC использовались нулевые сэмплы : Да
Интерфейс : Встроенный Win32-интерфейс для Win NT/2000
Обработка зазоров : Добавлено к предыдущему треку
Выходной формат : Пользовательский кодировщик
Выбранный битрейт : 128 kBit/s
Качество : Высокий
Добавление ID3-тега : Нет
Утилита сжатия : C:\Program Files\Exact Audio Copy\Flac\flac.exe
Дополнительные параметры : -V -8 -T "Genre=%genre%" -T "Artist=%artist%" -T "Title=%title%" -T "Album=%albumtitle%" -T "Date=%year%" -T "Tracknumber=%tracknr%" -T "Comment=EAC1.0b2 FLAC -8" %source%
TOC извлечённого CD
Трек | Старт | Длительность | Начальный сектор | Конечный сектор
---------------------------------------------------------------------
1 | 0:00.32 | 3:42.03 | 32 | 16684
2 | 3:42.35 | 5:17.55 | 16685 | 40514
3 | 9:00.15 | 3:51.17 | 40515 | 57856
4 | 12:51.32 | 3:39.68 | 57857 | 74349
5 | 16:31.25 | 5:07.37 | 74350 | 97411
6 | 21:38.62 | 4:16.58 | 97412 | 116669
7 | 25:55.45 | 4:18.55 | 116670 | 136074
8 | 30:14.25 | 4:19.70 | 136075 | 155569
9 | 34:34.20 | 4:43.55 | 155570 | 176849
10 | 39:18.00 | 3:59.07 | 176850 | 194781
11 | 43:17.07 | 4:43.25 | 194782 | 216031
12 | 48:00.32 | 3:44.13 | 216032 | 232844
13 | 51:44.45 | 3:44.55 | 232845 | 249699
14 | 55:29.25 | 4:54.07 | 249700 | 271756
15 | 60:23.32 | 5:11.30 | 271757 | 295111
16 | 65:34.62 | 4:04.68 | 295112 | 313479
17 | 69:39.55 | 4:40.27 | 313480 | 334506
Трек 1
Имя файла R:\Раздача 26\VA - Heartrock - Rock Fur's Herz vol.6 (2CD)\CD1\01 In The Days Of The Caveman.wav
Длина предзазора 0:00:02.32
Пиковый уровень 94.5 %
Скорость извлечения 5.6 X
Качество трека 100.0 %
CRC теста C479513E
CRC копии C479513E
Точное извлечение (достоверность 3) [91B1A7F4] (AR v2)
Копирование... OK
Трек 2
Имя файла R:\Раздача 26\VA - Heartrock - Rock Fur's Herz vol.6 (2CD)\CD1\02 Let´s Stay Together.wav
Длина предзазора 0:00:00.50
Пиковый уровень 99.0 %
Скорость извлечения 4.9 X
Качество трека 99.9 %
CRC теста 7BDE0FE7
CRC копии 7BDE0FE7
Точное извлечение (достоверность 3) [9B6CF23A] (AR v2)
Копирование... OK
Трек 3
Имя файла R:\Раздача 26\VA - Heartrock - Rock Fur's Herz vol.6 (2CD)\CD1\03 Fading Like A Flower.wav
Длина предзазора 0:00:01.23
Пиковый уровень 99.0 %
Скорость извлечения 6.7 X
Качество трека 100.0 %
CRC теста E3661B80
CRC копии E3661B80
Точное извлечение (достоверность 3) [8C421232] (AR v2)
Копирование... OK
Трек 4
Имя файла R:\Раздача 26\VA - Heartrock - Rock Fur's Herz vol.6 (2CD)\CD1\04 I Miss You.wav
Длина предзазора 0:00:01.27
Пиковый уровень 99.0 %
Скорость извлечения 7.0 X
Качество трека 100.0 %
CRC теста 7343B6F6
CRC копии 7343B6F6
Точное извлечение (достоверность 3) [8D079C86] (AR v2)
Копирование... OK
Трек 5
Имя файла R:\Раздача 26\VA - Heartrock - Rock Fur's Herz vol.6 (2CD)\CD1\05 Se Bastasse Una Canzone.wav
Длина предзазора 0:00:01.45
Пиковый уровень 99.0 %
Скорость извлечения 7.8 X
Качество трека 100.0 %
CRC теста D77D0198
CRC копии D77D0198
Точное извлечение (достоверность 3) [7FFCF2D2] (AR v2)
Копирование... OK
Трек 6
Имя файла R:\Раздача 26\VA - Heartrock - Rock Fur's Herz vol.6 (2CD)\CD1\06 Dreams.wav
Длина предзазора 0:00:01.32
Пиковый уровень 99.0 %
Скорость извлечения 8.0 X
Качество трека 100.0 %
CRC теста F426C6AB
CRC копии F426C6AB
Точное извлечение (достоверность 3) [6A746554] (AR v2)
Копирование... OK
Трек 7
Имя файла R:\Раздача 26\VA - Heartrock - Rock Fur's Herz vol.6 (2CD)\CD1\07 Just Another Day.wav
Длина предзазора 0:00:01.30
Пиковый уровень 100.0 %
Скорость извлечения 8.4 X
Качество трека 100.0 %
CRC теста A2185DDF
CRC копии A2185DDF
Точное извлечение (достоверность 3) [1F0BD034] (AR v2)
Копирование... OK
Трек 8
Имя файла R:\Раздача 26\VA - Heartrock - Rock Fur's Herz vol.6 (2CD)\CD1\08 Don´t Let It Show.wav
Длина предзазора 0:00:00.68
Пиковый уровень 99.0 %
Скорость извлечения 6.6 X
Качество трека 99.9 %
CRC теста 06ED86F6
CRC копии 06ED86F6
Точное извлечение (достоверность 3) [59AD2501] (AR v2)
Копирование... OK
Трек 9
Имя файла R:\Раздача 26\VA - Heartrock - Rock Fur's Herz vol.6 (2CD)\CD1\09 So Natural.wav
Длина предзазора 0:00:01.33
Пиковый уровень 98.9 %
Скорость извлечения 9.3 X
Качество трека 100.0 %
CRC теста 4FF88452
CRC копии 4FF88452
Точное извлечение (достоверность 3) [4D7B72DA] (AR v2)
Копирование... OK
Трек 10
Имя файла R:\Раздача 26\VA - Heartrock - Rock Fur's Herz vol.6 (2CD)\CD1\10 Is There Something.wav
Длина предзазора 0:00:01.35
Пиковый уровень 100.0 %
Скорость извлечения 9.4 X
Качество трека 100.0 %
CRC теста FC949A42
CRC копии FC949A42
Точное извлечение (достоверность 3) [9F6491F8] (AR v2)
Копирование... OK
Трек 11
Имя файла R:\Раздача 26\VA - Heartrock - Rock Fur's Herz vol.6 (2CD)\CD1\11 Age Of Miracles.wav
Длина предзазора 0:00:00.67
Пиковый уровень 99.0 %
Скорость извлечения 9.9 X
Качество трека 100.0 %
CRC теста EAF18224
CRC копии EAF18224
Точное извлечение (достоверность 3) [9B118DAD] (AR v2)
Копирование... OK
Трек 12
Имя файла R:\Раздача 26\VA - Heartrock - Rock Fur's Herz vol.6 (2CD)\CD1\12 You Could Been With Me.wav
Длина предзазора 0:00:01.37
Пиковый уровень 99.6 %
Скорость извлечения 9.8 X
Качество трека 100.0 %
CRC теста 9C5F487A
CRC копии 9C5F487A
Точное извлечение (достоверность 3) [02745817] (AR v2)
Копирование... OK
Трек 13
Имя файла R:\Раздача 26\VA - Heartrock - Rock Fur's Herz vol.6 (2CD)\CD1\13 The Right To Sing.wav
Длина предзазора 0:00:01.30
Пиковый уровень 99.0 %
Скорость извлечения 7.5 X
Качество трека 99.9 %
CRC теста A27B4FDE
CRC копии A27B4FDE
Точное извлечение (достоверность 3) [9F2F61FA] (AR v2)
Копирование... OK
Трек 14
Имя файла R:\Раздача 26\VA - Heartrock - Rock Fur's Herz vol.6 (2CD)\CD1\14 Separate Ways.wav
Длина предзазора 0:00:01.15
Пиковый уровень 99.0 %
Скорость извлечения 10.6 X
Качество трека 100.0 %
CRC теста 8A218352
CRC копии 8A218352
Точное извлечение (достоверность 3) [4442657D] (AR v2)
Копирование... OK
Трек 15
Имя файла R:\Раздача 26\VA - Heartrock - Rock Fur's Herz vol.6 (2CD)\CD1\15 Angel.wav
Длина предзазора 0:00:01.27
Пиковый уровень 98.9 %
Скорость извлечения 8.5 X
Качество трека 99.9 %
CRC теста F460136E
CRC копии F460136E
Точное извлечение (достоверность 4) [8BBE58CA] (AR v2)
Копирование... OK
Трек 16
Имя файла R:\Раздача 26\VA - Heartrock - Rock Fur's Herz vol.6 (2CD)\CD1\16 Stay.wav
Длина предзазора 0:00:01.30
Пиковый уровень 96.3 %
Скорость извлечения 11.0 X
Качество трека 100.0 %
CRC теста 937390F6
CRC копии 937390F6
Точное извлечение (достоверность 4) [FEA4EB26] (AR v2)
Копирование... OK
Трек 17
Имя файла R:\Раздача 26\VA - Heartrock - Rock Fur's Herz vol.6 (2CD)\CD1\17 Heaven Can Wait.wav
Длина предзазора 0:00:01.43
Пиковый уровень 99.0 %
Скорость извлечения 11.4 X
Качество трека 100.0 %
CRC теста 97CECF31
CRC копии 97CECF31
Точное извлечение (достоверность 4) [754F5EC9] (AR v2)
Копирование... OK
Все треки извлечены точно
Ошибок не произошло
Конец отчёта
==== Контрольная сумма отчёта A2AD597C7337879B5426AAD99B8783D3A0958DADF59AC092D0F7DD1CE1D53D2C ====

Содержание индексной карты (.CUE)

[pre]REM GENRE Pop-Rock
REM DATE 1994
REM DISCID EF116C11
REM COMMENT "ExactAudioCopy v1.0b3"
CATALOG 0000000000000
PERFORMER "VA"
TITLE "Heart Rock Vol. 6 (CD 1/2)"
FILE "01 In The Days Of The Caveman.wav" WAVE
TRACK 01 AUDIO
TITLE "In The Days Of The Caveman"
PERFORMER "Crash Test Dummies"
ISRC C@h[39300085
PREGAP 00:00:32
INDEX 01 00:00:00
TRACK 02 AUDIO
TITLE "Let.s Stay Together"
PERFORMER "Tina Turner"
INDEX 00 03:41:28
FILE "02 Let.s Stay Together.wav" WAVE
INDEX 01 00:00:00
TRACK 03 AUDIO
TITLE "Fading Like A Flower"
PERFORMER "Roxette"
INDEX 00 05:16:32
FILE "03 Fading Like A Flower.wav" WAVE
INDEX 01 00:00:00
TRACK 04 AUDIO
TITLE "I Miss You"
PERFORMER "Haddaway"
ISRC

To download the file disable ad blocking, and reload the page.

disable adblock How to disable ad blocking?

Download by magnet link 931 MB Download Torrent

Login using:

Similar topics

(Psytrance) Hyriderz - The Therapist - 2018, MP3, 320 kbps
 34 MB   0 | 0   09-May-18 09:10   1
(Hard Rock / AOR) EverLevel - Hardwork - 2018, MP3, 320 kbps
 184 MB   0 | 0   18-Mar-18 09:30   0


   
Current time is: 18-Sep 17:50 :: All times are UTC ± 0