Heartrock - Rock Fur's Herz vol.5 (2CD)
Жанр: Heartrock
Страна-производитель диска: Germany
Год издания: 1993
Издатель (лейбл): BMG Ariola Media GmbH
Номер по каталогу: 7432115115-2
Аудиокодек: FLAC (*.flac)
Тип рипа: tracks+.cue
Битрейт аудио: lossless
Продолжительность: 1:09:17 + 1:15:12
Источник (релизер): clustert
Наличие сканов в содержимом раздачи: да

CD1

01. Michael Jackson / One day [0:04:18.70]
02. Whitney Houston / Saving all my love for you [0:03:57.47]
03. Shakespear Sister / Stay [0:03:48.33]
04. Eurythmics / Don' ask me why [0:04:21.07]
05. The Beloved / Sweet harmony [0:05:04.63]
06. Sam Brown / Stop [0:04:02.17]
07. Sade / No ordinary love [0:05:23.73]
08. Stone & Stone / I Wish You Were Here [0:03:34.15]
09. Air Supply / Lost in love [0:03:53.35]
10. Blue System Dione Warwick & Dieter Bohlen / It's all over [0:03:55.42]
11. Bonnie Tyler / Save me [0:04:08.48]
12. Journey / Open arms [0:03:19.37]
13. The Alan Parsons Project / Time [0:05:00.58]
14. Curtis Stigers / Never Saw a Miracle [0:03:42.02]
15. Huey Lewis And The News / If this is it [0:03:51.28]
16. Glenn Frey / Desperado [0:04:01.07]
17. Dolly Parton / I will always love you [0:02:53.55]

Лог создания рипа

Exact Audio Copy V1.0 beta 3 from 29. August 2011
Отчёт EAC об извлечении, выполненном 22. октября 2014, 20:52
VA / Heart Rock Vol. 5 (Disk1)
Дисковод: ASUS DRW-1814BLT Adapter: 4 ID: 0
Режим чтения : Достоверность
Использование точного потока : Да
Отключение кэша аудио : Да
Использование указателей C2 : Нет
Коррекция смещения при чтении : 6
Способность читать области Lead-in и Lead-out : Нет
Заполнение пропущенных сэмплов тишиной : Да
Удаление блоков с тишиной в начале и конце : Нет
При вычислениях CRC использовались нулевые сэмплы : Да
Интерфейс : Встроенный Win32-интерфейс для Win NT/2000
Обработка зазоров : Добавлено к предыдущему треку
Выходной формат : Пользовательский кодировщик
Выбранный битрейт : 128 kBit/s
Качество : Высокий
Добавление ID3-тега : Нет
Утилита сжатия : C:\Program Files\Exact Audio Copy\Flac\flac.exe
Дополнительные параметры : -V -8 -T "Genre=%genre%" -T "Artist=%artist%" -T "Title=%title%" -T "Album=%albumtitle%" -T "Date=%year%" -T "Tracknumber=%tracknr%" -T "Comment=EAC1.0b2 FLAC -8" %source%
TOC извлечённого CD
Трек | Старт | Длительность | Начальный сектор | Конечный сектор
---------------------------------------------------------------------
1 | 0:00.33 | 4:18.70 | 33 | 19452
2 | 4:19.28 | 3:57.47 | 19453 | 37274
3 | 8:17.00 | 3:48.33 | 37275 | 54407
4 | 12:05.33 | 4:21.07 | 54408 | 73989
5 | 16:26.40 | 5:04.63 | 73990 | 96852
6 | 21:31.28 | 4:02.17 | 96853 | 115019
7 | 25:33.45 | 5:23.73 | 115020 | 139317
8 | 30:57.43 | 3:34.15 | 139318 | 155382
9 | 34:31.58 | 3:53.35 | 155383 | 172892
10 | 38:25.18 | 3:55.42 | 172893 | 190559
11 | 42:20.60 | 4:08.48 | 190560 | 209207
12 | 46:29.33 | 3:19.37 | 209208 | 224169
13 | 49:48.70 | 5:00.58 | 224170 | 246727
14 | 54:49.53 | 3:42.02 | 246728 | 263379
15 | 58:31.55 | 3:51.28 | 263380 | 280732
16 | 62:23.08 | 4:01.07 | 280733 | 298814
17 | 66:24.15 | 2:53.55 | 298815 | 311844
Трек 1
Имя файла R:\Раздача 26\VA - Heartrock - Rock Fur's Herz vol.5 (2CD)\CD1\01 One day.wav
Длина предзазора 0:00:02.33
Пиковый уровень 98.9 %
Скорость извлечения 4.4 X
Качество трека 99.9 %
CRC теста 676E2460
CRC копии 676E2460
Точное извлечение (достоверность 7) [AC0CCA01] (AR v2)
Копирование... OK
Трек 2
Имя файла R:\Раздача 26\VA - Heartrock - Rock Fur's Herz vol.5 (2CD)\CD1\02 Saving all my love for you.wav
Длина предзазора 0:00:02.53
Пиковый уровень 99.0 %
Скорость извлечения 6.3 X
Качество трека 100.0 %
CRC теста B24280C4
CRC копии B24280C4
Точное извлечение (достоверность 7) [62E3DE37] (AR v2)
Копирование... OK
Трек 3
Имя файла R:\Раздача 26\VA - Heartrock - Rock Fur's Herz vol.5 (2CD)\CD1\03 Stay.wav
Длина предзазора 0:00:02.02
Пиковый уровень 99.0 %
Скорость извлечения 6.7 X
Качество трека 100.0 %
CRC теста BDE9D9E2
CRC копии BDE9D9E2
Точное извлечение (достоверность 7) [E20B4EC6] (AR v2)
Копирование... OK
Трек 4
Имя файла R:\Раздача 26\VA - Heartrock - Rock Fur's Herz vol.5 (2CD)\CD1\04 Don' ask me why.wav
Длина предзазора 0:00:02.10
Пиковый уровень 98.9 %
Скорость извлечения 7.3 X
Качество трека 100.0 %
CRC теста 4B95A3FB
CRC копии 4B95A3FB
Точное извлечение (достоверность 7) [F423FC34] (AR v2)
Копирование... OK
Трек 5
Имя файла R:\Раздача 26\VA - Heartrock - Rock Fur's Herz vol.5 (2CD)\CD1\05 Sweet harmony.wav
Длина предзазора 0:00:01.50
Пиковый уровень 93.7 %
Скорость извлечения 7.9 X
Качество трека 100.0 %
CRC теста 3B1F0E64
CRC копии 3B1F0E64
Точное извлечение (достоверность 7) [B15528A6] (AR v2)
Копирование... OK
Трек 6
Имя файла R:\Раздача 26\VA - Heartrock - Rock Fur's Herz vol.5 (2CD)\CD1\06 Stop.wav
Длина предзазора 0:00:02.45
Пиковый уровень 98.9 %
Скорость извлечения 8.1 X
Качество трека 100.0 %
CRC теста 76C60C5C
CRC копии 76C60C5C
Точное извлечение (достоверность 7) [B6564433] (AR v2)
Копирование... OK
Трек 7
Имя файла R:\Раздача 26\VA - Heartrock - Rock Fur's Herz vol.5 (2CD)\CD1\07 No ordinary love.wav
Длина предзазора 0:00:02.20
Пиковый уровень 85.1 %
Скорость извлечения 8.8 X
Качество трека 100.0 %
CRC теста 4018B242
CRC копии 4018B242
Точное извлечение (достоверность 7) [3A4E5DF7] (AR v2)
Копирование... OK
Трек 8
Имя файла R:\Раздача 26\VA - Heartrock - Rock Fur's Herz vol.5 (2CD)\CD1\08 I Wish You Were Here.wav
Длина предзазора 0:00:01.20
Пиковый уровень 99.5 %
Скорость извлечения 8.7 X
Качество трека 100.0 %
CRC теста 66F040B7
CRC копии 66F040B7
Точное извлечение (достоверность 7) [0060B7B2] (AR v2)
Копирование... OK
Трек 9
Имя файла R:\Раздача 26\VA - Heartrock - Rock Fur's Herz vol.5 (2CD)\CD1\09 Lost in love.wav
Длина предзазора 0:00:02.15
Пиковый уровень 99.0 %
Скорость извлечения 9.1 X
Качество трека 100.0 %
CRC теста E1588B9E
CRC копии E1588B9E
Точное извлечение (достоверность 7) [9DC2E8BD] (AR v2)
Копирование... OK
Трек 10
Имя файла R:\Раздача 26\VA - Heartrock - Rock Fur's Herz vol.5 (2CD)\CD1\10 It's all over.wav
Длина предзазора 0:00:02.08
Пиковый уровень 98.9 %
Скорость извлечения 9.4 X
Качество трека 100.0 %
CRC теста 95A02735
CRC копии 95A02735
Точное извлечение (достоверность 7) [7DCB1795] (AR v2)
Копирование... OK
Трек 11
Имя файла R:\Раздача 26\VA - Heartrock - Rock Fur's Herz vol.5 (2CD)\CD1\11 Save me.wav
Длина предзазора 0:00:01.57
Пиковый уровень 99.0 %
Скорость извлечения 7.3 X
Качество трека 99.9 %
CRC теста 568BC812
CRC копии 568BC812
Точное извлечение (достоверность 7) [C7B005ED] (AR v2)
Копирование... OK
Трек 12
Имя файла R:\Раздача 26\VA - Heartrock - Rock Fur's Herz vol.5 (2CD)\CD1\12 Open arms.wav
Длина предзазора 0:00:00.63
Пиковый уровень 98.9 %
Скорость извлечения 9.7 X
Качество трека 100.0 %
CRC теста F809EDE5
CRC копии F809EDE5
Точное извлечение (достоверность 7) [EFD592EB] (AR v2)
Копирование... OK
Трек 13
Имя файла R:\Раздача 26\VA - Heartrock - Rock Fur's Herz vol.5 (2CD)\CD1\13 Time.wav
Длина предзазора 0:00:01.70
Пиковый уровень 98.9 %
Скорость извлечения 8.1 X
Качество трека 99.9 %
CRC теста 704ED0CF
CRC копии 704ED0CF
Точное извлечение (достоверность 7) [AD16A3F0] (AR v2)
Копирование... OK
Трек 14
Имя файла R:\Раздача 26\VA - Heartrock - Rock Fur's Herz vol.5 (2CD)\CD1\14 Never Saw a Miracle.wav
Длина предзазора 0:00:01.45
Пиковый уровень 96.0 %
Скорость извлечения 10.4 X
Качество трека 100.0 %
CRC теста A4AFB4D2
CRC копии A4AFB4D2
Точное извлечение (достоверность 7) [151B89EE] (AR v2)
Копирование... OK
Трек 15
Имя файла R:\Раздача 26\VA - Heartrock - Rock Fur's Herz vol.5 (2CD)\CD1\15 If this is it.wav
Длина предзазора 0:00:02.00
Пиковый уровень 99.0 %
Скорость извлечения 8.1 X
Качество трека 99.9 %
CRC теста 14DE33A0
CRC копии 14DE33A0
Точное извлечение (достоверность 7) [C22D0FFA] (AR v2)
Копирование... OK
Трек 16
Имя файла R:\Раздача 26\VA - Heartrock - Rock Fur's Herz vol.5 (2CD)\CD1\16 Desperado.wav
Длина предзазора 0:00:01.20
Пиковый уровень 100.0 %
Скорость извлечения 11.0 X
Качество трека 100.0 %
CRC теста 9B4D7D0C
CRC копии 9B4D7D0C
Точное извлечение (достоверность 7) [1E6E40F3] (AR v2)
Копирование... OK
Трек 17
Имя файла R:\Раздача 26\VA - Heartrock - Rock Fur's Herz vol.5 (2CD)\CD1\17 I will always love you.wav
Длина предзазора 0:00:01.35
Пиковый уровень 99.0 %
Скорость извлечения 10.3 X
Качество трека 100.0 %
CRC теста B31B9A8B
CRC копии B31B9A8B
Точное извлечение (достоверность 7) [6F8727BD] (AR v2)
Копирование... OK
Все треки извлечены точно
Ошибок не произошло
Конец отчёта
==== Контрольная сумма отчёта FB2A5A948B43E037C9B60EC7DFC6B3B17F6C80297C68C8981D3E6137B965DC65 ====

Содержание индексной карты (.CUE)

REM GENRE "Pop - Rock"
REM DATE 1993
REM DISCID 13103D11
REM COMMENT "ExactAudioCopy v1.0b3"
PERFORMER "VA"
TITLE "Heart Rock Vol. 5 (Disk1)"
FILE "01 One day.wav" WAVE
TRACK 01 AUDIO
TITLE "One day"
PERFORMER "Michael Jackson"
PREGAP 00:00:33
INDEX 01 00:00:00
TRACK 02 AUDIO
TITLE "Saving all my love for you"
PERFORMER "Whitney Houston"
INDEX 00 04:16:17
FILE "02 Saving all my love for you.wav" WAVE
INDEX 01 00:00:00
TRACK 03 AUDIO
TITLE "Stay"
PERFORMER "Shakespear Sister"
INDEX 00 03:55:45
FILE "03 Stay.wav" WAVE
INDEX 01 00:00:00
TRACK 04 AUDIO
TITLE "Don' ask me why"
PERFORMER "Eurythmics"
INDEX 00 03:46:23
FILE "04 Don' ask me why.wav" WAVE
INDEX 01 00:00:00
TRACK 05 AUDIO
TITLE "Sweet harmony"
PERFORMER "The Beloved"
INDEX 00 04:19:32
FILE "05 Sweet harmony.wav" WAVE
INDEX 01 00:00:00
TRACK 06 AUDIO
TITLE "Stop"
PERFORMER "Sam Brown"
INDEX 00 05:02:18
FILE "06 Stop.wav" WAVE
INDEX 01 00:00:00
TRACK 07 AUDIO
TITLE "No ordinary love"
PERFORMER "Sade"
INDEX 00 03:59:72
FILE "07 No ordinary love.wav" WAVE
INDEX 01 00:00:00
TRACK 08 AUDIO
TITLE "I Wish You Were Here"
PERFORMER "Stone & Stone"
INDEX 00 05:22:53
FILE "08 I Wish You Were Here.wav" WAVE
INDEX 01 00:00:00
TRACK 09 AUDIO
TITLE "Lost in love"
PERFORMER "Air Supply"
INDEX 00 03:32:00
FILE "09 Lost in love.wav" WAVE
INDEX 01 00:00:00
TRACK 10 AUDIO
TITLE "It's all over"
PERFORMER "Blue System Dione Warwick & Dieter Bohlen"
INDEX 00 03:51:27
FILE "10 It's all over.wav" WAVE
INDEX 01 00:00:00
TRACK 11 AUDIO
TITLE "Save me"
PERFORMER "Bonnie Tyler"
INDEX 00 03:53:60
FILE "11 Save me.wav" WAVE
INDEX 01 00:00:00
TRACK 12 AUDIO
TITLE "Open arms"
PERFORMER "Journey"
INDEX 00 04:07:60
FILE "12 Open arms.wav" WAVE
INDEX 01 00:00:00
TRACK 13 AUDIO
TITLE "Time"
PERFORMER "The Alan Parsons Project"
INDEX 00 03:17:42
FILE "13 Time.wav" WAVE
INDEX 01 00:00:00
TRACK 14 AUDIO
TITLE "Never Saw a Miracle"
PERFORMER "Curtis Stigers"
INDEX 00 04:59:13
FILE "14 Never Saw a Miracle.wav" WAVE
INDEX 01 00:00:00
TRACK 15 AUDIO
TITLE "If this is it"
PERFORMER "Huey Lewis And The News"
INDEX 00 03:40:02
FILE "15 If this is it.wav" WAVE
INDEX 01 00:00:00
TRACK 16 AUDIO
TITLE "Desperado"
PERFORMER "Glenn Frey"
INDEX 00 03:50:08
FILE "16 Desperado.wav" WAVE
INDEX 01 00:00:00
TRACK 17 AUDIO
TITLE "I will always love you"
PERFORMER "Dolly Parton"
INDEX 00 03:59:47
FILE "17 I will always love you.wav" WAVE
INDEX 01 00:00:00

CD2

01. Wham (feat. George Michael) / A different corner [0:04:00.42]
02. Lenny Kravitz / Believe [0:04:04.40]
03. Prince And The Revolution / Sometimes It Snows In April [0:06:51.25]
04. America / I need you [0:03:05.45]
05. Take That / A million love songs [0:03:55.48]
06. Patty Smyth & Don Henley / Sometimes Love Just Ain't Enough [0:04:27.72]
07. Ray Parker Jr. & Raydio / A Woman Needs Love ( Just Like You Do) [0:04:03.23]
08. Bobby Brown / Roni [0:05:55.42]
09. Marvin Gaye / What's going on [0:03:50.38]
10. The Hollies / He Ain't Heavy, He's My Brother [0:04:15.72]
11. SWV / Weak [0:04:45.28]
12. Niamh Kavanagh / In your eyes [0:03:11.10]
13. Silk / Freak me [0:04:35.65]
14. Shai / If I Ever Fall In Love [0:03:11.02]
15. Billy Ocean / Suddenly [0:03:54.63]
16. Dionne Warwick / Never Love This Way Again [0:03:33.70]
17. Simply Red / Heaven [0:04:34.02]
18. Stevie Wonder / My Cherie Amour [0:02:55.00]

Лог создания рипа

Exact Audio Copy V1.0 beta 3 from 29. August 2011
Отчёт EAC об извлечении, выполненном 22. октября 2014, 21:19
VA / Heart Rock Vol. 5 (Disk2)
Дисковод: ASUS DRW-1814BLT Adapter: 4 ID: 0
Режим чтения : Достоверность
Использование точного потока : Да
Отключение кэша аудио : Да
Использование указателей C2 : Нет
Коррекция смещения при чтении : 6
Способность читать области Lead-in и Lead-out : Нет
Заполнение пропущенных сэмплов тишиной : Да
Удаление блоков с тишиной в начале и конце : Нет
При вычислениях CRC использовались нулевые сэмплы : Да
Интерфейс : Встроенный Win32-интерфейс для Win NT/2000
Обработка зазоров : Добавлено к предыдущему треку
Выходной формат : Пользовательский кодировщик
Выбранный битрейт : 128 kBit/s
Качество : Высокий
Добавление ID3-тега : Нет
Утилита сжатия : C:\Program Files\Exact Audio Copy\Flac\flac.exe
Дополнительные параметры : -V -8 -T "Genre=%genre%" -T "Artist=%artist%" -T "Title=%title%" -T "Album=%albumtitle%" -T "Date=%year%" -T "Tracknumber=%tracknr%" -T "Comment=EAC1.0b2 FLAC -8" %source%
TOC извлечённого CD
Трек | Старт | Длительность | Начальный сектор | Конечный сектор
---------------------------------------------------------------------
1 | 0:00.33 | 4:00.42 | 33 | 18074
2 | 4:01.00 | 4:04.40 | 18075 | 36414
3 | 8:05.40 | 6:51.25 | 36415 | 67264
4 | 14:56.65 | 3:05.45 | 67265 | 81184
5 | 18:02.35 | 3:55.48 | 81185 | 98857
6 | 21:58.08 | 4:27.72 | 98858 | 118954
7 | 26:26.05 | 4:03.23 | 118955 | 137202
8 | 30:29.28 | 5:55.42 | 137203 | 163869
9 | 36:24.70 | 3:50.38 | 163870 | 181157
10 | 40:15.33 | 4:15.72 | 181158 | 200354
11 | 44:31.30 | 4:45.28 | 200355 | 221757
12 | 49:16.58 | 3:11.10 | 221758 | 236092
13 | 52:27.68 | 4:35.65 | 236093 | 256782
14 | 57:03.58 | 3:11.02 | 256783 | 271109
15 | 60:14.60 | 3:54.63 | 271110 | 288722
16 | 64:09.48 | 3:33.70 | 288723 | 304767
17 | 67:43.43 | 4:34.02 | 304768 | 325319
18 | 72:17.45 | 2:55.00 | 325320 | 338444
Трек 1
Имя файла R:\Раздача 26\VA - Heartrock - Rock Fur's Herz vol.5 (2CD)\CD2\01 A different corner.wav
Длина предзазора 0:00:02.33
Пиковый уровень 93.3 %
Скорость извлечения 5.7 X
Качество трека 100.0 %
CRC теста C8F5F182
CRC копии C8F5F182
Точное извлечение (достоверность 5) [82BE4344] (AR v2)
Копирование... OK
Трек 2
Имя файла R:\Раздача 26\VA - Heartrock - Rock Fur's Herz vol.5 (2CD)\CD2\02 Believe.wav
Длина предзазора 0:00:01.67
Пиковый уровень 94.6 %
Скорость извлечения 6.3 X
Качество трека 100.0 %
CRC теста 2CD8330A
CRC копии 2CD8330A
Точное извлечение (достоверность 5) [0E4D6E38] (AR v2)
Копирование... OK
Трек 3
Имя файла R:\Раздача 26\VA - Heartrock - Rock Fur's Herz vol.5 (2CD)\CD2\03 Sometimes It Snows In April.wav
Длина предзазора 0:00:01.50
Пиковый уровень 72.4 %
Скорость извлечения 5.7 X
Качество трека 99.9 %
CRC теста 19B2F38D
CRC копии 19B2F38D
Точное извлечение (достоверность 5) [B42E7CE2] (AR v2)
Копирование... OK
Трек 4
Имя файла R:\Раздача 26\VA - Heartrock - Rock Fur's Herz vol.5 (2CD)\CD2\04 I need you.wav
Длина предзазора 0:00:02.17
Пиковый уровень 79.5 %
Скорость извлечения 5.1 X
Качество трека 99.9 %
CRC теста 4A5FCB63
CRC копии 4A5FCB63
Точное извлечение (достоверность 5) [AD85997C] (AR v2)
Копирование... OK
Трек 5
Имя файла R:\Раздача 26\VA - Heartrock - Rock Fur's Herz vol.5 (2CD)\CD2\05 A million love songs.wav
Длина предзазора 0:00:02.00
Пиковый уровень 98.9 %
Скорость извлечения 7.6 X
Качество трека 100.0 %
CRC теста 8E654CC2
CRC копии 8E654CC2
Точное извлечение (достоверность 5) [14206D4C] (AR v2)
Копирование... OK
Трек 6
Имя файла R:\Раздача 26\VA - Heartrock - Rock Fur's Herz vol.5 (2CD)\CD2\06 Sometimes Love Just Ain't Enough.wav
Длина предзазора 0:00:02.38
Пиковый уровень 99.0 %
Скорость извлечения 8.2 X
Качество трека 100.0 %
CRC теста 122CBC9C
CRC копии 122CBC9C
Точное извлечение (достоверность 5) [4E2AC909] (AR v2)
Копирование... OK
Трек 7
Имя файла R:\Раздача 26\VA - Heartrock - Rock Fur's Herz vol.5 (2CD)\CD2\07 A Woman Needs Love ( Just Like You Do).wav
Длина предзазора 0:00:02.00
Пиковый уровень 99.0 %
Скорость извлечения 8.4 X
Качество трека 100.0 %
CRC теста EC36AD62
CRC копии EC36AD62
Точное извлечение (достоверность 5) [7455A0BA] (AR v2)
Копирование... OK
Трек 8
Имя файла R:\Раздача 26\VA - Heartrock - Rock Fur's Herz vol.5 (2CD)\CD2\08 Roni.wav
Длина предзазора 0:00:01.55
Пиковый уровень 99.0 %
Скорость извлечения 7.1 X
Качество трека 99.9 %
CRC теста D85D1AA2
CRC копии D85D1AA2
Точное извлечение (достоверность 5) [6A2C0899] (AR v2)
Копирование... OK
Трек 9
Имя файла R:\Раздача 26\VA - Heartrock - Rock Fur's Herz vol.5 (2CD)\CD2\09 What's going on.wav
Длина предзазора 0:00:01.37
Пиковый уровень 98.9 %
Скорость извлечения 9.1 X
Качество трека 100.0 %
CRC теста 866A9905
CRC копии 866A9905
Точное извлечение (достоверность 5) [BF14ED7A] (AR v2)
Копирование... OK
Трек 10
Имя файла R:\Раздача 26\VA - Heartrock - Rock Fur's Herz vol.5 (2CD)\CD2\10 He Ain't Heavy, He's My Brother.wav
Длина предзазора 0:00:01.55
Пиковый уровень 99.0 %
Скорость извлечения 7.2 X
Качество трека 99.9 %
CRC теста C5272B58
CRC копии C5272B58
Точное извлечение (достоверность 5) [B8AE6675] (AR v2)
Копирование... OK
Трек 11
Имя файла R:\Раздача 26\VA - Heartrock - Rock Fur's Herz vol.5 (2CD)\CD2\11 Weak.wav
Длина предзазора 0:00:01.60
Пиковый уровень 99.0 %
Скорость извлечения 10.0 X
Качество трека 100.0 %
CRC теста F0A6FE98
CRC копии F0A6FE98
Точное извлечение (достоверность 5) [65553DD5] (AR v2)
Копирование... OK
Трек 12
Имя файла R:\Раздача 26\VA - Heartrock - Rock Fur's Herz vol.5 (2CD)\CD2\12 In your eyes.wav
Длина предзазора 0:00:02.08
Пиковый уровень 99.0 %
Скорость извлечения 9.7 X
Качество трека 100.0 %
CRC теста 895A9614
CRC копии 895A9614
Точное извлечение (достоверность 5) [14EDF345] (AR v2)
Копирование... OK
Трек 13
Имя файла R:\Раздача 26\VA - Heartrock - Rock Fur's Herz vol.5 (2CD)\CD2\13 Freak me.wav
Длина предзазора 0:00:02.10
Пиковый уровень 93.0 %
Скорость извлечения 7.9 X
Качество трека 99.9 %
CRC теста 9C9FC46D
CRC копии 9C9FC46D
Точное извлечение (достоверность 5) [5AAB1858] (AR v2)
Копирование... OK
Трек 14
Имя файла R:\Раздача 26\VA - Heartrock - Rock Fur's Herz vol.5 (2CD)\CD2\14 If I Ever Fall In Love.wav
Длина предзазора 0:00:01.45
Пиковый уровень 75.1 %
Скорость извлечения 10.1 X
Качество трека 100.0 %
CRC теста 21794D75
CRC копии 21794D75
Точное извлечение (достоверность 5) [3D3AFFD9] (AR v2)
Копирование... OK
Трек 15
Имя файла R:\Раздача 26\VA - Heartrock - Rock Fur's Herz vol.5 (2CD)\CD2\15 Suddenly.wav
Длина предзазора 0:00:02.02
Пиковый уровень 99.0 %
Скорость извлечения 10.7 X
Качество трека 100.0 %
CRC теста EE5ABF7A
CRC копии EE5ABF7A
Точное извлечение (достоверность 5) [92148233] (AR v2)
Копирование... OK
Трек 16
Имя файла R:\Раздача 26\VA - Heartrock - Rock Fur's Herz vol.5 (2CD)\CD2\16 Never Love This Way Again.wav
Длина предзазора 0:00:02.15
Пиковый уровень 98.9 %
Скорость извлечения 10.7 X
Качество трека 100.0 %
CRC теста 7E8935CB
CRC копии 7E8935CB
Точное извлечение (достоверность 5) [CC271EEF] (AR v2)
Копирование... OK
Трек 17
Имя файла R:\Раздача 26\VA - Heartrock - Rock Fur's Herz vol.5 (2CD)\CD2\17 Heaven.wav
Длина предзазора 0:00:02.28
Пиковый уровень 99.0 %
Скорость извлечения 11.4 X
Качество трека 100.0 %
CRC теста 6DE0C2E2
CRC копии 6DE0C2E2
Точное извлечение (достоверность 5) [CDD9C26D] (AR v2)
Копирование... OK
Трек 18
Имя файла R:\Раздача 26\VA - Heartrock - Rock Fur's Herz vol.5 (2CD)\CD2\18 My Cherie Amour.wav
Длина предзазора 0:00:01.72
Пиковый уровень 99.0 %
Скорость извлечения 10.6 X
Качество трека 100.0 %
CRC теста 21CCF16E
CRC копии 21CCF16E
Точное извлечение (достоверность 5) [5E8EE04A] (AR v2)
Копирование... OK
Все треки извлечены точно
Ошибок не произошло
Конец отчёта
==== Контрольная сумма отчёта 597DEA5B75C8A6EE6D9EBE07748F170B28411849AFD2E271AF9B1F80E855312E ====

Содержание индексной карты (.CUE)

REM GENRE Pop-Rock
REM DATE 1993
REM DISCID 1911A012
REM COMMENT "ExactAudioCopy v1.0b3"
PERFORMER "VA"
TITLE "Heart Rock Vol. 5 (Disk2)"
FILE "01 A different corner.wav" WAVE
TRACK 01 AUDIO
TITLE "A different corner"
PERFORMER "Wham (feat. George Michael)"
PREGAP 00:00:33
INDEX 01 00:00:00
TRACK 02 AUDIO
TITLE "Believe"
PERFORMER "Lenny Kravitz"
INDEX 00 03:58:50
FILE "02 Believe.wav" WAVE
INDEX 01 00:00:00
TRACK 03 AUDIO
TITLE "Sometimes It Snows In April"
PERFORMER "Prince And The Revolution"
INDEX 00 04:02:65
FILE "03 Sometimes It Snows In April.wav" WAVE
INDEX 01 00:00:00
TRACK 04 AUDIO
TITLE "I need you"
PERFORMER "America"
INDEX 00 06:49:08
FILE "04 I need you.wav" WAVE
INDEX 01 00:00:00
TRACK 05 AUDIO
TITLE "A million love songs"
PERFORMER "Take That"
INDEX 00 03:03:45
FILE "05 A million love songs.wav" WAVE
INDEX 01 00:00:00
TRACK 06 AUDIO
TITLE "Sometimes Love Just Ain't Enough"
PERFORMER "Patty Smyth & Don Henley"
INDEX 00 03:53:10
FILE "06 Sometimes Love Just Ain't Enough.wav" WAVE
INDEX 01 00:00:00
TRACK 07 AUDIO
TITLE "A Woman Needs Love ( Just Like You Do)"
PERFORMER "Ray Parker Jr. & Raydio"
INDEX 00 04:25:72
FILE "07 A Woman Needs Love ( Just Like You Do).wav" WAVE
INDEX 01 00:00:00
TRACK 08 AUDIO
TITLE "Roni"
PERFORMER "Bobby Brown"
INDEX 00 04:01:43
FILE "08 Roni.wav" WAVE
INDEX 01 00:00:00
TRACK 09 AUDIO
TITLE "What's going on"
PERFORMER "Marvin Gaye"
INDEX 00 05:54:05
FILE "09 What's going on.wav" WAVE
INDEX 01 00:00:00
TRACK 10 AUDIO
TITLE "He Ain't Heavy, He's My Brother"
PERFORMER "The Hollies"
INDEX 00 03:48:58
FILE "10 He Ain't Heavy, He's My Brother.wav" WAVE
INDEX 01 00:00:00
TRACK 11 AUDIO
TITLE "Weak"
PERFORMER "SWV"
INDEX 00 04:14:12
FILE "11 Weak.wav" WAVE
INDEX 01 00:00:00
TRACK 12 AUDIO
TITLE "In your eyes"
PERFORMER "Niamh Kavanagh"
INDEX 00 04:43:20
FILE "12 In your eyes.wav" WAVE
INDEX 01 00:00:00
TRACK 13 AUDIO
TITLE "Freak me"
PERFORMER "Silk"
INDEX 00 03:09:00
FILE "13 Freak me.wav" WAVE
INDEX 01 00:00:00
TRACK 14 AUDIO
TITLE "If I Ever Fall In Love"
PERFORMER "Shai"
INDEX 00 04:34:20
FILE "14 If I Ever Fall In Love.wav" WAVE
INDEX 01 00:00:00
TRACK 15 AUDIO
TITLE "Suddenly"
PERFORMER "Billy Ocean"
INDEX 00 03:09:00
FILE "15 Suddenly.wav" WAVE
INDEX 01 00:00:00
TRACK 16 AUDIO
TITLE "Never Love This Way Again"
PERFORMER "Dionne Warwick"
INDEX 00 03:52:48
FILE "16 Never Love This Way Again.wav" WAVE
INDEX 01 00:00:00
TRACK 17 AUDIO
TITLE "Heaven"
PERFORMER "Simply Red"
INDEX 00 03:31:42
FILE "17 Heaven.wav" WAVE
INDEX 01 00:00:00
TRACK 18 AUDIO
TITLE "My Cherie Amour"
PERFORMER "Stevie Wonder"
INDEX 00 04:32:05
FILE "18 My Cherie Amour.wav" WAVE
INDEX 01 00:00:00

To download the file disable ad blocking, and reload the page.

disable adblock How to disable ad blocking?

Download by magnet link 880 MB Download Torrent

Login using:

Similar topics

(Psytrance) Hyriderz - The Therapist - 2018, MP3, 320 kbps
 34 MB   0 | 0   09-May-18 09:10   1
(Hard Rock / AOR) EverLevel - Hardwork - 2018, MP3, 320 kbps
 184 MB   0 | 0   18-Mar-18 09:30   0


   
Current time is: 20-Sep 00:07 :: All times are UTC ± 0