Heartrock - Rock Fur's Herz vol.3 (2CD)
Жанр: Heartrock
Страна-производитель диска: Germany
Год издания: 1991
Издатель (лейбл): BMG Ariola Munchen GmbH
Номер по каталогу: 354232
Аудиокодек: FLAC (*.flac)
Тип рипа: tracks+.cue
Битрейт аудио: lossless
Продолжительность: 1:09:57 + 1:08:14
Источник (релизер): clustert
Наличие сканов в содержимом раздачи: да

CD1

01. Frankie Goes To Hollywood / The Power Of Love [0:05:31.42]
02. Stevie B. / Because I Love You (The Postman Song) [0:03:46.65]
03. Chris Rea / Ace Of Hearts [0:04:29.05]
04. Commodores / Nightshift [0:05:03.25]
05. Terry Jacks / Seasons In The Sun [0:03:28.28]
06. Chris Isaak / Wicked Game [0:04:48.55]
07. Eric Carmen / All By Myself [0:04:54.55]
08. Don McLean / Vincent [0:04:00.32]
09. Elton John / Your Song [0:03:59.65]
10. Rick Astley / Cry For Help [0:04:17.68]
11. Mike Batt / Caravan Song [0:03:42.02]
12. Tommy James And The Shondells / Crimson And Clover [0:03:28.58]
13. Wilson Phillips / You're In Love [0:04:44.57]
14. Gilbert O'Sullivan / What's In A KIss [0:02:33.40]
15. Pure Prairie League / Let Me Love You Tonight [0:02:41.53]
16. Glenn Frey / I Did It For Your Love [0:04:00.12]
17. Journey / Faithfully [0:04:25.50]

Лог создания рипа

Exact Audio Copy V1.0 beta 3 from 29. August 2011
Отчёт EAC об извлечении, выполненном 22. октября 2014, 20:24
VA / Heartrock - Volume 3 - Rock Fur's Herz (CD2)
Дисковод: ASUS DRW-1814BLT Adapter: 4 ID: 0
Режим чтения : Достоверность
Использование точного потока : Да
Отключение кэша аудио : Да
Использование указателей C2 : Нет
Коррекция смещения при чтении : 6
Способность читать области Lead-in и Lead-out : Нет
Заполнение пропущенных сэмплов тишиной : Да
Удаление блоков с тишиной в начале и конце : Нет
При вычислениях CRC использовались нулевые сэмплы : Да
Интерфейс : Встроенный Win32-интерфейс для Win NT/2000
Обработка зазоров : Добавлено к предыдущему треку
Выходной формат : Пользовательский кодировщик
Выбранный битрейт : 128 kBit/s
Качество : Высокий
Добавление ID3-тега : Нет
Утилита сжатия : C:\Program Files\Exact Audio Copy\Flac\flac.exe
Дополнительные параметры : -V -8 -T "Genre=%genre%" -T "Artist=%artist%" -T "Title=%title%" -T "Album=%albumtitle%" -T "Date=%year%" -T "Tracknumber=%tracknr%" -T "Comment=EAC1.0b2 FLAC -8" %source%
TOC извлечённого CD
Трек | Старт | Длительность | Начальный сектор | Конечный сектор
---------------------------------------------------------------------
1 | 0:00.33 | 3:31.05 | 33 | 15862
2 | 3:31.38 | 3:30.47 | 15863 | 31659
3 | 7:02.10 | 2:59.18 | 31660 | 45102
4 | 10:01.28 | 4:17.60 | 45103 | 64437
5 | 14:19.13 | 4:15.47 | 64438 | 83609
6 | 18:34.60 | 2:53.73 | 83610 | 96657
7 | 21:28.58 | 4:15.57 | 96658 | 115839
8 | 25:44.40 | 4:21.33 | 115840 | 135447
9 | 30:05.73 | 4:26.15 | 135448 | 155412
10 | 34:32.13 | 4:05.40 | 155413 | 173827
11 | 38:37.53 | 3:40.37 | 173828 | 190364
12 | 42:18.15 | 4:31.58 | 190365 | 210747
13 | 46:49.73 | 4:36.27 | 210748 | 231474
14 | 51:26.25 | 3:57.40 | 231475 | 249289
15 | 55:23.65 | 3:33.25 | 249290 | 265289
16 | 58:57.15 | 4:16.03 | 265290 | 284492
17 | 63:13.18 | 5:01.15 | 284493 | 307082
Трек 1
Имя файла R:\Раздача 26\VA - Heartrock - Rock Fur's Herz vol.3 (2CD)\CD2\01 Groovy Kind Of Love.wav
Длина предзазора 0:00:02.33
Пиковый уровень 92.5 %
Скорость извлечения 4.7 X
Качество трека 100.0 %
CRC теста F74BA424
CRC копии F74BA424
Точное извлечение (достоверность 3) [F6CB9224] (AR v1)
Копирование... OK
Трек 2
Имя файла R:\Раздача 26\VA - Heartrock - Rock Fur's Herz vol.3 (2CD)\CD2\02 One More Try.wav
Длина предзазора 0:00:01.50
Пиковый уровень 87.8 %
Скорость извлечения 5.1 X
Качество трека 100.0 %
CRC теста 868B08A9
CRC копии 868B08A9
Точное извлечение (достоверность 3) [3A4E72C2] (AR v1)
Копирование... OK
Трек 3
Имя файла R:\Раздача 26\VA - Heartrock - Rock Fur's Herz vol.3 (2CD)\CD2\03 To Love Somebody.wav
Длина предзазора 0:00:01.50
Пиковый уровень 78.6 %
Скорость извлечения 5.3 X
Качество трека 100.0 %
CRC теста 60DD16AC
CRC копии 60DD16AC
Точное извлечение (достоверность 3) [F1603747] (AR v1)
Копирование... OK
Трек 4
Имя файла R:\Раздача 26\VA - Heartrock - Rock Fur's Herz vol.3 (2CD)\CD2\04 It Must Have Been Love.wav
Длина предзазора 0:00:01.50
Пиковый уровень 90.3 %
Скорость извлечения 6.0 X
Качество трека 100.0 %
CRC теста 48BDD158
CRC копии 48BDD158
Точное извлечение (достоверность 3) [50FE68BE] (AR v1)
Копирование... OK
Трек 5
Имя файла R:\Раздача 26\VA - Heartrock - Rock Fur's Herz vol.3 (2CD)\CD2\05 More Than This.wav
Длина предзазора 0:00:01.50
Пиковый уровень 99.0 %
Скорость извлечения 4.5 X
Качество трека 99.9 %
CRC теста AA0E112D
CRC копии AA0E112D
Точное извлечение (достоверность 3) [2E08E2C8] (AR v1)
Копирование... OK
Трек 6
Имя файла R:\Раздача 26\VA - Heartrock - Rock Fur's Herz vol.3 (2CD)\CD2\06 Sharing The Night Together.wav
Длина предзазора 0:00:01.50
Пиковый уровень 99.0 %
Скорость извлечения 4.3 X
Качество трека 99.9 %
CRC теста 8A70F27C
CRC копии 8A70F27C
Точное извлечение (достоверность 3) [972EB671] (AR v1)
Копирование... OK
Трек 7
Имя файла R:\Раздача 26\VA - Heartrock - Rock Fur's Herz vol.3 (2CD)\CD2\07 Heartbreaker.wav
Длина предзазора 0:00:01.50
Пиковый уровень 99.0 %
Скорость извлечения 6.9 X
Качество трека 100.0 %
CRC теста BC420FD8
CRC копии BC420FD8
Точное извлечение (достоверность 3) [148DD4D0] (AR v1)
Копирование... OK
Трек 8
Имя файла R:\Раздача 26\VA - Heartrock - Rock Fur's Herz vol.3 (2CD)\CD2\08 When The Children Cry.wav
Пиковый уровень 99.0 %
Скорость извлечения 7.3 X
Качество трека 100.0 %
CRC теста E095B1E6
CRC копии E095B1E6
Точное извлечение (достоверность 3) [AB777764] (AR v1)
Копирование... OK
Трек 9
Имя файла R:\Раздача 26\VA - Heartrock - Rock Fur's Herz vol.3 (2CD)\CD2\09 Nights In White Satin.wav
Длина предзазора 0:00:01.50
Пиковый уровень 99.0 %
Скорость извлечения 7.6 X
Качество трека 100.0 %
CRC теста DC66E072
CRC копии DC66E072
Точное извлечение (достоверность 3) [D37FB0FC] (AR v1)
Копирование... OK
Трек 10
Имя файла R:\Раздача 26\VA - Heartrock - Rock Fur's Herz vol.3 (2CD)\CD2\10 Just The Way It Is, Baby.wav
Длина предзазора 0:00:01.50
Пиковый уровень 99.0 %
Скорость извлечения 7.9 X
Качество трека 100.0 %
CRC теста 9F5D37B8
CRC копии 9F5D37B8
Точное извлечение (достоверность 3) [D754DE86] (AR v1)
Копирование... OK
Трек 11
Имя файла R:\Раздача 26\VA - Heartrock - Rock Fur's Herz vol.3 (2CD)\CD2\11 Father And Son.wav
Длина предзазора 0:00:00.50
Пиковый уровень 99.0 %
Скорость извлечения 7.9 X
Качество трека 100.0 %
CRC теста 4C18ABAD
CRC копии 4C18ABAD
Точное извлечение (достоверность 3) [A4673D32] (AR v1)
Копирование... OK
Трек 12
Имя файла R:\Раздача 26\VA - Heartrock - Rock Fur's Herz vol.3 (2CD)\CD2\12 Love's Burn (Dancemix Radio Edit).wav
Длина предзазора 0:00:01.50
Пиковый уровень 88.2 %
Скорость извлечения 8.5 X
Качество трека 100.0 %
CRC теста B977E304
CRC копии B977E304
Точное извлечение (достоверность 3) [D86A9BF9] (AR v1)
Копирование... OK
Трек 13
Имя файла R:\Раздача 26\VA - Heartrock - Rock Fur's Herz vol.3 (2CD)\CD2\13 From A Distance.wav
Длина предзазора 0:00:00.50
Пиковый уровень 99.0 %
Скорость извлечения 8.8 X
Качество трека 100.0 %
CRC теста 0EA68940
CRC копии 0EA68940
Точное извлечение (достоверность 3) [340FCDF6] (AR v1)
Копирование... OK
Трек 14
Имя файла R:\Раздача 26\VA - Heartrock - Rock Fur's Herz vol.3 (2CD)\CD2\14 I'd Love You To Want Me.wav
Длина предзазора 0:00:01.50
Пиковый уровень 99.0 %
Скорость извлечения 8.9 X
Качество трека 100.0 %
CRC теста D0DF8280
CRC копии D0DF8280
Точное извлечение (достоверность 3) [50192BA8] (AR v1)
Копирование... OK
Трек 15
Имя файла R:\Раздача 26\VA - Heartrock - Rock Fur's Herz vol.3 (2CD)\CD2\15 You Saved Me.wav
Длина предзазора 0:00:01.50
Пиковый уровень 86.1 %
Скорость извлечения 8.8 X
Качество трека 100.0 %
CRC теста 859ADE4B
CRC копии 859ADE4B
Точное извлечение (достоверность 3) [202A56CF] (AR v1)
Копирование... OK
Трек 16
Имя файла R:\Раздача 26\VA - Heartrock - Rock Fur's Herz vol.3 (2CD)\CD2\16 The One That You Love.wav
Длина предзазора 0:00:01.50
Пиковый уровень 88.2 %
Скорость извлечения 9.4 X
Качество трека 100.0 %
CRC теста B80A383E
CRC копии B80A383E
Точное извлечение (достоверность 3) [C7FD7223] (AR v1)
Копирование... OK
Трек 17
Имя файла R:\Раздача 26\VA - Heartrock - Rock Fur's Herz vol.3 (2CD)\CD2\17 Want To Know What Love Is.wav
Длина предзазора 0:00:00.50
Пиковый уровень 93.8 %
Скорость извлечения 9.8 X
Качество трека 100.0 %
CRC теста 15A4A80F
CRC копии 15A4A80F
Точное извлечение (достоверность 3) [12B51362] (AR v1)
Копирование... OK
Все треки извлечены точно
Ошибок не произошло
Конец отчёта
==== Контрольная сумма отчёта 1ABCC6647E2F507C2248C30530DDC4A6AC38D169BDA66A935FA65C8DEF8A3054 ====

Содержание индексной карты (.CUE)

REM GENRE "Pop - Rock"
REM DATE 1991
REM DISCID DE0FFE11
REM COMMENT "ExactAudioCopy v1.0b3"
PERFORMER "VA"
TITLE "Heartrock - Volume 3 - Rock Fur's Herz (CD2)"
FILE "01 Groovy Kind Of Love.wav" WAVE
TRACK 01 AUDIO
TITLE "Groovy Kind Of Love"
PERFORMER "Phil Collins"
PREGAP 00:00:33
INDEX 01 00:00:00
TRACK 02 AUDIO
TITLE "One More Try"
PERFORMER "Timmy T"
INDEX 00 03:29:30
FILE "02 One More Try.wav" WAVE
INDEX 01 00:00:00
TRACK 03 AUDIO
TITLE "To Love Somebody"
PERFORMER "Bee Gees"
INDEX 00 03:28:72
FILE "03 To Love Somebody.wav" WAVE
INDEX 01 00:00:00
TRACK 04 AUDIO
TITLE "It Must Have Been Love"
PERFORMER "Roxette"
INDEX 00 02:57:43
FILE "04 It Must Have Been Love.wav" WAVE
INDEX 01 00:00:00
TRACK 05 AUDIO
TITLE "More Than This"
PERFORMER "Roxy Music"
INDEX 00 04:16:10
FILE "05 More Than This.wav" WAVE
INDEX 01 00:00:00
TRACK 06 AUDIO
TITLE "Sharing The Night Together"
PERFORMER "Dr. Hook"
INDEX 00 04:13:72
FILE "06 Sharing The Night Together.wav" WAVE
INDEX 01 00:00:00
TRACK 07 AUDIO
TITLE "Heartbreaker"
PERFORMER "Dionne Warwick"
INDEX 00 02:52:23
FILE "07 Heartbreaker.wav" WAVE
INDEX 01 00:00:00
FILE "08 When The Children Cry.wav" WAVE
TRACK 08 AUDIO
TITLE "When The Children Cry"
PERFORMER "White Lion"
INDEX 01 00:00:00
TRACK 09 AUDIO
TITLE "Nights In White Satin"
PERFORMER "Moody Blues"
INDEX 00 04:19:58
FILE "09 Nights In White Satin.wav" WAVE
INDEX 01 00:00:00
TRACK 10 AUDIO
TITLE "Just The Way It Is, Baby"
PERFORMER "Rembrandts"
INDEX 00 04:24:40
FILE "10 Just The Way It Is, Baby.wav" WAVE
INDEX 01 00:00:00
TRACK 11 AUDIO
TITLE "Father And Son"
PERFORMER "Cat Stevens"
INDEX 00 04:04:65
FILE "11 Father And Son.wav" WAVE
INDEX 01 00:00:00
TRACK 12 AUDIO
TITLE "Love's Burn (Dancemix Radio Edit)"
PERFORMER "Karl Keaton"
INDEX 00 03:38:62
FILE "12 Love's Burn (Dancemix Radio Edit).wav" WAVE
INDEX 01 00:00:00
TRACK 13 AUDIO
TITLE "From A Distance"
PERFORMER "Bette Midler"
INDEX 00 04:31:08
FILE "13 From A Distance.wav" WAVE
INDEX 01 00:00:00
TRACK 14 AUDIO
TITLE "I'd Love You To Want Me"
PERFORMER "Lobo"
INDEX 00 04:34:52
FILE "14 I'd Love You To Want Me.wav" WAVE
INDEX 01 00:00:00
TRACK 15 AUDIO
TITLE "You Saved Me"
PERFORMER "Mike Linney"
INDEX 00 03:55:65
FILE "15 You Saved Me.wav" WAVE
INDEX 01 00:00:00
TRACK 16 AUDIO
TITLE "The One That You Love"
PERFORMER "Air Supply"
INDEX 00 03:31:50
FILE "16 The One That You Love.wav" WAVE
INDEX 01 00:00:00
TRACK 17 AUDIO
TITLE "Want To Know What Love Is"
PERFORMER "Foreigner"
INDEX 00 04:15:28
FILE "17 Want To Know What Love Is.wav" WAVE
INDEX 01 00:00:00

CD2

01. Phil Collins / Groovy Kind Of Love [0:03:31.05]
02. Timmy T / One More Try [0:03:30.47]
03. Bee Gees / To Love Somebody [0:02:59.18]
04. Roxette / It Must Have Been Love [0:04:17.60]
05. Roxy Music / More Than This [0:04:15.47]
06. Dr. Hook / Sharing The Night Together [0:02:53.73]
07. Dionne Warwick / Heartbreaker [0:04:15.57]
08. White Lion / When The Children Cry [0:04:21.33]
09. Moody Blues / Nights In White Satin [0:04:26.15]
10. Rembrandts / Just The Way It Is, Baby [0:04:05.40]
11. Cat Stevens / Father And Son [0:03:40.37]
12. Karl Keaton / Love's Burn (Dancemix Radio Edit) [0:04:31.58]
13. Bette Midler / From A Distance [0:04:36.27]
14. Lobo / I'd Love You To Want Me [0:03:57.40]
15. Mike Linney / You Saved Me [0:03:33.25]
16. Air Supply / The One That You Love [0:04:16.03]
17. Foreigner / Want To Know What Love Is [0:05:01.15]

Лог создания рипа

Exact Audio Copy V1.0 beta 3 from 29. August 2011
Отчёт EAC об извлечении, выполненном 22. октября 2014, 20:24
VA / Heartrock - Volume 3 - Rock Fur's Herz (CD2)
Дисковод: ASUS DRW-1814BLT Adapter: 4 ID: 0
Режим чтения : Достоверность
Использование точного потока : Да
Отключение кэша аудио : Да
Использование указателей C2 : Нет
Коррекция смещения при чтении : 6
Способность читать области Lead-in и Lead-out : Нет
Заполнение пропущенных сэмплов тишиной : Да
Удаление блоков с тишиной в начале и конце : Нет
При вычислениях CRC использовались нулевые сэмплы : Да
Интерфейс : Встроенный Win32-интерфейс для Win NT/2000
Обработка зазоров : Добавлено к предыдущему треку
Выходной формат : Пользовательский кодировщик
Выбранный битрейт : 128 kBit/s
Качество : Высокий
Добавление ID3-тега : Нет
Утилита сжатия : C:\Program Files\Exact Audio Copy\Flac\flac.exe
Дополнительные параметры : -V -8 -T "Genre=%genre%" -T "Artist=%artist%" -T "Title=%title%" -T "Album=%albumtitle%" -T "Date=%year%" -T "Tracknumber=%tracknr%" -T "Comment=EAC1.0b2 FLAC -8" %source%
TOC извлечённого CD
Трек | Старт | Длительность | Начальный сектор | Конечный сектор
---------------------------------------------------------------------
1 | 0:00.33 | 3:31.05 | 33 | 15862
2 | 3:31.38 | 3:30.47 | 15863 | 31659
3 | 7:02.10 | 2:59.18 | 31660 | 45102
4 | 10:01.28 | 4:17.60 | 45103 | 64437
5 | 14:19.13 | 4:15.47 | 64438 | 83609
6 | 18:34.60 | 2:53.73 | 83610 | 96657
7 | 21:28.58 | 4:15.57 | 96658 | 115839
8 | 25:44.40 | 4:21.33 | 115840 | 135447
9 | 30:05.73 | 4:26.15 | 135448 | 155412
10 | 34:32.13 | 4:05.40 | 155413 | 173827
11 | 38:37.53 | 3:40.37 | 173828 | 190364
12 | 42:18.15 | 4:31.58 | 190365 | 210747
13 | 46:49.73 | 4:36.27 | 210748 | 231474
14 | 51:26.25 | 3:57.40 | 231475 | 249289
15 | 55:23.65 | 3:33.25 | 249290 | 265289
16 | 58:57.15 | 4:16.03 | 265290 | 284492
17 | 63:13.18 | 5:01.15 | 284493 | 307082
Трек 1
Имя файла R:\Раздача 26\VA - Heartrock - Rock Fur's Herz vol.3 (2CD)\CD2\01 Groovy Kind Of Love.wav
Длина предзазора 0:00:02.33
Пиковый уровень 92.5 %
Скорость извлечения 4.7 X
Качество трека 100.0 %
CRC теста F74BA424
CRC копии F74BA424
Точное извлечение (достоверность 3) [F6CB9224] (AR v1)
Копирование... OK
Трек 2
Имя файла R:\Раздача 26\VA - Heartrock - Rock Fur's Herz vol.3 (2CD)\CD2\02 One More Try.wav
Длина предзазора 0:00:01.50
Пиковый уровень 87.8 %
Скорость извлечения 5.1 X
Качество трека 100.0 %
CRC теста 868B08A9
CRC копии 868B08A9
Точное извлечение (достоверность 3) [3A4E72C2] (AR v1)
Копирование... OK
Трек 3
Имя файла R:\Раздача 26\VA - Heartrock - Rock Fur's Herz vol.3 (2CD)\CD2\03 To Love Somebody.wav
Длина предзазора 0:00:01.50
Пиковый уровень 78.6 %
Скорость извлечения 5.3 X
Качество трека 100.0 %
CRC теста 60DD16AC
CRC копии 60DD16AC
Точное извлечение (достоверность 3) [F1603747] (AR v1)
Копирование... OK
Трек 4
Имя файла R:\Раздача 26\VA - Heartrock - Rock Fur's Herz vol.3 (2CD)\CD2\04 It Must Have Been Love.wav
Длина предзазора 0:00:01.50
Пиковый уровень 90.3 %
Скорость извлечения 6.0 X
Качество трека 100.0 %
CRC теста 48BDD158
CRC копии 48BDD158
Точное извлечение (достоверность 3) [50FE68BE] (AR v1)
Копирование... OK
Трек 5
Имя файла R:\Раздача 26\VA - Heartrock - Rock Fur's Herz vol.3 (2CD)\CD2\05 More Than This.wav
Длина предзазора 0:00:01.50
Пиковый уровень 99.0 %
Скорость извлечения 4.5 X
Качество трека 99.9 %
CRC теста AA0E112D
CRC копии AA0E112D
Точное извлечение (достоверность 3) [2E08E2C8] (AR v1)
Копирование... OK
Трек 6
Имя файла R:\Раздача 26\VA - Heartrock - Rock Fur's Herz vol.3 (2CD)\CD2\06 Sharing The Night Together.wav
Длина предзазора 0:00:01.50
Пиковый уровень 99.0 %
Скорость извлечения 4.3 X
Качество трека 99.9 %
CRC теста 8A70F27C
CRC копии 8A70F27C
Точное извлечение (достоверность 3) [972EB671] (AR v1)
Копирование... OK
Трек 7
Имя файла R:\Раздача 26\VA - Heartrock - Rock Fur's Herz vol.3 (2CD)\CD2\07 Heartbreaker.wav
Длина предзазора 0:00:01.50
Пиковый уровень 99.0 %
Скорость извлечения 6.9 X
Качество трека 100.0 %
CRC теста BC420FD8
CRC копии BC420FD8
Точное извлечение (достоверность 3) [148DD4D0] (AR v1)
Копирование... OK
Трек 8
Имя файла R:\Раздача 26\VA - Heartrock - Rock Fur's Herz vol.3 (2CD)\CD2\08 When The Children Cry.wav
Пиковый уровень 99.0 %
Скорость извлечения 7.3 X
Качество трека 100.0 %
CRC теста E095B1E6
CRC копии E095B1E6
Точное извлечение (достоверность 3) [AB777764] (AR v1)
Копирование... OK
Трек 9
Имя файла R:\Раздача 26\VA - Heartrock - Rock Fur's Herz vol.3 (2CD)\CD2\09 Nights In White Satin.wav
Длина предзазора 0:00:01.50
Пиковый уровень 99.0 %
Скорость извлечения 7.6 X
Качество трека 100.0 %
CRC теста DC66E072
CRC копии DC66E072
Точное извлечение (достоверность 3) [D37FB0FC] (AR v1)
Копирование... OK
Трек 10
Имя файла R:\Раздача 26\VA - Heartrock - Rock Fur's Herz vol.3 (2CD)\CD2\10 Just The Way It Is, Baby.wav
Длина предзазора 0:00:01.50
Пиковый уровень 99.0 %
Скорость извлечения 7.9 X
Качество трека 100.0 %
CRC теста 9F5D37B8
CRC копии 9F5D37B8
Точное извлечение (достоверность 3) [D754DE86] (AR v1)
Копирование... OK
Трек 11
Имя файла R:\Раздача 26\VA - Heartrock - Rock Fur's Herz vol.3 (2CD)\CD2\11 Father And Son.wav
Длина предзазора 0:00:00.50
Пиковый уровень 99.0 %
Скорость извлечения 7.9 X
Качество трека 100.0 %
CRC теста 4C18ABAD
CRC копии 4C18ABAD
Точное извлечение (достоверность 3) [A4673D32] (AR v1)
Копирование... OK
Трек 12
Имя файла R:\Раздача 26\VA - Heartrock - Rock Fur's Herz vol.3 (2CD)\CD2\12 Love's Burn (Dancemix Radio Edit).wav
Длина предзазора 0:00:01.50
Пиковый уровень 88.2 %
Скорость извлечения 8.5 X
Качество трека 100.0 %
CRC теста B977E304
CRC копии B977E304
Точное извлечение (достоверность 3) [D86A9BF9] (AR v1)
Копирование... OK
Трек 13
Имя файла R:\Раздача 26\VA - Heartrock - Rock Fur's Herz vol.3 (2CD)\CD2\13 From A Distance.wav
Длина предзазора 0:00:00.50
Пиковый уровень 99.0 %
Скорость извлечения 8.8 X
Качество трека 100.0 %
CRC теста 0EA68940
CRC копии 0EA68940
Точное извлечение (достоверность 3) [340FCDF6] (AR v1)
Копирование... OK
Трек 14
Имя файла R:\Раздача 26\VA - Heartrock - Rock Fur's Herz vol.3 (2CD)\CD2\14 I'd Love You To Want Me.wav
Длина предзазора 0:00:01.50
Пиковый уровень 99.0 %
Скорость извлечения 8.9 X
Качество трека 100.0 %
CRC теста D0DF8280
CRC копии D0DF8280
Точное извлечение (достоверность 3) [50192BA8] (AR v1)
Копирование... OK
Трек 15
Имя файла R:\Раздача 26\VA - Heartrock - Rock Fur's Herz vol.3 (2CD)\CD2\15 You Saved Me.wav
Длина предзазора 0:00:01.50
Пиковый уровень 86.1 %
Скорость извлечения 8.8 X
Качество трека 100.0 %
CRC теста 859ADE4B
CRC копии 859ADE4B
Точное извлечение (достоверность 3) [202A56CF] (AR v1)
Копирование... OK
Трек 16
Имя файла R:\Раздача 26\VA - Heartrock - Rock Fur's Herz vol.3 (2CD)\CD2\16 The One That You Love.wav
Длина предзазора 0:00:01.50
Пиковый уровень 88.2 %
Скорость извлечения 9.4 X
Качество трека 100.0 %
CRC теста B80A383E
CRC копии B80A383E
Точное извлечение (достоверность 3) [C7FD7223] (AR v1)
Копирование... OK
Трек 17
Имя файла R:\Раздача 26\VA - Heartrock - Rock Fur's Herz vol.3 (2CD)\CD2\17 Want To Know What Love Is.wav
Длина предзазора 0:00:00.50
Пиковый уровень 93.8 %
Скорость извлечения 9.8 X
Качество трека 100.0 %
CRC теста 15A4A80F
CRC копии 15A4A80F
Точное извлечение (достоверность 3) [12B51362] (AR v1)
Копирование... OK
Все треки извлечены точно
Ошибок не произошло
Конец отчёта
==== Контрольная сумма отчёта 1ABCC6647E2F507C2248C30530DDC4A6AC38D169BDA66A935FA65C8DEF8A3054 ====

Содержание индексной карты (.CUE)

REM GENRE "Pop - Rock"
REM DATE 1991
REM DISCID DE0FFE11
REM COMMENT "ExactAudioCopy v1.0b3"
PERFORMER "VA"
TITLE "Heartrock - Volume 3 - Rock Fur's Herz (CD2)"
FILE "01 Groovy Kind Of Love.wav" WAVE
TRACK 01 AUDIO
TITLE "Groovy Kind Of Love"
PERFORMER "Phil Collins"
PREGAP 00:00:33
INDEX 01 00:00:00
TRACK 02 AUDIO
TITLE "One More Try"
PERFORMER "Timmy T"
INDEX 00 03:29:30
FILE "02 One More Try.wav" WAVE
INDEX 01 00:00:00
TRACK 03 AUDIO
TITLE "To Love Somebody"
PERFORMER "Bee Gees"
INDEX 00 03:28:72
FILE "03 To Love Somebody.wav" WAVE
INDEX 01 00:00:00
TRACK 04 AUDIO
TITLE "It Must Have Been Love"
PERFORMER "Roxette"
INDEX 00 02:57:43
FILE "04 It Must Have Been Love.wav" WAVE
INDEX 01 00:00:00
TRACK 05 AUDIO
TITLE "More Than This"
PERFORMER "Roxy Music"
INDEX 00 04:16:10
FILE "05 More Than This.wav" WAVE
INDEX 01 00:00:00
TRACK 06 AUDIO
TITLE "Sharing The Night Together"
PERFORMER "Dr. Hook"
INDEX 00 04:13:72
FILE "06 Sharing The Night Together.wav" WAVE
INDEX 01 00:00:00
TRACK 07 AUDIO
TITLE "Heartbreaker"
PERFORMER "Dionne Warwick"
INDEX 00 02:52:23
FILE "07 Heartbreaker.wav" WAVE
INDEX 01 00:00:00
FILE "08 When The Children Cry.wav" WAVE
TRACK 08 AUDIO
TITLE "When The Children Cry"
PERFORMER "White Lion"
INDEX 01 00:00:00
TRACK 09 AUDIO
TITLE "Nights In White Satin"
PERFORMER "Moody Blues"
INDEX 00 04:19:58
FILE "09 Nights In White Satin.wav" WAVE
INDEX 01 00:00:00
TRACK 10 AUDIO
TITLE "Just The Way It Is, Baby"
PERFORMER "Rembrandts"
INDEX 00 04:24:40
FILE "10 Just The Way It Is, Baby.wav" WAVE
INDEX 01 00:00:00
TRACK 11 AUDIO
TITLE "Father And Son"
PERFORMER "Cat Stevens"
INDEX 00 04:04:65
FILE "11 Father And Son.wav" WAVE
INDEX 01 00:00:00
TRACK 12 AUDIO
TITLE "Love's Burn (Dancemix Radio Edit)"
PERFORMER "Karl Keaton"
INDEX 00 03:38:62
FILE "12 Love's Burn (Dancemix Radio Edit).wav" WAVE
INDEX 01 00:00:00
TRACK 13 AUDIO
TITLE "From A Distance"
PERFORMER "Bette Midler"
INDEX 00 04:31:08
FILE "13 From A Distance.wav" WAVE
INDEX 01 00:00:00
TRACK 14 AUDIO
TITLE "I'd Love You To Want Me"
PERFORMER "Lobo"
INDEX 00 04:34:52
FILE "14 I'd Love You To Want Me.wav" WAVE
INDEX 01 00:00:00
TRACK 15 AUDIO
TITLE "You Saved Me"
PERFORMER "Mike Linney"
INDEX 00 03:55:65
FILE "15 You Saved Me.wav" WAVE
INDEX 01 00:00:00
TRACK 16 AUDIO
TITLE "The One That You Love"
PERFORMER "Air Supply"
INDEX 00 03:31:50
FILE "16 The One That You Love.wav" WAVE
INDEX 01 00:00:00
TRACK 17 AUDIO
TITLE "Want To Know What Love Is"
PERFORMER "Foreigner"
INDEX 00 04:15:28
FILE "17 Want To Know What Love Is.wav" WAVE
INDEX 01 00:00:00

To download the file disable ad blocking, and reload the page.

disable adblock How to disable ad blocking?

Download by magnet link 815 MB Download Torrent

Login using:

Similar topics

(Psytrance) Hyriderz - The Therapist - 2018, MP3, 320 kbps
 34 MB   0 | 0   09-May-18 12:10   1
(Hard Rock / AOR) EverLevel - Hardwork - 2018, MP3, 320 kbps
 184 MB   0 | 0   18-Mar-18 12:30   2


   
Current time is: 15-Nov 23:50 :: All times are UTC + 3