VA - Foreigner Tribute (2001)
Жанр: Melodic Hard Rock / AOR
Страна-производитель диска: UK
Год издания: 2001
Издатель (лейбл): Escape Music
Номер по каталогу: ESM061
Страна исполнителя (группы): International
Аудиокодек: FLAC (*.flac)
Тип рипа: image+.cue
Битрейт аудио: lossless
Продолжительность: 50:22
Источник (релизер): собственный рип
Наличие сканов в содержимом раздачи: да
Треклист:
1. Rev on the Red Line (vocals Darcy Deutsch) - 3:28
2. Cold as Ice (vocals Chris Ousey) - 3:16
3. Waiting for a Girl Like You (vocals Robert Berry) - 4:40
4. Double Vision (vocals Troy Reid) - 3:35
5. Feels Like the First Time (vocals Dave Baldwin) - 4:12
6. Urgent (vocals Alan Clark) - 4:30
7. Hot Blooded (vocals John Pratt) - 4:38
8. Head Games (vocals Ray Roper) - 3:41
9. That Was Yesterday (vocals Darcy Deutsch) - 3:56
10. I Don't Want to Live Without You (vocals Alistair Gordon) - 4:59
11. Prisoner of Love (vocals Chris Ousey & Troy Reid) - 5:42
12. Dirty White Boy (vocals Tracy White) - 3:39

Лог создания рипа

Exact Audio Copy V1.0 beta 3 from 29. August 2011
EAC extraction logfile from 18. October 2014, 11:49
Various Artists / Foreigner Tribute
Used drive : SlimtypeDVD A DS8A5SH Adapter: 0 ID: 1
Read mode : Secure
Utilize accurate stream : Yes
Defeat audio cache : Yes
Make use of C2 pointers : No
Read offset correction : 6
Overread into Lead-In and Lead-Out : No
Fill up missing offset samples with silence : Yes
Delete leading and trailing silent blocks : No
Null samples used in CRC calculations : Yes
Used interface : Native Win32 interface for Win NT & 2000
Used output format : User Defined Encoder
Selected bitrate : 320 kBit/s
Quality : High
Add ID3 tag : No
Command line compressor : C:\Program Files (x86)\Exact Audio Copy\Flac\flac.exe
Additional command line options : -V -8 -T "Date=%year%" -T "Genre=%genre%" %source%
TOC of the extracted CD
Track | Start | Length | Start sector | End sector
---------------------------------------------------------
1 | 0:00.00 | 3:28.00 | 0 | 15599
2 | 3:28.00 | 3:16.63 | 15600 | 30362
3 | 6:44.63 | 4:40.35 | 30363 | 51397
4 | 11:25.23 | 3:35.55 | 51398 | 67577
5 | 15:01.03 | 4:12.20 | 67578 | 86497
6 | 19:13.23 | 4:30.03 | 86498 | 106750
7 | 23:43.26 | 4:38.46 | 106751 | 127646
8 | 28:21.72 | 3:41.64 | 127647 | 144285
9 | 32:03.61 | 3:56.72 | 144286 | 162057
10 | 36:00.58 | 4:59.21 | 162058 | 184503
11 | 41:00.04 | 5:42.28 | 184504 | 210181
12 | 46:42.32 | 3:39.47 | 210182 | 226653
Range status and errors
Selected range
Filename D:\My Music\VA - 2001 Foreigner Tribute\Various Artists - Foreigner Tribute.wav
Peak level 98.8 %
Extraction speed 1.9 X
Range quality 100.0 %
Test CRC 992F6825
Copy CRC 992F6825
Copy OK
No errors occurred
AccurateRip summary
Track 1 accurately ripped (confidence 4) [1443274F] (AR v2)
Track 2 accurately ripped (confidence 4) [3A838E72] (AR v2)
Track 3 accurately ripped (confidence 4) [50D0EC58] (AR v2)
Track 4 accurately ripped (confidence 4) [82576DB1] (AR v2)
Track 5 accurately ripped (confidence 4) [C2C2067E] (AR v2)
Track 6 accurately ripped (confidence 4) [339737C3] (AR v2)
Track 7 accurately ripped (confidence 4) [B37B7F41] (AR v2)
Track 8 accurately ripped (confidence 4) [D614B17E] (AR v2)
Track 9 accurately ripped (confidence 4) [6513D28F] (AR v2)
Track 10 accurately ripped (confidence 4) [9B1E7930] (AR v2)
Track 11 accurately ripped (confidence 4) [61F04894] (AR v2)
Track 12 accurately ripped (confidence 4) [E1274ADA] (AR v2)
All tracks accurately ripped
End of status report
==== Log checksum 9EEB61F9F0539E03AC4DB07715CE342AABD1CA20BEE829AB3F300D89212B4B1F ====

Состав

Steve Morris (Heartland) - guitars
Tim Hewitt (Heartland) - bass
Bob Kurzreiter (The Distance) - drums
Dave Chapman (Change Of Heart) - keyboards
Mike Walsh (Departure) - hammond/brass
additional musicians:
Kenny Kaos (The Distance) - guitars on track 1
Scott Smith (Loverboy) bass on track 4
Frank Baker (Trooper) - drums on track 4
Bernnie Aubin (Headpins) - drums on track 9
Darcy Deutsch (Pokerface) - lead backing vocals on tracks 1 & 9
Chris Ousey (Heartland) - lead backing vocals on tracks 2 & 11
Robert Berry (Alliance) - lead backing vocals on track 3
Troy Reid (Stranded) - lead backing vocals on tracks 4 & 11
Dave Baldwin (Departure) - lead backing vocals on track 5
Alan Clark (Change Of Heart) - lead backing vocals on track 6
John Pratt (Firefly) - lead backing vocals on track 7
Ray Roper (Stonebolt) - lead backing vocals on track 8
Alistair Gordon (Radio Silence) - lead backing vocals on track 10
Tracy White (Intruder) - lead backing vocals on track 12

To download the file disable ad blocking, and reload the page.

disable adblock How to disable ad blocking?

Download by magnet link 399 MB Download Torrent

Login using:

Similar topics

(Melodic Hard Rock | AOR) Dallas - Dallas - 2018, MP3, 320 kbps
 103 MB   0 | 0   30-Oct-18 12:00   3


   
Current time is: 15-Nov 23:38 :: All times are UTC + 3