VA - The Boys Are Back - A Tribute To Thin Lizzy (2000)
Жанр: Hard Rock
Страна-производитель диска: USA
Год издания: 2000
Издатель (лейбл): Deadline Records
Номер по каталогу: CLP0878-2
Страна исполнителя (группы): USA / UK
Аудиокодек: FLAC (*.flac)
Тип рипа: image+.cue
Битрейт аудио: lossless
Продолжительность: 54:16
Источник (релизер): собственный рип
Наличие сканов в содержимом раздачи: да
Треклист:
1. The Boys Are Back in Town (vocals Steve Grimmett) - 4:45
2. Jailbreak (vocals Steve Grimmett) - 4:00
3. Killer On The Loose (vocals Steve Grimmett) - 3:55
4. Sarah (vocals Steve Overland) - 3:20
5. Don't Believe A World (vocals Lea Hart) - 2:20
6. Cowboy Song (vocals Steve Grimmett) - 5:25
7. Out In The Fields (vocals Gary Barden & Steve Overland) - 4:05
8. Dancing in the Moonlight (vocals Steve Overland) - 3:43
9. Wiskey In The Jar (vocals Steve Overland) - 5:49
10. Rosalie (vocals Nicky Moore) - 3:56
11. Chinatown (vocals Bernie Shaw) - 4:45
12. Waiting for an Alibi (vocals Steve Overland) - 4:03
13. Emerald (vocals Doogie White) - 4:10

Лог создания рипа

Exact Audio Copy V1.0 beta 3 from 29. August 2011
EAC extraction logfile from 17. October 2014, 21:53
Various Artists / The Boys Are Back - A Tribute To Thin Lizzy
Used drive : SlimtypeDVD A DS8A5SH Adapter: 0 ID: 1
Read mode : Secure
Utilize accurate stream : Yes
Defeat audio cache : Yes
Make use of C2 pointers : No
Read offset correction : 6
Overread into Lead-In and Lead-Out : No
Fill up missing offset samples with silence : Yes
Delete leading and trailing silent blocks : No
Null samples used in CRC calculations : Yes
Used interface : Native Win32 interface for Win NT & 2000
Used output format : User Defined Encoder
Selected bitrate : 320 kBit/s
Quality : High
Add ID3 tag : No
Command line compressor : C:\Program Files (x86)\Exact Audio Copy\Flac\flac.exe
Additional command line options : -V -8 -T "Date=%year%" -T "Genre=%genre%" %source%
TOC of the extracted CD
Track | Start | Length | Start sector | End sector
---------------------------------------------------------
1 | 0:00.00 | 4:44.61 | 0 | 21360
2 | 4:44.61 | 4:00.16 | 21361 | 39376
3 | 8:45.02 | 3:54.69 | 39377 | 56995
4 | 12:39.71 | 3:20.28 | 56996 | 72023
5 | 16:00.24 | 2:19.45 | 72024 | 82493
6 | 18:19.69 | 5:25.23 | 82494 | 106891
7 | 23:45.17 | 4:04.70 | 106892 | 125261
8 | 27:50.12 | 3:42.56 | 125262 | 141967
9 | 31:32.68 | 5:49.37 | 141968 | 168179
10 | 37:22.30 | 3:56.19 | 168180 | 185898
11 | 41:18.49 | 4:44.42 | 185899 | 207240
12 | 46:03.16 | 4:03.37 | 207241 | 225502
13 | 50:06.53 | 4:09.57 | 225503 | 244234
Range status and errors
Selected range
Filename D:\My Music\VA - 2000 The Boys Are Back In Town - A Tribute To Thin Lizzy\Various Artists - The Boys Are Back - A Tribute To Thin Lizzy.wav
Peak level 100.0 %
Extraction speed 1.9 X
Range quality 100.0 %
Test CRC 6425D8CB
Copy CRC 6425D8CB
Copy OK
No errors occurred
AccurateRip summary
Track 1 accurately ripped (confidence 3) [A4C0AE90] (AR v2)
Track 2 accurately ripped (confidence 3) [1253DDF4] (AR v2)
Track 3 accurately ripped (confidence 3) [5EE626DE] (AR v2)
Track 4 accurately ripped (confidence 3) [75B43202] (AR v2)
Track 5 accurately ripped (confidence 3) [BF7F76DC] (AR v2)
Track 6 accurately ripped (confidence 3) [E4F74909] (AR v2)
Track 7 accurately ripped (confidence 3) [0D89A34B] (AR v2)
Track 8 accurately ripped (confidence 3) [448BBC5C] (AR v2)
Track 9 accurately ripped (confidence 3) [BF420800] (AR v2)
Track 10 accurately ripped (confidence 3) [A5CC0FC9] (AR v2)
Track 11 accurately ripped (confidence 3) [37391EAC] (AR v2)
Track 12 accurately ripped (confidence 3) [1C57AD3B] (AR v2)
Track 13 accurately ripped (confidence 3) [8604A89F] (AR v2)
All tracks accurately ripped
End of status report
==== Log checksum 97566B411DE15BDB879E233A7749F5981D5D6E368DF705B2E80C042EF3C40883 ====

Состав

Ray Callcut - guitars on tracks 1-5, 7-10
Lea Hart (Fastway) - guitars on tracks 1-3, 5, 7, 9, lead vocals on track 5
Bill Liesengang (Nina Hagen) - guitars on tracks 4, 7-10
Steve Parry - guitars on tracks 6, 11-13
Pete Frierson - guitars on track 11
Phil Campbell (Motorhead) - guitars on track 13
Ian Nash (Grim Reaper) - guitars on tracks 6 & 12
Andy Barnett (FM) - guitars on tracks 5 & 8, 12 ,13
Pete Jupp (FM) - drums on all tracks
Jem Davis (FM) - keyboards on track 7
Merv Goldsworthy (FM) - bass on tracks 1-3, 7, 9, 10, 12
Bob Skeat (Wishbone Ash) - bass on tracks 4, 6, 8, 13
Rick Wills (Foreigner) - bass on track 5
Neil Murray (Whitesnake) - bass on track 11
Steve Grimmett (Gream Reaper) - lead & backing vocals on tracks 1-3, 6
Steve Overland (FM) - lead & backing vocals on tracks 4, 7-9, 12
Gary Barden (M.S.G) - lead & backing vocals on track 7
Nicky Moore (Samson) - lead & backing vocals on track 9
Bernie Shaw (Uriah Heep) - lead & backing vocals on track 11
Doogie White (Rainbow) - lead & backing vocals on track 13

To download the file disable ad blocking, and reload the page.

disable adblock How to disable ad blocking?

Download by magnet link 437 MB Download Torrent

Login using:

Similar topics

(Hard Rock/Alternative) The Rewind - Casting Shadows - 2017, MP3, 320 kbps
 109 MB   0 | 0   30-Aug-17 10:10   0
(Hard Rock) Release The Hounds - Fret Rattle - 2017, MP3, 320 kbps
 92 MB   0 | 0   28-Aug-17 11:40   0
(Hard Rock) The New Roses - Collection - 2013-2017 (3 CD) MP3, 320 kbps
 357 MB   0 | 0   27-Aug-17 11:00   1
(Hard Rock) Threatin - Breaking The World - 2017, MP3, 320 kbps
 102 MB   0 | 0   25-Aug-17 09:40   0


   
Current time is: 20-Nov 14:27 :: All times are UTC + 3