V/A - Tribute To Boston (2002)
Жанр: Melodic Rock / AOR
Страна-производитель диска: Japan
Год издания: 2002
Издатель (лейбл): Avalon Marquee
Номер по каталогу: MICP-10327
Страна исполнителя (группы): International
Аудиокодек: FLAC (*.flac)
Тип рипа: image+.cue
Битрейт аудио: lossless
Продолжительность: 63:11
Источник (релизер): собственный рип
Наличие сканов в содержимом раздачи: да
Треклист:
1. More Than A Feeling (vocals Peter Sundell) - 5:32
2. It's Easy (vocals Terry Brock) - 4:29
3. Peace of Mind (vocals Peter Sundell) - 4:59
4. Amanda (vocals Steve Overland) - 4:15
5. Somethin' About You (vocals Tony O'Hora) - 3:41
6. Cool the Engines (vocals Chris Ousey) - 4:21
7. Don't Look Back (vocals Sean Harris & Peter Sundell) - 6:07
8. Can'tcha Say (vocals Timmy Lewis) - 4:59
9. Hitch a Ride (vocals Sean Harris) - 4:07
10. Rock 'n' Roll Band (vocals Terry Brock) - 3:15
11. Smokin' (vocals Tony O'Hora) - 4:39
12. A Man I'll Never Be (vocals Chris Ousey) - 6:09
13. Long Time (vocals Steve Overland) - 6:10

Лог создания рипа

Exact Audio Copy V1.0 beta 3 from 29. August 2011
EAC extraction logfile from 17. October 2014, 22:44
Various Artists / Tribute To Boston
Used drive : SlimtypeDVD A DS8A5SH Adapter: 0 ID: 1
Read mode : Secure
Utilize accurate stream : Yes
Defeat audio cache : Yes
Make use of C2 pointers : No
Read offset correction : 6
Overread into Lead-In and Lead-Out : No
Fill up missing offset samples with silence : Yes
Delete leading and trailing silent blocks : No
Null samples used in CRC calculations : Yes
Used interface : Native Win32 interface for Win NT & 2000
Used output format : User Defined Encoder
Selected bitrate : 320 kBit/s
Quality : High
Add ID3 tag : No
Command line compressor : C:\Program Files (x86)\Exact Audio Copy\Flac\flac.exe
Additional command line options : -V -8 -T "Date=%year%" -T "Genre=%genre%" %source%
TOC of the extracted CD
Track | Start | Length | Start sector | End sector
---------------------------------------------------------
1 | 0:00.00 | 5:34.50 | 0 | 25099
2 | 5:34.50 | 4:31.31 | 25100 | 45455
3 | 10:06.06 | 5:01.31 | 45456 | 68061
4 | 15:07.37 | 4:17.74 | 68062 | 87410
5 | 19:25.36 | 3:43.37 | 87411 | 104172
6 | 23:08.73 | 4:23.09 | 104173 | 123906
7 | 27:32.07 | 6:09.60 | 123907 | 151641
8 | 33:41.67 | 5:01.20 | 151642 | 174236
9 | 38:43.12 | 4:09.71 | 174237 | 192982
10 | 42:53.08 | 3:17.38 | 192983 | 207795
11 | 46:10.46 | 4:41.23 | 207796 | 228893
12 | 50:51.69 | 6:09.22 | 228894 | 256590
13 | 57:01.16 | 6:10.00 | 256591 | 284340
Range status and errors
Selected range
Filename D:\My Music\VA - 2002 Tribute To Boston\Various Artists - Tribute To Boston.wav
Peak level 100.0 %
Extraction speed 2.0 X
Range quality 100.0 %
Test CRC 8A73AB12
Copy CRC 8A73AB12
Copy OK
No errors occurred
AccurateRip summary
Track 1 accurately ripped (confidence 2) [1ADFBE8C] (AR v2)
Track 2 accurately ripped (confidence 2) [531BCDDF] (AR v2)
Track 3 accurately ripped (confidence 2) [84D6CF2C] (AR v2)
Track 4 accurately ripped (confidence 2) [AE1D9DA0] (AR v2)
Track 5 accurately ripped (confidence 2) [80918C6A] (AR v2)
Track 6 accurately ripped (confidence 2) [32905408] (AR v2)
Track 7 accurately ripped (confidence 2) [E6FD040E] (AR v2)
Track 8 accurately ripped (confidence 2) [1A353F7B] (AR v2)
Track 9 accurately ripped (confidence 2) [9126B946] (AR v2)
Track 10 accurately ripped (confidence 2) [B689E0C7] (AR v2)
Track 11 accurately ripped (confidence 2) [177F41E1] (AR v2)
Track 12 accurately ripped (confidence 2) [78A96C82] (AR v2)
Track 13 accurately ripped (confidence 2) [E5385519] (AR v2)
All tracks accurately ripped
End of status report
==== Log checksum 21101E56ACB5BBC77C828CD7EE4F55475E0AD22807831124B0EC7FC64B8F7891 ====

Состав

Steve Morris (Heartland, Ian Gillan) - guitars
Frank Baker (Trooper) - drums
Tim Hewitt (Trooper) - bass
Don Airey (Rainbow, Deep Purple) - keyboards
additional musicians:
Peter Sundell (Grand Illusion) - vocals on 1, 3, 7
Ronnie Le Tekro (TNT) - outro guitar solo on 1
Terry Brock (Strangeways) - vocals on 2, 10
Vinnie Burns (Ten, Three Lions) - guitar solo on 3, 10
Steve Overland (FM, Shadowman) - vocals on 4, 13
Dave Chapman - keyboards on 4
Tony O'Hora (Praying Mantis) - vocals on 5, 11
Chris Ousey (Heartland) - vocals on 6, 12
Tommy Denander (Radioactive) - guitar solo on 6, 7
Sean Harris (Diamond Head) - vocals on 7, 9
Timmy Lewis (Departure) - vocals on 8
Boston - Дискография 1976-2013, FLAC (image+.cue), lossless

To download the file disable ad blocking, and reload the page.

disable adblock How to disable ad blocking?

Download by magnet link 495 MB Download Torrent

Login using:

Similar topics



   
Current time is: 23-Sep 16:32 :: All times are UTC ± 0