Heartrock - Rock fur's Herz Vol.2 (2CD)
Жанр: Heart Rock
Страна-производитель диска: Germany
Год издания: 1990
Издатель (лейбл): BMG Ariola Munchen GmbH
Номер по каталогу: 353957
Аудиокодек: FLAC (*.flac)
Тип рипа: tracks+.cue
Битрейт аудио: lossless
Продолжительность: 1:11:28. + 1:11:47.
Источник (релизер): clustert
Наличие сканов в содержимом раздачи: да

CD1

01. Cat Stevens / Morning Has Broken [0:03:17.00]
02. Milli Vanilli / Girl Im Gonna Miss You [0:04:27.00]
03. Lionel Richie / Say You, Say Me [0:04:03.00]
04. The Righteous Brothers / Youve Lost That Lovin Feelin [0:03:43.00]
05. Genesis / In Too Deep [0:04:59.72]
06. Chris Rea / Fool (If You Think Its Over) [0:04:04.70]
07. Leo Sayer / Have You Ever Been In Love [0:03:47.00]
08. Rod Stewart / Tonights The Night [0:03:33.68]
09. Nazareth / Dream On [0:03:25.72]
10. Barry Manilow / Mandy [0:03:31.70]
11. Tina Turner / I Dont Wanna Lose You [0:04:17.00]
12. Joe Cocker & Jennifer Warnes / Up Where We Belong [0:03:51.73]
13. Commodores / Three Times A Lady [0:03:39.00]
14. Linda Ronstadt & Aaron Neville / Dont Know Much [0:03:34.70]
15. Christopher Cross / Sailing [0:04:17.00]
16. Randy Vanwarmer / Just When I Needed You Most [0:04:00.72]
17. Alvin Stardust / I Feel Like Buddy Holly [0:04:01.73]
18. Scorpions / Still Loving You [0:04:52.15]

Лог создания рипа

Exact Audio Copy V1.0 beta 3 from 29. August 2011
Отчёт EAC об извлечении, выполненном 6. октября 2014, 18:16
VA / Heart Rock - Rock fur's Herz Vol.2 (CD 1)
Дисковод: ASUS DRW-1814BLT Adapter: 4 ID: 0
Режим чтения : Достоверность
Использование точного потока : Да
Отключение кэша аудио : Да
Использование указателей C2 : Нет
Коррекция смещения при чтении : 6
Способность читать области Lead-in и Lead-out : Нет
Заполнение пропущенных сэмплов тишиной : Да
Удаление блоков с тишиной в начале и конце : Нет
При вычислениях CRC использовались нулевые сэмплы : Да
Интерфейс : Встроенный Win32-интерфейс для Win NT/2000
Обработка зазоров : Добавлено к предыдущему треку
Выходной формат : Пользовательский кодировщик
Выбранный битрейт : 128 kBit/s
Качество : Высокий
Добавление ID3-тега : Нет
Утилита сжатия : C:\Program Files\Exact Audio Copy\Flac\flac.exe
Дополнительные параметры : -V -8 -T "Genre=%genre%" -T "Artist=%artist%" -T "Title=%title%" -T "Album=%albumtitle%" -T "Date=%year%" -T "Tracknumber=%tracknr%" -T "Comment=EAC1.0b2 FLAC -8" %source%
TOC извлечённого CD
Трек | Старт | Длительность | Начальный сектор | Конечный сектор
---------------------------------------------------------------------
1 | 0:00.33 | 3:17.00 | 33 | 14807
2 | 3:17.33 | 4:27.00 | 14808 | 34832
3 | 7:44.33 | 4:03.00 | 34833 | 53057
4 | 11:47.33 | 3:43.00 | 53058 | 69782
5 | 15:30.33 | 4:59.72 | 69783 | 92279
6 | 20:30.30 | 4:04.70 | 92280 | 110649
7 | 24:35.25 | 3:47.00 | 110650 | 127674
8 | 28:22.25 | 3:33.68 | 127675 | 143717
9 | 31:56.18 | 3:25.72 | 143718 | 159164
10 | 35:22.15 | 3:31.70 | 159165 | 175059
11 | 38:54.10 | 4:17.00 | 175060 | 194334
12 | 43:11.10 | 3:51.73 | 194335 | 211732
13 | 47:03.08 | 3:39.00 | 211733 | 228157
14 | 50:42.08 | 3:34.70 | 228158 | 244277
15 | 54:17.03 | 4:17.00 | 244278 | 263552
16 | 58:34.03 | 4:00.72 | 263553 | 281624
17 | 62:35.00 | 4:01.73 | 281625 | 299772
18 | 66:36.73 | 4:52.15 | 299773 | 321687
Трек 1
Имя файла R:\Раздача 25\VA - Heartrock - Rock Fur's Herz vol.2 (2CD)\cd1\01 Morning Has Broken.wav
Длина предзазора 0:00:02.33
Пиковый уровень 92.4 %
Скорость извлечения 5.3 X
Качество трека 100.0 %
CRC теста D8FC11CF
CRC копии D8FC11CF
Точное извлечение (достоверность 2) [CBBEC118] (AR v2)
Копирование... OK
Трек 2
Имя файла R:\Раздача 25\VA - Heartrock - Rock Fur's Herz vol.2 (2CD)\cd1\02 Girl Im Gonna Miss You.wav
Длина предзазора 0:00:02.53
Пиковый уровень 90.8 %
Скорость извлечения 6.2 X
Качество трека 100.0 %
CRC теста 20CBF132
CRC копии 20CBF132
Точное извлечение (достоверность 2) [D6B5938B] (AR v2)
Копирование... OK
Трек 3
Имя файла R:\Раздача 25\VA - Heartrock - Rock Fur's Herz vol.2 (2CD)\cd1\03 Say You, Say Me.wav
Длина предзазора 0:00:02.25
Пиковый уровень 75.4 %
Скорость извлечения 5.0 X
Качество трека 99.9 %
CRC теста D632D946
CRC копии D632D946
Точное извлечение (достоверность 2) [627EA777] (AR v2)
Копирование... OK
Трек 4
Имя файла R:\Раздача 25\VA - Heartrock - Rock Fur's Herz vol.2 (2CD)\cd1\04 Youve Lost That Lovin Feelin.wav
Длина предзазора 0:00:02.13
Пиковый уровень 89.0 %
Скорость извлечения 7.0 X
Качество трека 100.0 %
CRC теста 8778AEA4
CRC копии 8778AEA4
Точное извлечение (достоверность 2) [8CC04DEC] (AR v2)
Копирование... OK
Трек 5
Имя файла R:\Раздача 25\VA - Heartrock - Rock Fur's Herz vol.2 (2CD)\cd1\05 In Too Deep.wav
Длина предзазора 0:00:02.63
Пиковый уровень 92.1 %
Скорость извлечения 7.7 X
Качество трека 100.0 %
CRC теста 9364B936
CRC копии 9364B936
Точное извлечение (достоверность 2) [C34F812A] (AR v2)
Копирование... OK
Трек 6
Имя файла R:\Раздача 25\VA - Heartrock - Rock Fur's Herz vol.2 (2CD)\cd1\06 Fool (If You Think Its Over).wav
Длина предзазора 0:00:01.62
Пиковый уровень 79.2 %
Скорость извлечения 7.9 X
Качество трека 100.0 %
CRC теста 2C36B5CC
CRC копии 2C36B5CC
Точное извлечение (достоверность 2) [E99BBF91] (AR v2)
Копирование... OK
Трек 7
Имя файла R:\Раздача 25\VA - Heartrock - Rock Fur's Herz vol.2 (2CD)\cd1\07 Have You Ever Been In Love.wav
Длина предзазора 0:00:01.57
Пиковый уровень 80.6 %
Скорость извлечения 8.2 X
Качество трека 100.0 %
CRC теста 9284FEEF
CRC копии 9284FEEF
Точное извлечение (достоверность 2) [F65243DB] (AR v2)
Копирование... OK
Трек 8
Имя файла R:\Раздача 25\VA - Heartrock - Rock Fur's Herz vol.2 (2CD)\cd1\08 Tonights The Night.wav
Длина предзазора 0:00:01.67
Пиковый уровень 88.4 %
Скорость извлечения 8.4 X
Качество трека 100.0 %
CRC теста D534E072
CRC копии D534E072
Точное извлечение (достоверность 2) [6BCC60E0] (AR v2)
Копирование... OK
Трек 9
Имя файла R:\Раздача 25\VA - Heartrock - Rock Fur's Herz vol.2 (2CD)\cd1\09 Dream On.wav
Длина предзазора 0:00:03.05
Пиковый уровень 82.0 %
Скорость извлечения 8.6 X
Качество трека 100.0 %
CRC теста 0ECCE67E
CRC копии 0ECCE67E
Точное извлечение (достоверность 2) [077760FD] (AR v2)
Копирование... OK
Трек 10
Имя файла R:\Раздача 25\VA - Heartrock - Rock Fur's Herz vol.2 (2CD)\cd1\10 Mandy.wav
Длина предзазора 0:00:02.42
Пиковый уровень 84.4 %
Скорость извлечения 8.9 X
Качество трека 100.0 %
CRC теста 1F82FCB6
CRC копии 1F82FCB6
Точное извлечение (достоверность 2) [AB81CBCE] (AR v2)
Копирование... OK
Трек 11
Имя файла R:\Раздача 25\VA - Heartrock - Rock Fur's Herz vol.2 (2CD)\cd1\11 I Dont Wanna Lose You.wav
Длина предзазора 0:00:02.30
Пиковый уровень 82.9 %
Скорость извлечения 9.4 X
Качество трека 100.0 %
CRC теста B83F4C81
CRC копии B83F4C81
Точное извлечение (достоверность 2) [EEC5D6F7] (AR v2)
Копирование... OK
Трек 12
Имя файла R:\Раздача 25\VA - Heartrock - Rock Fur's Herz vol.2 (2CD)\cd1\12 Up Where We Belong.wav
Длина предзазора 0:00:01.70
Пиковый уровень 76.0 %
Скорость извлечения 9.6 X
Качество трека 100.0 %
CRC теста 5457BD43
CRC копии 5457BD43
Точное извлечение (достоверность 2) [5C9B387D] (AR v2)
Копирование... OK
Трек 13
Имя файла R:\Раздача 25\VA - Heartrock - Rock Fur's Herz vol.2 (2CD)\cd1\13 Three Times A Lady.wav
Длина предзазора 0:00:01.70
Пиковый уровень 100.0 %
Скорость извлечения 9.8 X
Качество трека 100.0 %
CRC теста DB6DA7BB
CRC копии DB6DA7BB
Точное извлечение (достоверность 2) [EFEB4317] (AR v2)
Копирование... OK
Трек 14
Имя файла R:\Раздача 25\VA - Heartrock - Rock Fur's Herz vol.2 (2CD)\cd1\14 Dont Know Much.wav
Длина предзазора 0:00:03.08
Пиковый уровень 81.8 %
Скорость извлечения 9.9 X
Качество трека 100.0 %
CRC теста 85F2BA5B
CRC копии 85F2BA5B
Точное извлечение (достоверность 2) [C678A3FA] (AR v2)
Копирование... OK
Трек 15
Имя файла R:\Раздача 25\VA - Heartrock - Rock Fur's Herz vol.2 (2CD)\cd1\15 Sailing.wav
Длина предзазора 0:00:03.03
Пиковый уровень 88.1 %
Скорость извлечения 10.4 X
Качество трека 100.0 %
CRC теста 60605DC9
CRC копии 60605DC9
Точное извлечение (достоверность 2) [DBAEC3DA] (AR v2)
Копирование... OK
Трек 16
Имя файла R:\Раздача 25\VA - Heartrock - Rock Fur's Herz vol.2 (2CD)\cd1\16 Just When I Needed You Most.wav
Длина предзазора 0:00:02.13
Пиковый уровень 89.3 %
Скорость извлечения 10.6 X
Качество трека 100.0 %
CRC теста D6CCD500
CRC копии D6CCD500
Точное извлечение (достоверность 2) [CF01EA5A] (AR v2)
Копирование... OK
Трек 17
Имя файла R:\Раздача 25\VA - Heartrock - Rock Fur's Herz vol.2 (2CD)\cd1\17 I Feel Like Buddy Holly.wav
Длина предзазора 0:00:02.27
Пиковый уровень 85.0 %
Скорость извлечения 10.9 X
Качество трека 100.0 %
CRC теста 5E6707D5
CRC копии 5E6707D5
Точное извлечение (достоверность 2) [8F215985] (AR v2)
Копирование... OK
Трек 18
Имя файла R:\Раздача 25\VA - Heartrock - Rock Fur's Herz vol.2 (2CD)\cd1\18 Still Loving You.wav
Длина предзазора 0:00:02.38
Пиковый уровень 84.0 %
Скорость извлечения 11.4 X
Качество трека 100.0 %
CRC теста 84441E3F
CRC копии 84441E3F
Точное извлечение (достоверность 2) [AEEFF25C] (AR v2)
Копирование... OK
Все треки извлечены точно
Ошибок не произошло
Конец отчёта
==== Контрольная сумма отчёта D4340D7D2AFE4B88C0503B83CA5434BEB443B09325C4CA8AC80B195129C8DC31 ====

Содержание индексной карты (.CUE)

REM GENRE "Heart Rock"
REM DATE 1990
REM DISCID 1910C112
REM COMMENT "ExactAudioCopy v1.0b3"
PERFORMER "VA"
TITLE "Heart Rock - Rock fur's Herz Vol.2 (CD 1)"
FILE "01 Morning Has Broken.wav" WAVE
TRACK 01 AUDIO
TITLE "Morning Has Broken"
PERFORMER "Cat Stevens"
PREGAP 00:00:33
INDEX 01 00:00:00
TRACK 02 AUDIO
TITLE "Girl Im Gonna Miss You"
PERFORMER "Milli Vanilli"
INDEX 00 03:14:22
FILE "02 Girl Im Gonna Miss You.wav" WAVE
INDEX 01 00:00:00
TRACK 03 AUDIO
TITLE "Say You, Say Me"
PERFORMER "Lionel Richie"
INDEX 00 04:24:50
FILE "03 Say You, Say Me.wav" WAVE
INDEX 01 00:00:00
TRACK 04 AUDIO
TITLE "Youve Lost That Lovin Feelin"
PERFORMER "The Righteous Brothers"
INDEX 00 04:00:62
FILE "04 Youve Lost That Lovin Feelin.wav" WAVE
INDEX 01 00:00:00
TRACK 05 AUDIO
TITLE "In Too Deep"
PERFORMER "Genesis"
INDEX 00 03:40:12
FILE "05 In Too Deep.wav" WAVE
INDEX 01 00:00:00
TRACK 06 AUDIO
TITLE "Fool (If You Think Its Over)"
PERFORMER "Chris Rea"
INDEX 00 04:58:10
FILE "06 Fool (If You Think Its Over).wav" WAVE
INDEX 01 00:00:00
TRACK 07 AUDIO
TITLE "Have You Ever Been In Love"
PERFORMER "Leo Sayer"
INDEX 00 04:03:13
FILE "07 Have You Ever Been In Love.wav" WAVE
INDEX 01 00:00:00
TRACK 08 AUDIO
TITLE "Tonights The Night"
PERFORMER "Rod Stewart"
INDEX 00 03:45:08
FILE "08 Tonights The Night.wav" WAVE
INDEX 01 00:00:00
TRACK 09 AUDIO
TITLE "Dream On"
PERFORMER "Nazareth"
INDEX 00 03:30:63
FILE "09 Dream On.wav" WAVE
INDEX 01 00:00:00
TRACK 10 AUDIO
TITLE "Mandy"
PERFORMER "Barry Manilow"
INDEX 00 03:23:30
FILE "10 Mandy.wav" WAVE
INDEX 01 00:00:00
TRACK 11 AUDIO
TITLE "I Dont Wanna Lose You"
PERFORMER "Tina Turner"
INDEX 00 03:29:40
FILE "11 I Dont Wanna Lose You.wav" WAVE
INDEX 01 00:00:00
TRACK 12 AUDIO
TITLE "Up Where We Belong"
PERFORMER "Joe Cocker & Jennifer Warnes"
INDEX 00 04:15:05
FILE "12 Up Where We Belong.wav" WAVE
INDEX 01 00:00:00
TRACK 13 AUDIO
TITLE "Three Times A Lady"
PERFORMER "Commodores"
INDEX 00 03:50:03
FILE "13 Three Times A Lady.wav" WAVE
INDEX 01 00:00:00
TRACK 14 AUDIO
TITLE "Dont Know Much"
PERFORMER "Linda Ronstadt & Aaron Neville"
INDEX 00 03:35:67
FILE "14 Dont Know Much.wav" WAVE
INDEX 01 00:00:00
TRACK 15 AUDIO
TITLE "Sailing"
PERFORMER "Christopher Cross"
INDEX 00 03:31:67
FILE "15 Sailing.wav" WAVE
INDEX 01 00:00:00
TRACK 16 AUDIO
TITLE "Just When I Needed You Most"
PERFORMER "Randy Vanwarmer"
INDEX 00 04:14:62
FILE "16 Just When I Needed You Most.wav" WAVE
INDEX 01 00:00:00
TRACK 17 AUDIO
TITLE "I Feel Like Buddy Holly"
PERFORMER "Alvin Stardust"
INDEX 00 03:58:45
FILE "17 I Feel Like Buddy Holly.wav" WAVE
INDEX 01 00:00:00
TRACK 18 AUDIO
TITLE "Still Loving You"
PERFORMER "Scorpions"
INDEX 00 03:59:35
FILE "18 Still Loving You.wav" WAVE
INDEX 01 00:00:00

CD2

01. Rod Stewart / Sailing [0:04:23.00]
02. Richard Marx / Right Here Waiting [0:04:25.72]
03. John Waite / Missing You [0:04:02.73]
04. 10cc / I'm Not In Love [0:06:03.00]
05. The Kinks / Don't Forget To Dance [0:04:40.72]
06. The Beautiful South / Song For Whoever [0:04:03.70]
07. Adrian Gurvitz / Classic [0:03:41.00]
08. Roxette / Listen To Your Heart [0:04:54.03]
09. Percy Sledge / When A Man Loves A Woman [0:02:51.67]
10. Vaya Con Dios / What's A Woman [0:03:54.70]
11. Barclay James Harvest / Hymn [0:05:08.00]
12. The Korgis / Everybody's Got To Learn Sometime [0:04:07.73]
13. Living In A Box / Room In Your Heart [0:04:34.72]
14. Wishful Thinking / Hiroshima [0:04:51.00]
15. John Miles / Music [0:05:54.00]
16. Gary Moore / Still Got The Blues (For You) [0:04:09.28]

Лог создания рипа

Exact Audio Copy V1.0 beta 3 from 29. August 2011
Отчёт EAC об извлечении, выполненном 6. октября 2014, 18:49
Various Artists / Heart Rock-Rock für's Herz Vol. 2 (CD 2)
Дисковод: ASUS DRW-1814BLT Adapter: 4 ID: 0
Режим чтения : Достоверность
Использование точного потока : Да
Отключение кэша аудио : Да
Использование указателей C2 : Нет
Коррекция смещения при чтении : 6
Способность читать области Lead-in и Lead-out : Нет
Заполнение пропущенных сэмплов тишиной : Да
Удаление блоков с тишиной в начале и конце : Нет
При вычислениях CRC использовались нулевые сэмплы : Да
Интерфейс : Встроенный Win32-интерфейс для Win NT/2000
Обработка зазоров : Добавлено к предыдущему треку
Выходной формат : Пользовательский кодировщик
Выбранный битрейт : 128 kBit/s
Качество : Высокий
Добавление ID3-тега : Нет
Утилита сжатия : C:\Program Files\Exact Audio Copy\Flac\flac.exe
Дополнительные параметры : -V -8 -T "Genre=%genre%" -T "Artist=%artist%" -T "Title=%title%" -T "Album=%albumtitle%" -T "Date=%year%" -T "Tracknumber=%tracknr%" -T "Comment=EAC1.0b2 FLAC -8" %source%
TOC извлечённого CD
Трек | Старт | Длительность | Начальный сектор | Конечный сектор
---------------------------------------------------------------------
1 | 0:00.33 | 4:23.00 | 33 | 19757
2 | 4:23.33 | 4:25.72 | 19758 | 39704
3 | 8:49.30 | 4:02.73 | 39705 | 57927
4 | 12:52.28 | 6:03.00 | 57928 | 85152
5 | 18:55.28 | 4:40.72 | 85153 | 106224
6 | 23:36.25 | 4:03.70 | 106225 | 124519
7 | 27:40.20 | 3:41.00 | 124520 | 141094
8 | 31:21.20 | 4:54.03 | 141095 | 163147
9 | 36:15.23 | 2:51.67 | 163148 | 176039
10 | 39:07.15 | 3:54.70 | 176040 | 193659
11 | 43:02.10 | 5:08.00 | 193660 | 216759
12 | 48:10.10 | 4:07.73 | 216760 | 235357
13 | 52:18.08 | 4:34.72 | 235358 | 255979
14 | 56:53.05 | 4:51.00 | 255980 | 277804
15 | 61:44.05 | 5:54.00 | 277805 | 304354
16 | 67:38.05 | 4:09.28 | 304355 | 323057
Трек 1
Имя файла R:\Раздача 25\VA - Heartrock - Rock Fur's Herz vol.2 (2CD)\cd2\01 Sailing.wav
Длина предзазора 0:00:02.33
Пиковый уровень 86.1 %
Скорость извлечения 4.9 X
Качество трека 100.0 %
CRC теста 14DD038B
CRC копии 14DD038B
Точное извлечение (достоверность 2) [E5856732] (AR v2)
Копирование... OK
Трек 2
Имя файла R:\Раздача 25\VA - Heartrock - Rock Fur's Herz vol.2 (2CD)\cd2\02 Right Here Waiting.wav
Длина предзазора 0:00:02.28
Пиковый уровень 87.8 %
Скорость извлечения 3.9 X
Качество трека 99.9 %
CRC теста F55BDBAD
CRC копии F55BDBAD
Точное извлечение (достоверность 2) [B9FB3352] (AR v2)
Копирование... OK
Трек 3
Имя файла R:\Раздача 25\VA - Heartrock - Rock Fur's Herz vol.2 (2CD)\cd2\03 Missing You.wav
Длина предзазора 0:00:02.57
Пиковый уровень 89.4 %
Скорость извлечения 5.7 X
Качество трека 100.0 %
CRC теста B93F78AF
CRC копии B93F78AF
Точное извлечение (достоверность 2) [E6422421] (AR v2)
Копирование... OK
Трек 4
Имя файла R:\Раздача 25\VA - Heartrock - Rock Fur's Herz vol.2 (2CD)\cd2\04 I'm Not In Love.wav
Длина предзазора 0:00:02.05
Пиковый уровень 83.7 %
Скорость извлечения 6.5 X
Качество трека 100.0 %
CRC теста 8B116B6B
CRC копии 8B116B6B
Точное извлечение (достоверность 2) [675155B8] (AR v2)
Копирование... OK
Трек 5
Имя файла R:\Раздача 25\VA - Heartrock - Rock Fur's Herz vol.2 (2CD)\cd2\05 Don't Forget To Dance.wav
Длина предзазора 0:00:02.13
Пиковый уровень 87.2 %
Скорость извлечения 6.7 X
Качество трека 100.0 %
CRC теста 96FA2236
CRC копии 96FA2236
Точное извлечение (достоверность 2) [35402036] (AR v2)
Копирование... OK
Трек 6
Имя файла R:\Раздача 25\VA - Heartrock - Rock Fur's Herz vol.2 (2CD)\cd2\06 Song For Whoever.wav
Длина предзазора 0:00:02.45
Пиковый уровень 89.0 %
Скорость извлечения 6.9 X
Качество трека 100.0 %
CRC теста 57CA02DF
CRC копии 57CA02DF
Точное извлечение (достоверность 2) [70878168] (AR v2)
Копирование... OK
Трек 7
Имя файла R:\Раздача 25\VA - Heartrock - Rock Fur's Herz vol.2 (2CD)\cd2\07 Classic.wav
Длина предзазора 0:00:01.50
Пиковый уровень 80.0 %
Скорость извлечения 7.1 X
Качество трека 100.0 %
CRC теста EC81A100
CRC копии EC81A100
Точное извлечение (достоверность 2) [2A6E74D1] (AR v2)
Копирование... OK
Трек 8
Имя файла R:\Раздача 25\VA - Heartrock - Rock Fur's Herz vol.2 (2CD)\cd2\08 Listen To Your Heart.wav
Длина предзазора 0:00:01.67
Пиковый уровень 96.9 %
Скорость извлечения 7.6 X
Качество трека 100.0 %
CRC теста 2F3B709E
CRC копии 2F3B709E
Точное извлечение (достоверность 2) [F75AA04B] (AR v2)
Копирование... OK
Трек 9
Имя файла R:\Раздача 25\VA - Heartrock - Rock Fur's Herz vol.2 (2CD)\cd2\09 When A Man Loves A Woman.wav
Длина предзазора 0:00:01.65
Пиковый уровень 86.6 %
Скорость извлечения 7.3 X
Качество трека 100.0 %
CRC теста B9E9AAE0
CRC копии B9E9AAE0
Точное извлечение (достоверность 2) [C82A12F2] (AR v2)
Копирование... OK
Трек 10
Имя файла R:\Раздача 25\VA - Heartrock - Rock Fur's Herz vol.2 (2CD)\cd2\10 What's A Woman.wav
Длина предзазора 0:00:03.00
Пиковый уровень 84.2 %
Скорость извлечения 7.9 X
Качество трека 100.0 %
CRC теста 04C09465
CRC копии 04C09465
Точное извлечение (достоверность 2) [943958BF] (AR v2)
Копирование... OK
Трек 11
Имя файла R:\Раздача 25\VA - Heartrock - Rock Fur's Herz vol.2 (2CD)\cd2\11 Hymn.wav
Длина предзазора 0:00:02.10
Пиковый уровень 86.8 %
Скорость извлечения 8.5 X
Качество трека 100.0 %
CRC теста 72E11EA2
CRC копии 72E11EA2
Точное извлечение (достоверность 2) [56EA445A] (AR v2)
Копирование... OK
Трек 12
Имя файла R:\Раздача 25\VA - Heartrock - Rock Fur's Herz vol.2 (2CD)\cd2\12 Everybody's Got To Learn Sometime.wav
Длина предзазора 0:00:02.22
Пиковый уровень 85.1 %
Скорость извлечения 6.1 X
Качество трека 99.9 %
CRC теста E4E805E9
CRC копии E4E805E9
Точное извлечение (достоверность 2) [CEC3A02E] (AR v2)
Копирование... OK
Трек 13
Имя файла R:\Раздача 25\VA - Heartrock - Rock Fur's Herz vol.2 (2CD)\cd2\13 Room In Your Heart.wav
Длина предзазора 0:00:01.53
Пиковый уровень 87.0 %
Скорость извлечения 8.9 X
Качество трека 100.0 %
CRC теста E41FF8BE
CRC копии E41FF8BE
Точное извлечение (достоверность 2) [CCB4B7C9] (AR v2)
Копирование... OK
Трек 14
Имя файла R:\Раздача 25\VA - Heartrock - Rock Fur's Herz vol.2 (2CD)\cd2\14 Hiroshima.wav
Длина предзазора 0:00:01.27
Пиковый уровень 86.2 %
Скорость извлечения 9.2 X
Качество трека 100.0 %
CRC теста 65BEBE0D
CRC копии 65BEBE0D
Точное извлечение (достоверность 2) [14C2193C] (AR v2)
Копирование... OK
Трек 15
Имя файла R:\Раздача 25\VA - Heartrock - Rock Fur's Herz vol.2 (2CD)\cd2\15 Music.wav
Длина предзазора 0:00:01.27
Пиковый уровень 84.8 %
Скорость извлечения 9.7 X
Качество трека 100.0 %
CRC теста BB362570
CRC копии BB362570
Точное извлечение (достоверность 2) [49D610F6] (AR v2)
Копирование... OK
Трек 16
Имя файла R:\Раздача 25\VA - Heartrock - Rock Fur's Herz vol.2 (2CD)\cd2\16 Still Got The Blues (For You).wav
Длина предзазора 0:00:02.37
Пиковый уровень 86.4 %
Скорость извлечения 9.4 X
Качество трека 100.0 %
CRC теста 1CFDFACB
CRC копии 1CFDFACB
Точное извлечение (достоверность 2) [7284F1FC] (AR v2)
Копирование... OK
Все треки извлечены точно
Ошибок не произошло
Конец отчёта
==== Контрольная сумма отчёта 25D1F65F7084D57BCD1C6A22E73E067A78CD1CBB32598692AA340D76D9C3EB72 ====

Содержание индексной карты (.CUE)

REM GENRE Rock
REM DATE 1990
REM DISCID E110D310
REM COMMENT "ExactAudioCopy v1.0b3"
PERFORMER "Various Artists"
TITLE "Heart Rock-Rock fur's Herz Vol. 2 (CD 2)"
FILE "01 Sailing.wav" WAVE
TRACK 01 AUDIO
TITLE "Sailing"
PERFORMER "Rod Stewart"
PREGAP 00:00:33
INDEX 01 00:00:00
TRACK 02 AUDIO
TITLE "Right Here Waiting"
PERFORMER "Richard Marx"
INDEX 00 04:20:47
FILE "02 Right Here Waiting.wav" WAVE
INDEX 01 00:00:00
TRACK 03 AUDIO
TITLE "Missing You"
PERFORMER "John Waite"
INDEX 00 04:23:15
FILE "03 Missing You.wav" WAVE
INDEX 01 00:00:00
TRACK 04 AUDIO
TITLE "I'm Not In Love"
PERFORMER "10cc"
INDEX 00 04:00:68
FILE "04 I'm Not In Love.wav" WAVE
INDEX 01 00:00:00
TRACK 05 AUDIO
TITLE "Don't Forget To Dance"
PERFORMER "The Kinks"
INDEX 00 06:00:62
FILE "05 Don't Forget To Dance.wav" WAVE
INDEX 01 00:00:00
TRACK 06 AUDIO
TITLE "Song For Whoever"
PERFORMER "The Beautiful South"
INDEX 00 04:38:27
FILE "06 Song For Whoever.wav" WAVE
INDEX 01 00:00:00
TRACK 07 AUDIO
TITLE "Classic"
PERFORMER "Adrian Gurvitz"
INDEX 00 04:02:20
FILE "07 Classic.wav" WAVE
INDEX 01 00:00:00
TRACK 08 AUDIO
TITLE "Listen To Your Heart"
PERFORMER "Roxette"
INDEX 00 03:39:08
FILE "08 Listen To Your Heart.wav" WAVE
INDEX 01 00:00:00
TRACK 09 AUDIO
TITLE "When A Man Loves A Woman"
PERFORMER "Percy Sledge"
INDEX 00 04:52:13
FILE "09 When A Man Loves A Woman.wav" WAVE
INDEX 01 00:00:00
TRACK 10 AUDIO
TITLE "What's A Woman"
PERFORMER "Vaya Con Dios"
INDEX 00 02:48:67
FILE "10 What's A Woman.wav" WAVE
INDEX 01 00:00:00
TRACK 11 AUDIO
TITLE "Hymn"
PERFORMER "Barclay James Harvest"
INDEX 00 03:52:60
FILE "11 Hymn.wav" WAVE
INDEX 01 00:00:00
TRACK 12 AUDIO
TITLE "Everybody's Got To Learn Sometime"
PERFORMER "The Korgis"
INDEX 00 05:05:53
FILE "12 Everybody's Got To Learn Sometime.wav" WAVE
INDEX 01 00:00:00
TRACK 13 AUDIO
TITLE "Room In Your Heart"
PERFORMER "Living In A Box"
INDEX 00 04:06:20
FILE "13 Room In Your Heart.wav" WAVE
INDEX 01 00:00:00
TRACK 14 AUDIO
TITLE "Hiroshima"
PERFORMER "Wishful Thinking"
INDEX 00 04:33:45
FILE "14 Hiroshima.wav" WAVE
INDEX 01 00:00:00
TRACK 15 AUDIO
TITLE "Music"
PERFORMER "John Miles"
INDEX 00 04:49:48
FILE "15 Music.wav" WAVE
INDEX 01 00:00:00
TRACK 16 AUDIO
TITLE "Still Got The Blues (For You)"
PERFORMER "Gary Moore"
INDEX 00 05:51:38
FILE "16 Still Got The Blues (For You).wav" WAVE
INDEX 01 00:00:00

To download the file disable ad blocking, and reload the page.

disable adblock How to disable ad blocking?

Download by magnet link 829 MB Download Torrent

Login using:

Similar topics

(Hard Rock) [CD] Deep Purple - Infinite - 2017, FLAC (image+.cue), lossless
 367 MB   0 | 0   08-May-17 15:13   0
(Hard Rock) [WEB] Freedom Level - Wake Up - 2013, FLAC (tracks), lossless
 289 MB   0 | 0   08-May-17 15:13   0


   
Current time is: 20-Sep 00:07 :: All times are UTC ± 0