Heartrock - Rock fur's Herz Vol.1 (2CD)
Жанр: Heart Rock
Страна-производитель диска: Germany
Год издания: 1989
Издатель (лейбл): BMG Ariola Munchen GmbH
Номер по каталогу: 353636
Аудиокодек: FLAC (*.flac)
Тип рипа: tracks+.cue
Битрейт аудио: lossless
Продолжительность: 1:15:42. + 1:11:18.
Источник (релизер): clustert
Наличие сканов в содержимом раздачи: да

CD1

01. Prince And The Revolution / Purple Rain [0:04:07.35]
02. Enya / Orinoco Flow [0:03:45.67]
03. Chris Rea / Josephine [0:04:26.53]
04. John Farnham / You´re The Voice [0:05:03.57]
05. Mr. Mister / Broken Wings [0:04:41.30]
06. Alphaville / Forever Young [0:03:47.10]
07. Neneh Cherry / Manchild [0:03:53.50]
08. T´Pau / China In Your Hand [0:04:05.10]
09. Spandau Ballet / True [0:05:38.68]
10. France Gall / Ella Elle L´a [0:04:51.07]
11. Brian Hyland / Sealed With A Kiss [0:02:40.58]
12. Grace Jones / La Vie En Rose [0:03:36.65]
13. Uria Heep / Lady In Black [0:03:41.67]
14. Gary Moore / Empty Rooms [0:04:14.68]
15. Midge Ure / If I Was [0:05:23.22]
16. Blue System / Love Suite [0:03:15.63]
17. Louis Armstrong And His Friends / What A Wonderful World [0:03:21.27]
18. Barry Manilow / Read ´Em And Weep [0:05:06.33]

Лог создания рипа

Exact Audio Copy V1.0 beta 3 from 29. August 2011
Отчёт EAC об извлечении, выполненном 6. октября 2014, 17:17
VA / Heart Rock - Rock für´s Herz Vol.1 (CD 1)
Дисковод: ASUS DRW-1814BLT Adapter: 4 ID: 0
Режим чтения : Достоверность
Использование точного потока : Да
Отключение кэша аудио : Да
Использование указателей C2 : Нет
Коррекция смещения при чтении : 6
Способность читать области Lead-in и Lead-out : Нет
Заполнение пропущенных сэмплов тишиной : Да
Удаление блоков с тишиной в начале и конце : Нет
При вычислениях CRC использовались нулевые сэмплы : Да
Интерфейс : Встроенный Win32-интерфейс для Win NT/2000
Обработка зазоров : Добавлено к предыдущему треку
Выходной формат : Пользовательский кодировщик
Выбранный битрейт : 128 kBit/s
Качество : Высокий
Добавление ID3-тега : Нет
Утилита сжатия : C:\Program Files\Exact Audio Copy\Flac\flac.exe
Дополнительные параметры : -V -8 -T "Genre=%genre%" -T "Artist=%artist%" -T "Title=%title%" -T "Album=%albumtitle%" -T "Date=%year%" -T "Tracknumber=%tracknr%" -T "Comment=EAC1.0b2 FLAC -8" %source%
TOC извлечённого CD
Трек | Старт | Длительность | Начальный сектор | Конечный сектор
---------------------------------------------------------------------
1 | 0:00.33 | 4:07.35 | 33 | 18592
2 | 4:07.68 | 3:45.67 | 18593 | 35534
3 | 7:53.60 | 4:26.53 | 35535 | 55537
4 | 12:20.38 | 5:03.57 | 55538 | 78319
5 | 17:24.20 | 4:41.30 | 78320 | 99424
6 | 22:05.50 | 3:47.10 | 99425 | 116459
7 | 25:52.60 | 3:53.50 | 116460 | 133984
8 | 29:46.35 | 4:05.10 | 133985 | 152369
9 | 33:51.45 | 5:38.68 | 152370 | 177787
10 | 39:30.38 | 4:51.07 | 177788 | 199619
11 | 44:21.45 | 2:40.58 | 199620 | 211677
12 | 47:02.28 | 3:36.65 | 211678 | 227942
13 | 50:39.18 | 3:41.67 | 227943 | 244584
14 | 54:21.10 | 4:14.68 | 244585 | 263702
15 | 58:36.03 | 5:23.22 | 263703 | 287949
16 | 63:59.25 | 3:15.63 | 287950 | 302637
17 | 67:15.13 | 3:21.27 | 302638 | 317739
18 | 70:36.40 | 5:06.33 | 317740 | 340722
Трек 1
Имя файла R:\Раздача 25\VA - Heartrock - Rock Fur's Herz vol.1 (2CD)\cd1\01 Purple Rain.wav
Длина предзазора 0:00:02.33
Пиковый уровень 93.1 %
Скорость извлечения 5.8 X
Качество трека 100.0 %
CRC теста FEA9F24D
CRC копии FEA9F24D
Точное извлечение (достоверность 26) [6945195E] (AR v2)
Копирование... OK
Трек 2
Имя файла R:\Раздача 25\VA - Heartrock - Rock Fur's Herz vol.1 (2CD)\cd1\02 Orinoco Flow.wav
Длина предзазора 0:00:01.38
Пиковый уровень 84.7 %
Скорость извлечения 6.3 X
Качество трека 100.0 %
CRC теста B9332062
CRC копии B9332062
Точное извлечение (достоверность 25) [8ABCAA75] (AR v2)
Копирование... OK
Трек 3
Имя файла R:\Раздача 25\VA - Heartrock - Rock Fur's Herz vol.1 (2CD)\cd1\03 Josephine.wav
Длина предзазора 0:00:01.37
Пиковый уровень 95.0 %
Скорость извлечения 6.9 X
Качество трека 100.0 %
CRC теста FAFD673C
CRC копии FAFD673C
Точное извлечение (достоверность 24) [547397F0] (AR v2)
Копирование... OK
Трек 4
Имя файла R:\Раздача 25\VA - Heartrock - Rock Fur's Herz vol.1 (2CD)\cd1\04 You´re The Voice.wav
Длина предзазора 0:00:01.45
Пиковый уровень 99.2 %
Скорость извлечения 5.8 X
Качество трека 99.9 %
CRC теста BBDB96C5
CRC копии BBDB96C5
Точное извлечение (достоверность 25) [8885DE2D] (AR v2)
Копирование... OK
Трек 5
Имя файла R:\Раздача 25\VA - Heartrock - Rock Fur's Herz vol.1 (2CD)\cd1\05 Broken Wings.wav
Длина предзазора 0:00:01.42
Пиковый уровень 93.6 %
Скорость извлечения 8.0 X
Качество трека 100.0 %
CRC теста 00F0765A
CRC копии 00F0765A
Точное извлечение (достоверность 25) [576D90E7] (AR v2)
Копирование... OK
Трек 6
Имя файла R:\Раздача 25\VA - Heartrock - Rock Fur's Herz vol.1 (2CD)\cd1\06 Forever Young.wav
Длина предзазора 0:00:01.45
Пиковый уровень 100.0 %
Скорость извлечения 8.1 X
Качество трека 100.0 %
CRC теста CEC53844
CRC копии CEC53844
Точное извлечение (достоверность 23) [1CC4C46E] (AR v2)
Копирование... OK
Трек 7
Имя файла R:\Раздача 25\VA - Heartrock - Rock Fur's Herz vol.1 (2CD)\cd1\07 Manchild.wav
Длина предзазора 0:00:01.42
Пиковый уровень 98.6 %
Скорость извлечения 8.4 X
Качество трека 100.0 %
CRC теста 0AD5A45A
CRC копии 0AD5A45A
Точное извлечение (достоверность 24) [A7D463A5] (AR v2)
Копирование... OK
Трек 8
Имя файла R:\Раздача 25\VA - Heartrock - Rock Fur's Herz vol.1 (2CD)\cd1\08 China In Your Hand.wav
Длина предзазора 0:00:01.40
Пиковый уровень 100.0 %
Скорость извлечения 8.9 X
Качество трека 100.0 %
CRC теста 58ECB001
CRC копии 58ECB001
Точное извлечение (достоверность 24) [CA683064] (AR v2)
Копирование... OK
Трек 9
Имя файла R:\Раздача 25\VA - Heartrock - Rock Fur's Herz vol.1 (2CD)\cd1\09 True.wav
Длина предзазора 0:00:01.42
Пиковый уровень 99.6 %
Скорость извлечения 9.6 X
Качество трека 100.0 %
CRC теста ED730AEB
CRC копии ED730AEB
Точное извлечение (достоверность 23) [061BC150] (AR v2)
Копирование... OK
Трек 10
Имя файла R:\Раздача 25\VA - Heartrock - Rock Fur's Herz vol.1 (2CD)\cd1\10 Ella Elle L´a.wav
Длина предзазора 0:00:01.48
Пиковый уровень 100.0 %
Скорость извлечения 9.9 X
Качество трека 100.0 %
CRC теста 69C13C23
CRC копии 69C13C23
Точное извлечение (достоверность 24) [C0DC79A4] (AR v2)
Копирование... OK
Трек 11
Имя файла R:\Раздача 25\VA - Heartrock - Rock Fur's Herz vol.1 (2CD)\cd1\11 Sealed With A Kiss.wav
Длина предзазора 0:00:01.50
Пиковый уровень 67.0 %
Скорость извлечения 9.2 X
Качество трека 100.0 %
CRC теста CBF8DA84
CRC копии CBF8DA84
Точное извлечение (достоверность 25) [26CC6470] (AR v2)
Копирование... OK
Трек 12
Имя файла R:\Раздача 25\VA - Heartrock - Rock Fur's Herz vol.1 (2CD)\cd1\12 La Vie En Rose.wav
Длина предзазора 0:00:01.40
Пиковый уровень 100.0 %
Скорость извлечения 10.0 X
Качество трека 100.0 %
CRC теста 35351ABB
CRC копии 35351ABB
Точное извлечение (достоверность 24) [B8443A68] (AR v2)
Копирование... OK
Трек 13
Имя файла R:\Раздача 25\VA - Heartrock - Rock Fur's Herz vol.1 (2CD)\cd1\13 Lady In Black.wav
Длина предзазора 0:00:01.43
Пиковый уровень 95.1 %
Скорость извлечения 10.2 X
Качество трека 100.0 %
CRC теста 4BCC234B
CRC копии 4BCC234B
Точное извлечение (достоверность 24) [D08D4140] (AR v2)
Копирование... OK
Трек 14
Имя файла R:\Раздача 25\VA - Heartrock - Rock Fur's Herz vol.1 (2CD)\cd1\14 Empty Rooms.wav
Длина предзазора 0:00:01.42
Пиковый уровень 98.7 %
Скорость извлечения 10.7 X
Качество трека 100.0 %
CRC теста 587E14F6
CRC копии 587E14F6
Точное извлечение (достоверность 23) [30FCDE8A] (AR v2)
Копирование... OK
Трек 15
Имя файла R:\Раздача 25\VA - Heartrock - Rock Fur's Herz vol.1 (2CD)\cd1\15 If I Was.wav
Длина предзазора 0:00:01.40
Пиковый уровень 93.1 %
Скорость извлечения 11.2 X
Качество трека 100.0 %
CRC теста 4FA927F7
CRC копии 4FA927F7
Точное извлечение (достоверность 24) [0B65B598] (AR v2)
Копирование... OK
Трек 16
Имя файла R:\Раздача 25\VA - Heartrock - Rock Fur's Herz vol.1 (2CD)\cd1\16 Love Suite.wav
Длина предзазора 0:00:01.42
Пиковый уровень 91.3 %
Скорость извлечения 8.0 X
Качество трека 99.9 %
CRC теста 7AAB4A0B
CRC копии 7AAB4A0B
Точное извлечение (достоверность 24) [634D07CE] (AR v2)
Копирование... OK
Трек 17
Имя файла R:\Раздача 25\VA - Heartrock - Rock Fur's Herz vol.1 (2CD)\cd1\17 What A Wonderful World.wav
Длина предзазора 0:00:01.40
Пиковый уровень 95.4 %
Скорость извлечения 10.9 X
Качество трека 100.0 %
CRC теста EF0C6C20
CRC копии EF0C6C20
Точное извлечение (достоверность 24) [73CFEF81] (AR v2)
Копирование... OK
Трек 18
Имя файла R:\Раздача 25\VA - Heartrock - Rock Fur's Herz vol.1 (2CD)\cd1\18 Read ´Em And Weep.wav
Длина предзазора 0:00:01.50
Пиковый уровень 96.3 %
Скорость извлечения 9.1 X
Качество трека 99.9 %
CRC теста D681F9CD
CRC копии D681F9CD
Точное извлечение (достоверность 22) [5D108890] (AR v2)
Копирование... OK
Все треки извлечены точно
Ошибок не произошло
Конец отчёта
==== Контрольная сумма отчёта BD0994737D0B5F83D80A4BFD0737D93C0917A6757A3EFA588A040E42A49ED3DD ====

Содержание индексной карты (.CUE)

REM GENRE "Heart Rock"
REM DATE 1989
REM DISCID FA11BE12
REM COMMENT "ExactAudioCopy v1.0b3"
CATALOG 0000000000000
PERFORMER "VA"
TITLE "Heart Rock - Rock fur.s Herz Vol.1 (CD 1)"
FILE "01 Purple Rain.wav" WAVE
TRACK 01 AUDIO
TITLE "Purple Rain"
PERFORMER "Prince And The Revolution"
PREGAP 00:00:33
INDEX 01 00:00:00
TRACK 02 AUDIO
TITLE "Orinoco Flow"
PERFORMER "Enya"
INDEX 00 04:05:72
FILE "02 Orinoco Flow.wav" WAVE
INDEX 01 00:00:00
TRACK 03 AUDIO
TITLE "Josephine"
PERFORMER "Chris Rea"
INDEX 00 03:44:30
FILE "03 Josephine.wav" WAVE
INDEX 01 00:00:00
TRACK 04 AUDIO
TITLE "You.re The Voice"
PERFORMER "John Farnham"
INDEX 00 04:25:08
FILE "04 You.re The Voice.wav" WAVE
INDEX 01 00:00:00
TRACK 05 AUDIO
TITLE "Broken Wings"
PERFORMER "Mr. Mister"
INDEX 00 05:02:15
FILE "05 Broken Wings.wav" WAVE
INDEX 01 00:00:00
TRACK 06 AUDIO
TITLE "Forever Young"
PERFORMER "Alphaville"
INDEX 00 04:39:60
FILE "06 Forever Young.wav" WAVE
INDEX 01 00:00:00
TRACK 07 AUDIO
TITLE "Manchild"
PERFORMER "Neneh Cherry"
INDEX 00 03:45:43
FILE "07 Manchild.wav" WAVE
INDEX 01 00:00:00
TRACK 08 AUDIO
TITLE "China In Your Hand"
PERFORMER "T.Pau"
INDEX 00 03:52:10
FILE "08 China In Your Hand.wav" WAVE
INDEX 01 00:00:00
TRACK 09 AUDIO
TITLE "True"
PERFORMER "Spandau Ballet"
INDEX 00 04:03:43
FILE "09 True.wav" WAVE
INDEX 01 00:00:00
TRACK 10 AUDIO
TITLE "Ella Elle L.a"
PERFORMER "France Gall"
INDEX 00 05:37:20
FILE "10 Ella Elle L.a.wav" WAVE
INDEX 01 00:00:00
TRACK 11 AUDIO
TITLE "Sealed With A Kiss"
PERFORMER "Brian Hyland"
INDEX 00 04:49:32
FILE "11 Sealed With A Kiss.wav" WAVE
INDEX 01 00:00:00
TRACK 12 AUDIO
TITLE "La Vie En Rose"
PERFORMER "Grace Jones"
INDEX 00 02:39:18
FILE "12 La Vie En Rose.wav" WAVE
INDEX 01 00:00:00
TRACK 13 AUDIO
TITLE "Lady In Black"
PERFORMER "Uria Heep"
INDEX 00 03:35:22
FILE "13 Lady In Black.wav" WAVE
INDEX 01 00:00:00
TRACK 14 AUDIO
TITLE "Empty Rooms"
PERFORMER "Gary Moore"
INDEX 00 03:40:25
FILE "14 Empty Rooms.wav" WAVE
INDEX 01 00:00:00
TRACK 15 AUDIO
TITLE "If I Was"
PERFORMER "Midge Ure"
INDEX 00 04:13:28
FILE "15 If I Was.wav" WAVE
INDEX 01 00:00:00
TRACK 16 AUDIO
TITLE "Love Suite"
PERFORMER "Blue System"
INDEX 00 05:21:55
FILE "16 Love Suite.wav" WAVE
INDEX 01 00:00:00
TRACK 17 AUDIO
TITLE "What A Wonderful World"
PERFORMER "Louis Armstrong And His Friends"
INDEX 00 03:14:23
FILE "17 What A Wonderful World.wav" WAVE
INDEX 01 00:00:00
TRACK 18 AUDIO
TITLE "Read .Em And Weep"
PERFORMER "Barry Manilow"
INDEX 00 03:19:52
FILE "18 Read .Em And Weep.wav" WAVE
INDEX 01 00:00:00

CD2

01. Lou Reed / Walk On The Wild Side [0:04:14.57]
02. Pat Benatar / We Belong [0:03:42.30]
03. Marianne Faithfull / Broken English [0:04:37.28]
04. Cutting Crew / (I Just) Died In Your Arms [0:04:36.37]
05. Carly Simon / Coming Around Again [0:03:38.03]
06. Eros Ramazzotti / Adesso Tu [0:04:02.10]
07. The Alan Parsons Project / Don´t Answer Me [0:04:10.02]
08. The Flying Pickets / Only You [0:03:34.35]
09. Leo Sayer / More Than I Can Say [0:03:43.08]
10. Eric Carmen / Never Gonna Fall In Love Again [0:03:45.30]
11. Taylor Dayne / I´ll Always Love You [0:04:19.40]
12. Jennifer Warnes / First We Take Manhattan [0:03:45.47]
13. Roy Orbison / You Got It [0:03:31.45]
14. Mike Oldfield / Moonlight Shadow [0:03:38.70]
15. Air Supply / All Out Of Love [0:04:03.08]
16. Boy George / Everything I Own [0:03:57.10]
17. Nilsson / Without You [0:03:18.10]
18. Ultravox / Dancing With Tears In My Eyes [0:04:40.15]

Лог создания рипа

Exact Audio Copy V1.0 beta 3 from 29. August 2011
Отчёт EAC об извлечении, выполненном 6. октября 2014, 17:48
VA / Heart Rock - Rock für´s Herz Vol.1 (CD 2)
Дисковод: ASUS DRW-1814BLT Adapter: 4 ID: 0
Режим чтения : Достоверность
Использование точного потока : Да
Отключение кэша аудио : Да
Использование указателей C2 : Нет
Коррекция смещения при чтении : 6
Способность читать области Lead-in и Lead-out : Нет
Заполнение пропущенных сэмплов тишиной : Да
Удаление блоков с тишиной в начале и конце : Нет
При вычислениях CRC использовались нулевые сэмплы : Да
Интерфейс : Встроенный Win32-интерфейс для Win NT/2000
Обработка зазоров : Добавлено к предыдущему треку
Выходной формат : Пользовательский кодировщик
Выбранный битрейт : 128 kBit/s
Качество : Высокий
Добавление ID3-тега : Нет
Утилита сжатия : C:\Program Files\Exact Audio Copy\Flac\flac.exe
Дополнительные параметры : -V -8 -T "Genre=%genre%" -T "Artist=%artist%" -T "Title=%title%" -T "Album=%albumtitle%" -T "Date=%year%" -T "Tracknumber=%tracknr%" -T "Comment=EAC1.0b2 FLAC -8" %source%
TOC извлечённого CD
Трек | Старт | Длительность | Начальный сектор | Конечный сектор
---------------------------------------------------------------------
1 | 0:00.33 | 4:14.57 | 33 | 19139
2 | 4:15.15 | 3:42.30 | 19140 | 35819
3 | 7:57.45 | 4:37.28 | 35820 | 56622
4 | 12:34.73 | 4:36.37 | 56623 | 77359
5 | 17:11.35 | 3:38.03 | 77360 | 93712
6 | 20:49.38 | 4:02.10 | 93713 | 111872
7 | 24:51.48 | 4:10.02 | 111873 | 130624
8 | 29:01.50 | 3:34.35 | 130625 | 146709
9 | 32:36.10 | 3:43.08 | 146710 | 163442
10 | 36:19.18 | 3:45.30 | 163443 | 180347
11 | 40:04.48 | 4:19.40 | 180348 | 199812
12 | 44:24.13 | 3:45.47 | 199813 | 216734
13 | 48:09.60 | 3:31.45 | 216735 | 232604
14 | 51:41.30 | 3:38.70 | 232605 | 249024
15 | 55:20.25 | 4:03.08 | 249025 | 267257
16 | 59:23.33 | 3:57.10 | 267258 | 285042
17 | 63:20.43 | 3:18.10 | 285043 | 299902
18 | 66:38.53 | 4:40.15 | 299903 | 320917
Трек 1
Имя файла R:\Раздача 25\VA - Heartrock - Rock Fur's Herz vol.1 (2CD)\cd2\01 Walk On The Wild Side.wav
Длина предзазора 0:00:02.33
Пиковый уровень 93.3 %
Скорость извлечения 5.0 X
Качество трека 100.0 %
CRC теста 3E020C22
CRC копии 3E020C22
Точное извлечение (достоверность 22) [93B3B9FB] (AR v2)
Копирование... OK
Трек 2
Имя файла R:\Раздача 25\VA - Heartrock - Rock Fur's Herz vol.1 (2CD)\cd2\02 We Belong.wav
Длина предзазора 0:00:01.50
Пиковый уровень 100.0 %
Скорость извлечения 3.7 X
Качество трека 99.9 %
CRC теста 026FAC13
CRC копии 026FAC13
Точное извлечение (достоверность 21) [BF5262F7] (AR v2)
Копирование... OK
Трек 3
Имя файла R:\Раздача 25\VA - Heartrock - Rock Fur's Herz vol.1 (2CD)\cd2\03 Broken English.wav
Длина предзазора 0:00:01.45
Пиковый уровень 97.1 %
Скорость извлечения 5.9 X
Качество трека 100.0 %
CRC теста 2B0694AC
CRC копии 2B0694AC
Точное извлечение (достоверность 20) [F3B96D63] (AR v2)
Копирование... OK
Трек 4
Имя файла R:\Раздача 25\VA - Heartrock - Rock Fur's Herz vol.1 (2CD)\cd2\04 (I Just) Died In Your Arms.wav
Длина предзазора 0:00:01.45
Пиковый уровень 97.6 %
Скорость извлечения 6.3 X
Качество трека 100.0 %
CRC теста B9EBD099
CRC копии B9EBD099
Точное извлечение (достоверность 20) [6F685797] (AR v2)
Копирование... OK
Трек 5
Имя файла R:\Раздача 25\VA - Heartrock - Rock Fur's Herz vol.1 (2CD)\cd2\05 Coming Around Again.wav
Длина предзазора 0:00:01.47
Пиковый уровень 100.0 %
Скорость извлечения 6.5 X
Качество трека 100.0 %
CRC теста FD72A93D
CRC копии FD72A93D
Точное извлечение (достоверность 23) [BB657E72] (AR v2)
Копирование... OK
Трек 6
Имя файла R:\Раздача 25\VA - Heartrock - Rock Fur's Herz vol.1 (2CD)\cd2\06 Adesso Tu.wav
Длина предзазора 0:00:01.50
Пиковый уровень 88.0 %
Скорость извлечения 6.9 X
Качество трека 100.0 %
CRC теста BE5CF078
CRC копии BE5CF078
Точное извлечение (достоверность 22) [1C7ACC4A] (AR v2)
Копирование... OK
Трек 7
Имя файла R:\Раздача 25\VA - Heartrock - Rock Fur's Herz vol.1 (2CD)\cd2\07 Don´t Answer Me.wav
Длина предзазора 0:00:01.48
Пиковый уровень 89.9 %
Скорость извлечения 7.2 X
Качество трека 100.0 %
CRC теста E596BC3D
CRC копии E596BC3D
Точное извлечение (достоверность 20) [95E787B3] (AR v2)
Копирование... OK
Трек 8
Имя файла R:\Раздача 25\VA - Heartrock - Rock Fur's Herz vol.1 (2CD)\cd2\08 Only You.wav
Длина предзазора 0:00:01.42
Пиковый уровень 91.6 %
Скорость извлечения 5.2 X
Качество трека 99.9 %
CRC теста B5DEF726
CRC копии B5DEF726
Точное извлечение (достоверность 22) [DDE80AF8] (AR v2)
Копирование... OK
Трек 9
Имя файла R:\Раздача 25\VA - Heartrock - Rock Fur's Herz vol.1 (2CD)\cd2\09 More Than I Can Say.wav
Длина предзазора 0:00:01.45
Пиковый уровень 100.0 %
Скорость извлечения 5.5 X
Качество трека 99.9 %
CRC теста C138D41D
CRC копии C138D41D
Точное извлечение (достоверность 22) [1E6DC269] (AR v2)
Копирование... OK
Трек 10
Имя файла R:\Раздача 25\VA - Heartrock - Rock Fur's Herz vol.1 (2CD)\cd2\10 Never Gonna Fall In Love Again.wav
Длина предзазора 0:00:01.43
Пиковый уровень 76.0 %
Скорость извлечения 5.7 X
Качество трека 99.9 %
CRC теста 610FB3AE
CRC копии 610FB3AE
Точное извлечение (достоверность 22) [7FB46A27] (AR v2)
Копирование... OK
Трек 11
Имя файла R:\Раздача 25\VA - Heartrock - Rock Fur's Herz vol.1 (2CD)\cd2\11 I´ll Always Love You.wav
Длина предзазора 0:00:01.43
Пиковый уровень 100.0 %
Скорость извлечения 8.3 X
Качество трека 100.0 %
CRC теста 5E9EBD62
CRC копии 5E9EBD62
Точное извлечение (достоверность 23) [AFBE5E5F] (AR v2)
Копирование... OK
Трек 12
Имя файла R:\Раздача 25\VA - Heartrock - Rock Fur's Herz vol.1 (2CD)\cd2\12 First We Take Manhattan.wav
Длина предзазора 0:00:01.45
Пиковый уровень 89.4 %
Скорость извлечения 8.5 X
Качество трека 100.0 %
CRC теста FB5A5A8E
CRC копии FB5A5A8E
Точное извлечение (достоверность 20) [FC4B3E05] (AR v2)
Копирование... OK
Трек 13
Имя файла R:\Раздача 25\VA - Heartrock - Rock Fur's Herz vol.1 (2CD)\cd2\13 You Got It.wav
Длина предзазора 0:00:01.47
Пиковый уровень 93.1 %
Скорость извлечения 8.6 X
Качество трека 100.0 %
CRC теста 9004A140
CRC копии 9004A140
Точное извлечение (достоверность 21) [800B34B8] (AR v2)
Копирование... OK
Трек 14
Имя файла R:\Раздача 25\VA - Heartrock - Rock Fur's Herz vol.1 (2CD)\cd2\14 Moonlight Shadow.wav
Длина предзазора 0:00:01.40
Пиковый уровень 96.9 %
Скорость извлечения 8.9 X
Качество трека 100.0 %
CRC теста 611A6E27
CRC копии 611A6E27
Точное извлечение (достоверность 20) [E2FE3DD7] (AR v2)
Копирование... OK
Трек 15
Имя файла R:\Раздача 25\VA - Heartrock - Rock Fur's Herz vol.1 (2CD)\cd2\15 All Out Of Love.wav
Длина предзазора 0:00:01.40
Пиковый уровень 95.5 %
Скорость извлечения 9.2 X
Качество трека 100.0 %
CRC теста A1581AE0
CRC копии A1581AE0
Точное извлечение (достоверность 21) [6ACF5D6C] (AR v2)
Копирование... OK
Трек 16
Имя файла R:\Раздача 25\VA - Heartrock - Rock Fur's Herz vol.1 (2CD)\cd2\16 Everything I Own.wav
Длина предзазора 0:00:01.50
Пиковый уровень 95.4 %
Скорость извлечения 9.4 X
Качество трека 100.0 %
CRC теста C4FC1538
CRC копии C4FC1538
Точное извлечение (достоверность 21) [519A2B8F] (AR v2)
Копирование... OK
Трек 17
Имя файла R:\Раздача 25\VA - Heartrock - Rock Fur's Herz vol.1 (2CD)\cd2\17 Without You.wav
Длина предзазора 0:00:01.40
Пиковый уровень 99.8 %
Скорость извлечения 9.3 X
Качество трека 100.0 %
CRC теста F3FC79CA
CRC копии F3FC79CA
Точное извлечение (достоверность 21) [58E4459F] (AR v2)
Копирование... OK
Трек 18
Имя файла R:\Раздача 25\VA - Heartrock - Rock Fur's Herz vol.1 (2CD)\cd2\18 Dancing With Tears In My Eyes.wav
Длина предзазора 0:00:01.40
Пиковый уровень 95.6 %
Скорость извлечения 7.1 X
Качество трека 99.9 %
CRC теста DE44051B
CRC копии DE44051B
Точное извлечение (достоверность 20) [5AE65B3E] (AR v2)
Копирование... OK
Все треки извлечены точно
Ошибок не произошло
Конец отчёта
==== Контрольная сумма отчёта 1B3B0D63324A16A03F8670027BA1F76CADC5A8A5212F548AB089064A3697E4A7 ====

Содержание индексной карты (.CUE)

REM GENRE "Heart Rock"
REM DATE 1989
REM DISCID F210B612
REM COMMENT "ExactAudioCopy v1.0b3"
CATALOG 0000000000000
PERFORMER "VA"
TITLE "Heart Rock - Rock fur.s Herz Vol.1 (CD 2)"
FILE "01 Walk On The Wild Side.wav" WAVE
TRACK 01 AUDIO
TITLE "Walk On The Wild Side"
PERFORMER "Lou Reed"
PREGAP 00:00:33
INDEX 01 00:00:00
TRACK 02 AUDIO
TITLE "We Belong"
PERFORMER "Pat Benatar"
INDEX 00 04:13:07
FILE "02 We Belong.wav" WAVE
INDEX 01 00:00:00
TRACK 03 AUDIO
TITLE "Broken English"
PERFORMER "Marianne Faithfull"
INDEX 00 03:40:60
FILE "03 Broken English.wav" WAVE
INDEX 01 00:00:00
TRACK 04 AUDIO
TITLE "(I Just) Died In Your Arms"
PERFORMER "Cutting Crew"
INDEX 00 04:35:58
FILE "04 (I Just) Died In Your Arms.wav" WAVE
INDEX 01 00:00:00
TRACK 05 AUDIO
TITLE "Coming Around Again"
PERFORMER "Carly Simon"
INDEX 00 04:34:65
FILE "05 Coming Around Again.wav" WAVE
INDEX 01 00:00:00
TRACK 06 AUDIO
TITLE "Adesso Tu"
PERFORMER "Eros Ramazzotti"
INDEX 00 03:36:28
FILE "06 Adesso Tu.wav" WAVE
INDEX 01 00:00:00
TRACK 07 AUDIO
TITLE "Don.t Answer Me"
PERFORMER "The Alan Parsons Project"
INDEX 00 04:00:37
FILE "07 Don.t Answer Me.wav" WAVE
INDEX 01 00:00:00
TRACK 08 AUDIO
TITLE "Only You"
PERFORMER "The Flying Pickets"
INDEX 00 04:08:35
FILE "08 Only You.wav" WAVE
INDEX 01 00:00:00
TRACK 09 AUDIO
TITLE "More Than I Can Say"
PERFORMER "Leo Sayer"
INDEX 00 03:32:65
FILE "09 More Than I Can Say.wav" WAVE
INDEX 01 00:00:00
TRACK 10 AUDIO
TITLE "Never Gonna Fall In Love Again"
PERFORMER "Eric Carmen"
INDEX 00 03:41:40
FILE "10 Never Gonna Fall In Love Again.wav" WAVE
INDEX 01 00:00:00
TRACK 11 AUDIO
TITLE "I.ll Always Love You"
PERFORMER "Taylor Dayne"
INDEX 00 03:43:62
FILE "11 I.ll Always Love You.wav" WAVE
INDEX 01 00:00:00
TRACK 12 AUDIO
TITLE "First We Take Manhattan"
PERFORMER "Jennifer Warnes"
INDEX 00 04:17:70
FILE "12 First We Take Manhattan.wav" WAVE
INDEX 01 00:00:00
TRACK 13 AUDIO
TITLE "You Got It"
PERFORMER "Roy Orbison"
INDEX 00 03:44:00
FILE "13 You Got It.wav" WAVE
INDEX 01 00:00:00
TRACK 14 AUDIO
TITLE "Moonlight Shadow"
PERFORMER "Mike Oldfield"
INDEX 00 03:30:05
FILE "14 Moonlight Shadow.wav" WAVE
INDEX 01 00:00:00
TRACK 15 AUDIO
TITLE "All Out Of Love"
PERFORMER "Air Supply"
INDEX 00 03:37:30
FILE "15 All Out Of Love.wav" WAVE
INDEX 01 00:00:00
TRACK 16 AUDIO
TITLE "Everything I Own"
PERFORMER "Boy George"
INDEX 00 04:01:33
FILE "16 Everything I Own.wav" WAVE
INDEX 01 00:00:00
TRACK 17 AUDIO
TITLE "Without You"
PERFORMER "Nilsson"
INDEX 00 03:55:45
FILE "17 Without You.wav" WAVE
INDEX 01 00:00:00
TRACK 18 AUDIO
TITLE "Dancing With Tears In My Eyes"
PERFORMER "Ultravox"
INDEX 00 03:16:45
FILE "18 Dancing With Tears In My Eyes.wav" WAVE
INDEX 01 00:00:00

To download the file disable ad blocking, and reload the page.

disable adblock How to disable ad blocking?

Download by magnet link 894 MB Download Torrent

Login using:

Similar topics

(Hard Rock) [CD] Deep Purple - Infinite - 2017, FLAC (image+.cue), lossless
 367 MB   0 | 0   08-May-17 15:13   0
(Hard Rock) [WEB] Freedom Level - Wake Up - 2013, FLAC (tracks), lossless
 289 MB   0 | 0   08-May-17 15:13   0


   
Current time is: 20-Sep 01:16 :: All times are UTC ± 0