The BEATLES TAPES from the David Wigg interviews (2CD)
Жанр: Speech, Instrumental Music
Носитель: CD
Страна-производитель диска: USA
Год издания: 1976
Издатель (лейбл): Polydor Ltd. (UK)
Номер по каталогу: 42284 7185-2
Страна исполнителя (группы): GB
Аудиокодек: FLAC (*.flac)
Тип рипа: image+.cue
Битрейт аудио: lossless
Продолжительность: (00:52:25) + (00:43:29)
Источник (релизер): Личный диск
Наличие сканов в содержимом раздачи: да
Треклист:
DISC 1
JOHN LENNON WITH YOKO ONO
[01] Interview (Part 1) June 1969 [03:34]
[02] Give Peace A Chance instrumental [01:00]
[03] Interview (Part 2) June 1969 [08:42]
[04] Imagine instrumental [01:12]
[05] Interview (Part 3) June 1969 [08:15]
[06] Come Together instrumental [00:54]
[07] Interview October 1971 [09:25]
PAUL McCARTNEY
[08] Interview (Part 1) March 1970 [01:29]
[09] Because instrumental [01:37]
[10] Interview (Part 2) March 1970 [10:24]
[11] Yesterday instrumental [01:24]
[12] Interview (Part 3) March 1970 [01:32]
[13] Hey Jude instrumental [02:45]
DISC 2
GEORGE HARRISON
[01] Interview (Part 1) March 1969 [14:24]
[02] Here Comes The Sun instrumental [01:09]
[03] Interview (Part 2) March 1969 [05:31]
[04] Something instrumental [01:34]
RINGO STARR
[05] Interview December 1968 [03:28]
[06] Interview July 1970 [06:40]
[07] Interview (Part 1) December 1973 [04:47]
[08] Octopus's Garden instrumental [01:08]
[09] Interview (Part 2) December 1973 [03:39]
[10] Yellow Submarine instrumental [0:58]

EAC Disc 1

Exact Audio Copy V1.0 beta 3 from 29. August 2011
EAC extraction logfile from 27. September 2014, 18:05
Various / The Beatles Tapes: From The David Wigg Interviews (Disc 1)
Used drive : ASUS SDRW-08D1S-U Adapter: 1 ID: 0
Read mode : Secure
Utilize accurate stream : Yes
Defeat audio cache : Yes
Make use of C2 pointers : No
Read offset correction : 667
Overread into Lead-In and Lead-Out : No
Fill up missing offset samples with silence : Yes
Delete leading and trailing silent blocks : No
Null samples used in CRC calculations : Yes
Used interface : Native Win32 interface for Win NT & 2000
Used output format : User Defined Encoder
Selected bitrate : 128 kBit/s
Quality : High
Add ID3 tag : No
Command line compressor : C:\Program Files (x86)\Exact Audio Copy\Flac\flac.exe
Additional command line options : -V -8 -T "Date=%year%" -T "Genre=%genre%" %source%
TOC of the extracted CD
Track | Start | Length | Start sector | End sector
---------------------------------------------------------
1 | 0:00.32 | 3:34.38 | 32 | 16119
2 | 3:34.70 | 1:00.60 | 16120 | 20679
3 | 4:35.55 | 8:42.67 | 20680 | 59896
4 | 13:18.47 | 1:12.58 | 59897 | 65354
5 | 14:31.30 | 8:15.10 | 65355 | 102489
6 | 22:46.40 | 0:54.70 | 102490 | 106609
7 | 23:41.35 | 9:28.02 | 106610 | 149211
8 | 33:09.37 | 1:29.43 | 149212 | 155929
9 | 34:39.05 | 1:37.22 | 155930 | 163226
10 | 36:16.27 | 10:24.13 | 163227 | 210039
11 | 46:40.40 | 1:24.62 | 210040 | 216401
12 | 48:05.27 | 1:33.30 | 216402 | 223406
13 | 49:38.57 | 2:47.30 | 223407 | 235961
Range status and errors
Selected range
Filename C:\Users\Олег\Desktop\Beatles Tapes\Various - The Beatles Tapes- From The David Wigg Interviews (Disc 1).wav
Peak level 100.0 %
Extraction speed 4.0 X
Range quality 100.0 %
Test CRC 092D2D25
Copy CRC 092D2D25
Copy OK
No errors occurred
AccurateRip summary
Track 1 accurately ripped (confidence 1) [1A60533E] (AR v2)
Track 2 accurately ripped (confidence 1) [827FAE69] (AR v2)
Track 3 accurately ripped (confidence 1) [D98022E5] (AR v2)
Track 4 accurately ripped (confidence 1) [8ADF18A0] (AR v2)
Track 5 accurately ripped (confidence 1) [EE212168] (AR v2)
Track 6 accurately ripped (confidence 1) [E4B5AEC1] (AR v2)
Track 7 accurately ripped (confidence 1) [E3709A94] (AR v2)
Track 8 accurately ripped (confidence 1) [5CDEBCAB] (AR v2)
Track 9 accurately ripped (confidence 1) [C649170E] (AR v2)
Track 10 accurately ripped (confidence 1) [94B7F72B] (AR v2)
Track 11 accurately ripped (confidence 1) [12529EAC] (AR v2)
Track 12 accurately ripped (confidence 1) [73E16B56] (AR v2)
Track 13 accurately ripped (confidence 1) [3E9B586E] (AR v2)
All tracks accurately ripped
End of status report
==== Log checksum 7D68B57344291D4B4CBBED27C9AF70BD399A4AC0309741AAEEA5FE710E5D2455 ====

EAC Disc 2

Exact Audio Copy V1.0 beta 3 from 29. August 2011
EAC extraction logfile from 27. September 2014, 18:33
Various / The Beatles Tapes: From The David Wigg Interviews (Disc 2)
Used drive : ASUS SDRW-08D1S-U Adapter: 1 ID: 0
Read mode : Secure
Utilize accurate stream : Yes
Defeat audio cache : Yes
Make use of C2 pointers : No
Read offset correction : 667
Overread into Lead-In and Lead-Out : No
Fill up missing offset samples with silence : Yes
Delete leading and trailing silent blocks : No
Null samples used in CRC calculations : Yes
Used interface : Native Win32 interface for Win NT & 2000
Used output format : User Defined Encoder
Selected bitrate : 128 kBit/s
Quality : High
Add ID3 tag : No
Command line compressor : C:\Program Files (x86)\Exact Audio Copy\Flac\flac.exe
Additional command line options : -V -8 -T "Date=%year%" -T "Genre=%genre%" %source%
TOC of the extracted CD
Track | Start | Length | Start sector | End sector
---------------------------------------------------------
1 | 0:00.00 | 14:24.47 | 0 | 64846
2 | 14:24.47 | 1:09.08 | 64847 | 70029
3 | 15:33.55 | 5:31.57 | 70030 | 94911
4 | 21:05.37 | 1:35.20 | 94912 | 102056
5 | 22:40.57 | 3:30.08 | 102057 | 117814
6 | 26:10.65 | 6:42.55 | 117815 | 148019
7 | 32:53.45 | 4:47.57 | 148020 | 169601
8 | 37:41.27 | 1:08.43 | 169602 | 174744
9 | 38:49.70 | 3:40.02 | 174745 | 191246
10 | 42:29.72 | 0:59.08 | 191247 | 195679
Range status and errors
Selected range
Filename C:\Users\Олег\Desktop\Beatles Tapes\Disc Two\Various - The Beatles Tapes- From The David Wigg Interviews (Disc 2).wav
Peak level 100.0 %
Extraction speed 3.8 X
Range quality 100.0 %
Test CRC D8DC1253
Copy CRC D8DC1253
Copy OK
No errors occurred
AccurateRip summary
Track 1 accurately ripped (confidence 1) [517040FD] (AR v2)
Track 2 accurately ripped (confidence 1) [EDD86C3D] (AR v2)
Track 3 accurately ripped (confidence 1) [A3378614] (AR v2)
Track 4 accurately ripped (confidence 1) [966D3FE0] (AR v2)
Track 5 accurately ripped (confidence 1) [7CA9F5ED] (AR v2)
Track 6 accurately ripped (confidence 1) [9F603835] (AR v2)
Track 7 accurately ripped (confidence 1) [DFEF6814] (AR v2)
Track 8 accurately ripped (confidence 1) [36118AEF] (AR v2)
Track 9 accurately ripped (confidence 1) [4BB14E3F] (AR v2)
Track 10 accurately ripped (confidence 1) [275AE605] (AR v2)
All tracks accurately ripped
End of status report
==== Log checksum 144E688BB8BBB4E4875957F32EB0F3BEE5E6A462E1B31203FF440712B04CB2C1 ====

Содержание индексной карты Disc 1(.CUE)

REM GENRE Speech
REM DATE 1976
REM DISCID BA0C4A0D
REM COMMENT "ExactAudioCopy v1.0b3"
PERFORMER "Various"
TITLE "The Beatles Tapes: From The David Wigg Interviews (Disc 1)"
FILE "Various - The Beatles Tapes- From The David Wigg Interviews (Disc 1).flac" WAVE
TRACK 01 AUDIO
TITLE "Interview (Part 1) 6/1969"
PERFORMER "John Lennon with Yoko Ono"
INDEX 00 00:00:00
INDEX 01 00:00:32
TRACK 02 AUDIO
TITLE "Give Peace A Chance (instrumental)"
PERFORMER "John Lennon with Yoko Ono"
INDEX 01 03:34:70
TRACK 03 AUDIO
TITLE "Interview (Part 2) 6/1969"
PERFORMER "John Lennon with Yoko Ono"
INDEX 01 04:35:55
TRACK 04 AUDIO
TITLE "Imagine (instrumental)"
PERFORMER "John Lennon with Yoko Ono"
INDEX 01 13:18:47
TRACK 05 AUDIO
TITLE "Interview (Part 3) 6/1969"
PERFORMER "John Lennon with Yoko Ono"
INDEX 01 14:31:30
TRACK 06 AUDIO
TITLE "Come Together (instrumental)"
PERFORMER "John Lennon with Yoko Ono"
INDEX 01 22:46:40
TRACK 07 AUDIO
TITLE "Interview (October 1971)"
PERFORMER "John Lennon with Yoko Ono"
INDEX 01 23:41:35
TRACK 08 AUDIO
TITLE "Interview (Part 1) March 1970"
PERFORMER "Paul McCartney"
INDEX 00 33:07:30
INDEX 01 33:09:37
TRACK 09 AUDIO
TITLE "Because (instrumental)"
PERFORMER "Paul McCartney"
INDEX 01 34:39:05
TRACK 10 AUDIO
TITLE "Interview (Part 2) March 1970"
PERFORMER "Paul McCartney"
INDEX 01 36:16:27
TRACK 11 AUDIO
TITLE "Yesterday (instrumental)"
PERFORMER "Paul McCartney"
INDEX 01 46:40:40
TRACK 12 AUDIO
TITLE "Interview (Part 3) March 1970"
PERFORMER "Paul McCartney"
INDEX 00 48:05:15
INDEX 01 48:05:27
TRACK 13 AUDIO
TITLE "Hey Jude (instrumental)"
PERFORMER "Paul McCartney"
INDEX 00 49:38:30
INDEX 01 49:38:57

Содержание индексной карты Disc 2(.CUE)

REM GENRE Speech
REM DATE 1976
REM DISCID 8B0A310A
REM COMMENT "ExactAudioCopy v1.0b3"
PERFORMER "Various"
TITLE "The Beatles Tapes: From The David Wigg Interviews (Disc 2)"
FILE "Various - The Beatles Tapes- From The David Wigg Interviews (Disc 2).flac" WAVE
TRACK 01 AUDIO
TITLE "Interview (Part 1) March 1969"
PERFORMER "George Harrison"
INDEX 01 00:00:00
TRACK 02 AUDIO
TITLE "Here Comes The Sun (instrumental)"
PERFORMER "George Harrison"
INDEX 01 14:24:47
TRACK 03 AUDIO
TITLE "Interview (Part 2) March 1969"
PERFORMER "George Harrison"
INDEX 01 15:33:55
TRACK 04 AUDIO
TITLE "Something (instrumental)"
PERFORMER "George Harrison"
INDEX 00 21:05:22
INDEX 01 21:05:37
TRACK 05 AUDIO
TITLE "Interview December 1968"
PERFORMER "Ringo Starr"
INDEX 00 22:40:00
INDEX 01 22:40:57
TRACK 06 AUDIO
TITLE "Interview July 1970"
PERFORMER "Ringo Starr"
INDEX 00 26:09:22
INDEX 01 26:10:65
TRACK 07 AUDIO
TITLE "Interview (Part 1) December 1973"
PERFORMER "Ringo Starr"
INDEX 00 32:51:60
INDEX 01 32:53:45
TRACK 08 AUDIO
TITLE "Octopus's Garden (instrumental)"
PERFORMER "Ringo Starr"
INDEX 00 37:40:40
INDEX 01 37:41:27
TRACK 09 AUDIO
TITLE "Interview (Part 2) December 1973"
PERFORMER "Ringo Starr"
INDEX 00 38:49:47
INDEX 01 38:49:70
TRACK 10 AUDIO
TITLE "Yellow Submarine (instrumental)"
PERFORMER "Ringo Starr"
INDEX 00 42:29:40
INDEX 01 42:29:72

To download the file disable ad blocking, and reload the page.

disable adblock How to disable ad blocking?

Download by magnet link 426 MB Download Torrent

Login using:

Similar topics



   
Current time is: 15-Nov 21:55 :: All times are UTC + 3