George Martin/In My Life (With Heroes & Friends...)
Жанр: Classic Rock
Носитель: CD
Страна-производитель диска: Australia
Год издания: 1998
Издатель (лейбл): The Echo Label Ltd.
Номер по каталогу: LIBCD6108.2
Страна исполнителя (группы): GB
Аудиокодек: FLAC (*.flac)
Тип рипа: image+.cue
Битрейт аудио: lossless
Продолжительность: 00:47:17
Источник (релизер): Личный диск
Наличие сканов в содержимом раздачи: да
Треклист:
[01] Come Together (Robin Williams & Bobby McFerrin) [04:37]
[02] A Hard Day's Night (Goldie Hawn) [03:24]
[03] A Day in the Life (Jeff Beck) [04:43]
[04] Here, There and Everywhere (Celine Dion) [03:18]
[05] Because (Vanessa Mae) [03:18]
[06] I Am the Walrus (Jim Carrey) [04:31]
[07] Here Comes the Sun (John Williams) [03:31]
[08] Being for the Benefit of Mr. Kite (Billy Connolly) [02:58]
[09] The Pepperland Suite (George Martin) [06:19]
[10] Golden Slumbers/Carry That Weight/The End (Phil Collins) [05:38]
[11] Friends and Lovers (George Martin) [02:24]
[12] In My Life (Sean Connery) [02:30]

Лог создания рипа

Exact Audio Copy V1.0 beta 3 from 29. August 2011
EAC extraction logfile from 27. September 2014, 15:52
George Martin / George Martin/ In my life
Used drive : ASUS SDRW-08D1S-U Adapter: 1 ID: 0
Read mode : Secure
Utilize accurate stream : Yes
Defeat audio cache : Yes
Make use of C2 pointers : No
Read offset correction : 667
Overread into Lead-In and Lead-Out : No
Fill up missing offset samples with silence : Yes
Delete leading and trailing silent blocks : No
Null samples used in CRC calculations : Yes
Used interface : Native Win32 interface for Win NT & 2000
Used output format : User Defined Encoder
Selected bitrate : 128 kBit/s
Quality : High
Add ID3 tag : No
Command line compressor : C:\Program Files (x86)\Exact Audio Copy\Flac\flac.exe
Additional command line options : -V -8 -T "Date=%year%" -T "Genre=%genre%" %source%
TOC of the extracted CD
Track | Start | Length | Start sector | End sector
---------------------------------------------------------
1 | 0:00.00 | 4:37.49 | 0 | 20823
2 | 4:37.49 | 3:24.14 | 20824 | 36137
3 | 8:01.63 | 4:43.54 | 36138 | 57416
4 | 12:45.42 | 3:18.36 | 57417 | 72302
5 | 16:04.03 | 3:18.15 | 72303 | 87167
6 | 19:22.18 | 4:31.54 | 87168 | 107546
7 | 23:53.72 | 3:31.02 | 107547 | 123373
8 | 27:24.74 | 2:58.59 | 123374 | 136782
9 | 30:23.58 | 6:19.07 | 136783 | 165214
10 | 36:42.65 | 5:38.53 | 165215 | 190617
11 | 42:21.43 | 2:24.59 | 190618 | 201476
12 | 44:46.27 | 2:30.62 | 201477 | 212788
Range status and errors
Selected range
Filename C:\Users\Олег\Desktop\George Martin - George Martin, In my life.wav
Peak level 99.6 %
Extraction speed 3.5 X
Range quality 100.0 %
Test CRC 4520CE90
Copy CRC 4520CE90
Copy OK
No errors occurred
AccurateRip summary
Track 1 accurately ripped (confidence 1) [56B3A39D] (AR v2)
Track 2 accurately ripped (confidence 1) [6283AC1A] (AR v2)
Track 3 accurately ripped (confidence 1) [75C56EA7] (AR v2)
Track 4 accurately ripped (confidence 1) [BA8D1AC8] (AR v2)
Track 5 accurately ripped (confidence 1) [3CBB7648] (AR v2)
Track 6 accurately ripped (confidence 1) [5091FD5A] (AR v2)
Track 7 accurately ripped (confidence 1) [5592EA98] (AR v2)
Track 8 accurately ripped (confidence 1) [553E1521] (AR v2)
Track 9 accurately ripped (confidence 1) [EC00E30C] (AR v2)
Track 10 accurately ripped (confidence 1) [B2E1ED64] (AR v2)
Track 11 accurately ripped (confidence 1) [7B10F437] (AR v2)
Track 12 accurately ripped (confidence 1) [B02F420B] (AR v2)
All tracks accurately ripped
End of status report
==== Log checksum DE43911FEF4E53772FCA526EB6EDB3D917843CF88EC901BC48DF589A510B9EDC ====

Содержание индексной карты (.CUE)

REM GENRE Rock
REM DATE 1998
REM DISCID B40B150C
REM COMMENT "ExactAudioCopy v1.0b3"
PERFORMER "George Martin"
TITLE "George Martin/ In my life"
FILE "George Martin - George Martin, In my life.flac" WAVE
TRACK 01 AUDIO
TITLE "Come Together"
PERFORMER "George Martin"
INDEX 01 00:00:00
TRACK 02 AUDIO
TITLE "A Hard Day's Night"
PERFORMER "George Martin"
INDEX 01 04:37:49
TRACK 03 AUDIO
TITLE "A Day In The Life"
PERFORMER "George Martin"
INDEX 00 08:01:54
INDEX 01 08:01:63
TRACK 04 AUDIO
TITLE "Here There & Everywhere"
PERFORMER "George Martin"
INDEX 01 12:45:42
TRACK 05 AUDIO
TITLE "Because"
PERFORMER "George Martin"
INDEX 01 16:04:03
TRACK 06 AUDIO
TITLE "A Am The Walrus"
PERFORMER "George Martin"
INDEX 01 19:22:18
TRACK 07 AUDIO
TITLE "here Comes The Sun"
PERFORMER "George Martin"
INDEX 01 23:53:72
TRACK 08 AUDIO
TITLE "being For The benefit Of Mr. Kite"
PERFORMER "George Martin"
INDEX 01 27:24:74
TRACK 09 AUDIO
TITLE "The Pepperland Suite"
PERFORMER "George Martin"
INDEX 01 30:23:58
TRACK 10 AUDIO
TITLE "Golden Slumbers, Carry That Weight, The End"
PERFORMER "George Martin"
INDEX 01 36:42:65
TRACK 11 AUDIO
TITLE "Friends And Lovers"
PERFORMER "George Martin"
INDEX 01 42:21:43
TRACK 12 AUDIO
TITLE "In My Life"
PERFORMER "George Martin"
INDEX 01 44:46:27

To download the file disable ad blocking, and reload the page.

disable adblock How to disable ad blocking?

Download by magnet link 313 MB Download Torrent

Login using:

Similar topics



   
Current time is: 16-Nov 00:39 :: All times are UTC + 3