Various Artists - Classic Rock Presents - Prog Rocks!
--Жанр: Progressive Rock
Носитель: CD
Год издания: 2011
Аудиокодек: FLAC (*.flac)
Тип рипа: tracks+.cue
Битрейт аудио: lossless
Продолжительность: 01:15:28
Источник: internet
Наличие сканов: да
Треклист:
01. Jethro Tull - Locomotive Breath (New Stereo Mix) [00:04:41]
02. Van Der Graaf Generator - Refugees (Single Version) [00:06:21]
03. Barclay James Harvest - Galadriel [00:03:12]
04. Eloy - Castle In The Air [00:07:18]
05. Hatfield And The North - Lounging There Trying [00:03:15]
06. Steve Hackett - Cell 151 [00:06:25]
07. Marillion - Punch And Judy [00:03:19]
08. The Flower Kings - Monkey Business [00:04:24]
09. Riverside - Conceiving You [00:03:41]
10. Ayreon - Comatose [00:04:28]
11. Transatlantic - Overture And Whirlwind [00:05:05]
12. The Tangent - The Company Car [00:06:20]
13. ...And You Will Know Us By The Trail Of Dead - Pure Radio Cosplay [00:05:28]
14. Beardfish - Tightrope [00:04:32]
15. Karmakanic - Turn It Up [00:06:54]

-

Лог создания рипа

Exact Audio Copy V1.0 beta 3 from 29. August 2011
EAC extraction logfile from 9. July 2014, 14:39
Various Artists / Classic Rock Presents Prog: Prog Rocks!
Used drive : ATAPI iHAS124 W Adapter: 1 ID: 0
Read mode : Secure
Utilize accurate stream : Yes
Defeat audio cache : Yes
Make use of C2 pointers : No
Read offset correction : 48
Overread into Lead-In and Lead-Out : No
Fill up missing offset samples with silence : Yes
Delete leading and trailing silent blocks : No
Null samples used in CRC calculations : Yes
Used interface : Native Win32 interface for Win NT & 2000
Gap handling : Appended to previous track
Used output format : User Defined Encoder
Selected bitrate : 896 kBit/s
Quality : High
Add ID3 tag : No
Command line compressor : C:\Program Files (x86)\FLAC Frontend\tools\flac.exe
Additional command line options : -8 -V -T "artist=%artist%" -T "albumartist=%albumartist%" -T "album=%albumtitle%" -T "title=%title%" -T "year=%year%" -T "tracknumber=%tracknr2%" -T "genre=%genre%" %source% -o %dest%
TOC of the extracted CD
Track | Start | Length | Start sector | End sector
---------------------------------------------------------
1 | 0:00.00 | 4:41.23 | 0 | 21097
2 | 4:41.23 | 6:21.23 | 21098 | 49695
3 | 11:02.46 | 3:12.22 | 49696 | 64117
4 | 14:14.68 | 7:18.13 | 64118 | 96980
5 | 21:33.06 | 3:15.29 | 96981 | 111634
6 | 24:48.35 | 6:25.74 | 111635 | 140583
7 | 31:14.34 | 3:19.13 | 140584 | 155521
8 | 34:33.47 | 4:24.20 | 155522 | 175341
9 | 38:57.67 | 3:41.56 | 175342 | 191972
10 | 42:39.48 | 4:28.47 | 191973 | 212119
11 | 47:08.20 | 5:05.49 | 212120 | 235043
12 | 52:13.69 | 6:20.06 | 235044 | 263549
13 | 58:34.00 | 5:28.01 | 263550 | 288150
14 | 64:02.01 | 4:32.30 | 288151 | 308580
15 | 68:34.31 | 6:54.42 | 308581 | 339672
Track 1
Filename F:\My Documents\My Music\Albums (Complete)\01. Jethro Tull - Locomotive Breath (New Stereo Mix).wav
Pre-gap length 0:00:02.00
Peak level 90.1 %
Extraction speed 5.0 X
Track quality 100.0 %
Test CRC 1E65AE2F
Copy CRC 1E65AE2F
Accurately ripped (confidence 7) [17AC9FD5] (AR v2)
Copy OK
Track 2
Filename F:\My Documents\My Music\Albums (Complete)\02. Van Der Graaf Generator - Refugees (Single Version).wav
Pre-gap length 0:00:01.21
Peak level 78.0 %
Extraction speed 5.9 X
Track quality 100.0 %
Test CRC F11F198D
Copy CRC F11F198D
Accurately ripped (confidence 7) [57BF0775] (AR v2)
Copy OK
Track 3
Filename F:\My Documents\My Music\Albums (Complete)\03. Barclay James Harvest - Galadriel.wav
Pre-gap length 0:00:01.22
Peak level 83.0 %
Extraction speed 5.9 X
Track quality 100.0 %
Test CRC 1CAF1B2C
Copy CRC 1CAF1B2C
Accurately ripped (confidence 7) [A05D796C] (AR v2)
Copy OK
Track 4
Filename F:\My Documents\My Music\Albums (Complete)\04. Eloy - Castle In The Air.wav
Pre-gap length 0:00:01.22
Peak level 63.5 %
Extraction speed 7.0 X
Track quality 100.0 %
Test CRC 104BF1C1
Copy CRC 104BF1C1
Accurately ripped (confidence 7) [F8B50B45] (AR v2)
Copy OK
Track 5
Filename F:\My Documents\My Music\Albums (Complete)\05. Hatfield And The North - Lounging There Trying.wav
Pre-gap length 0:00:01.21
Peak level 99.1 %
Extraction speed 6.8 X
Track quality 100.0 %
Test CRC D56C2883
Copy CRC D56C2883
Accurately ripped (confidence 7) [2F2053EE] (AR v2)
Copy OK
Track 6
Filename F:\My Documents\My Music\Albums (Complete)\06. Steve Hackett - Cell 151.wav
Pre-gap length 0:00:01.21
Peak level 75.8 %
Extraction speed 7.7 X
Track quality 100.0 %
Test CRC 469C7BBC
Copy CRC 469C7BBC
Accurately ripped (confidence 7) [DB3EC8A7] (AR v2)
Copy OK
Track 7
Filename F:\My Documents\My Music\Albums (Complete)\07. Marillion - Punch And Judy.wav
Pre-gap length 0:00:01.22
Peak level 77.6 %
Extraction speed 5.0 X
Track quality 99.9 %
Test CRC F773036F
Copy CRC F773036F
Accurately ripped (confidence 7) [0588A386] (AR v2)
Copy OK
Track 8
Filename F:\My Documents\My Music\Albums (Complete)\08. The Flower Kings - Monkey Business.wav
Pre-gap length 0:00:01.21
Peak level 70.7 %
Extraction speed 5.7 X
Track quality 99.9 %
Test CRC 03E7D10F
Copy CRC 03E7D10F
Accurately ripped (confidence 7) [5CF67601] (AR v2)
Copy OK
Track 9
Filename F:\My Documents\My Music\Albums (Complete)\09. Riverside - Conceiving You.wav
Pre-gap length 0:00:01.21
Peak level 70.8 %
Extraction speed 5.5 X
Track quality 99.9 %
Test CRC 6DB17B1F
Copy CRC 6DB17B1F
Accurately ripped (confidence 7) [D85FD26A] (AR v2)
Copy OK
Track 10
Filename F:\My Documents\My Music\Albums (Complete)\10. Ayreon - Comatose.wav
Pre-gap length 0:00:01.22
Peak level 71.6 %
Extraction speed 8.6 X
Track quality 100.0 %
Test CRC 3F4031A0
Copy CRC 3F4031A0
Accurately ripped (confidence 7) [97C9CE78] (AR v2)
Copy OK
Track 11
Filename F:\My Documents\My Music\Albums (Complete)\11. Transatlantic - Overture And Whirlwind.wav
Pre-gap length 0:00:01.21
Peak level 63.0 %
Extraction speed 9.1 X
Track quality 100.0 %
Test CRC 7A65A53A
Copy CRC 7A65A53A
Accurately ripped (confidence 7) [C25C0F35] (AR v2)
Copy OK
Track 12
Filename F:\My Documents\My Music\Albums (Complete)\12. The Tangent - The Company Car.wav
Pre-gap length 0:00:01.22
Peak level 62.4 %
Extraction speed 9.5 X
Track quality 100.0 %
Test CRC 6A5223C9
Copy CRC 6A5223C9
Accurately ripped (confidence 7) [FA7C7661] (AR v2)
Copy OK
Track 13
Filename F:\My Documents\My Music\Albums (Complete)\13. ...And You Will Know Us By The Trail of Dead - Pure Radio Cosplay.wav
Pre-gap length 0:00:01.22
Peak level 63.8 %
Extraction speed 7.2 X
Track quality 99.9 %
Test CRC FE57F93F
Copy CRC FE57F93F
Accurately ripped (confidence 7) [D4EDC4A0] (AR v2)
Copy OK
Track 14
Filename F:\My Documents\My Music\Albums (Complete)\14. Beardfish - Tightrope.wav
Pre-gap length 0:00:01.22
Peak level 69.1 %
Extraction speed 9.7 X
Track quality 100.0 %
Test CRC D1AA27E8
Copy CRC D1AA27E8
Accurately ripped (confidence 7) [455C7511] (AR v2)
Copy OK
Track 15
Filename F:\My Documents\My Music\Albums (Complete)\15. Karmakanic - Turn It Up.wav
Pre-gap length 0:00:01.23
Peak level 70.9 %
Extraction speed 10.2 X
Track quality 100.0 %
Test CRC B3756A5B
Copy CRC B3756A5B
Accurately ripped (confidence 6) [17869FF5] (AR v2)
Copy OK
All tracks accurately ripped
No errors occurred
End of status report
==== Log checksum D53185FB08B8B316AB51F7A51171CBD8ABCDF364757A43E4BB823AE8872C6D47 ====

Содержание индексной карты (.CUE)

REM GENRE "Progressive Rock"
REM DATE 2011
REM DISCID DB11B00F
REM COMMENT "ExactAudioCopy v1.0b3"
PERFORMER "Various Artists"
TITLE "Classic Rock Presents Prog: Prog Rocks!"
FILE "01. Jethro Tull - Locomotive Breath (New Stereo Mix).wav" WAVE
TRACK 01 AUDIO
TITLE "Locomotive Breath (New Stereo Mix)"
PERFORMER "Jethro Tull"
INDEX 01 00:00:00
TRACK 02 AUDIO
TITLE "Refugees (Single Version)"
PERFORMER "Van Der Graaf Generator"
INDEX 00 04:40:02
FILE "02. Van Der Graaf Generator - Refugees (Single Version).wav" WAVE
INDEX 01 00:00:00
TRACK 03 AUDIO
TITLE "Galadriel"
PERFORMER "Barclay James Harvest"
INDEX 00 06:20:01
FILE "03. Barclay James Harvest - Galadriel.wav" WAVE
INDEX 01 00:00:00
TRACK 04 AUDIO
TITLE "Castle In The Air"
PERFORMER "Eloy"
INDEX 00 03:11:00
FILE "04. Eloy - Castle In The Air.wav" WAVE
INDEX 01 00:00:00
TRACK 05 AUDIO
TITLE "Lounging There Trying"
PERFORMER "Hatfield And The North"
INDEX 00 07:16:67
FILE "05. Hatfield And The North - Lounging There Trying.wav" WAVE
INDEX 01 00:00:00
TRACK 06 AUDIO
TITLE "Cell 151"
PERFORMER "Steve Hackett"
INDEX 00 03:14:08
FILE "06. Steve Hackett - Cell 151.wav" WAVE
INDEX 01 00:00:00
TRACK 07 AUDIO
TITLE "Punch And Judy"
PERFORMER "Marillion"
INDEX 00 06:24:52
FILE "07. Marillion - Punch And Judy.wav" WAVE
INDEX 01 00:00:00
TRACK 08 AUDIO
TITLE "Monkey Business"
PERFORMER "The Flower Kings"
INDEX 00 03:17:67
FILE "08. The Flower Kings - Monkey Business.wav" WAVE
INDEX 01 00:00:00
TRACK 09 AUDIO
TITLE "Conceiving You"
PERFORMER "Riverside"
INDEX 00 04:22:74
FILE "09. Riverside - Conceiving You.wav" WAVE
INDEX 01 00:00:00
TRACK 10 AUDIO
TITLE "Comatose"
PERFORMER "Ayreon"
INDEX 00 03:40:34
FILE "10. Ayreon - Comatose.wav" WAVE
INDEX 01 00:00:00
TRACK 11 AUDIO
TITLE "Overture And Whirlwind"
PERFORMER "Transatlantic"
INDEX 00 04:27:26
FILE "11. Transatlantic - Overture And Whirlwind.wav" WAVE
INDEX 01 00:00:00
TRACK 12 AUDIO
TITLE "The Company Car"
PERFORMER "The Tangent"
INDEX 00 05:04:27
FILE "12. The Tangent - The Company Car.wav" WAVE
INDEX 01 00:00:00
TRACK 13 AUDIO
TITLE "Pure Radio Cosplay"
PERFORMER "...And You Will Know Us By The Trail of Dead"
INDEX 00 06:18:59
FILE "13. ...And You Will Know Us By The Trail of Dead - Pure Radio Cosplay.wav" WAVE
INDEX 01 00:00:00
TRACK 14 AUDIO
TITLE "Tightrope"
PERFORMER "Beardfish"
INDEX 00 05:26:54
FILE "14. Beardfish - Tightrope.wav" WAVE
INDEX 01 00:00:00
TRACK 15 AUDIO
TITLE "Turn It Up"
PERFORMER "Karmakanic"
INDEX 00 04:31:07
FILE "15. Karmakanic - Turn It Up.wav" WAVE
INDEX 01 00:00:00

Лог проверки качества

-----------------------
DON'T MODIFY THIS FILE
-----------------------
PERFORMER: auCDtect Task Manager, ver. 1.5.1RC6 build 1.5.1.7
Copyright (c) 2008-2010 y-soft. All rights reserved
http://y-soft.org
ANALYZER: auCDtect: CD records authenticity detector, version 0.8.2
Copyright (c) 2004 Oleg Berngardt. All rights reserved.
Copyright (c) 2004 Alexander Djourik. All rights reserved.
FILE: 15. Karmakanic - Turn It Up.flac
Size: 51744580 Hash: 2DCD499DAFC78371B07510FA2EE8B4F0 Accuracy: -m0
Conclusion: CDDA 100%
Signature: 4362CFA7CBD707F807F722CC01993263CEFA30CC
FILE: 14. Beardfish - Tightrope.flac
Size: 28943494 Hash: ABDDEE8EB4514356B6019D29BBAA4FDD Accuracy: -m0
Conclusion: CDDA 100%
Signature: 83677E1E75041C66FC2EAA6CA8C5CCAF85C41B3E
FILE: 13. ...And You Will Know Us By The Trail Of Dead - Pure Radio Cosplay.flac
Size: 37115953 Hash: 4DA7410E53C85B6F907704E34E427FAE Accuracy: -m0
Conclusion: CDDA 100%
Signature: 674A569C6EF11C2A4D200567236A26F50DA6F51D
FILE: 12. The Tangent - The Company Car.flac
Size: 43066996 Hash: E909B13F4771BDE55779B51D95A6F78A Accuracy: -m0
Conclusion: CDDA 100%
Signature: 47D796C291713DD43458B622B5DE379B4FC0DCC1
FILE: 11. Transatlantic - Overture And Whirlwind.flac
Size: 36454236 Hash: AEA486E6C338B4C8E8A5159EC67D6D39 Accuracy: -m0
Conclusion: CDDA 100%
Signature: 007F5791B3E3C546390FE9C5E6575BD04155D91F
FILE: 10. Ayreon - Comatose.flac
Size: 22291374 Hash: 68BF6F168D665E953283230D13387D4D Accuracy: -m0
Conclusion: CDDA 100%
Signature: 645A35F40D29DD94F71A47BD118914FF8D7EBF9F
FILE: 09. Riverside - Conceiving You.flac
Size: 23679987 Hash: E4DBFA2A88116C5EBB064509C939F1DB Accuracy: -m0
Conclusion: CDDA 100%
Signature: A2F4A89D64E02E894559A1AFEBEA12D8D32A5AB5
FILE: 08. The Flower Kings - Monkey Business.flac
Size: 31444949 Hash: 8734383CDA3969F81EC1CC0CC7A958BF Accuracy: -m0
Conclusion: CDDA 99%
Signature: F043915EFF5A185AA29A1DA11B839902E217838D
FILE: 07. Marillion - Punch And Judy.flac
Size: 23481088 Hash: 244C9B54B373DB20C3C01B7D3975EE11 Accuracy: -m0
Conclusion: CDDA 100%
Signature: 06C004CAE043ACEF5A0F49D572654219C90F3AF1
FILE: 06. Steve Hackett - Cell 151.flac
Size: 43153846 Hash: D0D9002F3D50183FE3498CA5C7EA67D4 Accuracy: -m0
Conclusion: CDDA 100%
Signature: 2FAA96DC6A841A3F6A0BCCF3D48FD600834488BD
FILE: 05. Hatfield And The North - Lounging There Trying.flac
Size: 18039902 Hash: CEB7442E0919F6D60CE4FF4505FB6C9B Accuracy: -m0
Conclusion: CDDA 99%
Signature: 516FE058ADE1D706D75CAB268947DAFF20F9D3E0
FILE: 04. Eloy - Castle In The Air.flac
Size: 49461726 Hash: ADD6F0C5A23B16D2948768B012E3611A Accuracy: -m0
Conclusion: CDDA 100%
Signature: 920B64EC66B298F7E4504E2A798DEB83FCB225D1
FILE: 03. Barclay James Harvest - Galadriel.flac
Size: 17329454 Hash: 57A72F849F393A4F241D01BC08E9BA80 Accuracy: -m0
Conclusion: CDDA 100%
Signature: 060299A892B15BBEA6CCEECF011E606A5A0ED28F
FILE: 02. Van Der Graaf Generator - Refugees (Single Version).flac
Size: 38068893 Hash: FDB56BD4923E5276393BB75E17F10070 Accuracy: -m0
Conclusion: CDDA 100%
Signature: 244EDD8AF43B92AE492A39FD03240D64FF986C70
FILE: 01. Jethro Tull - Locomotive Breath (New Stereo Mix).flac
Size: 24887426 Hash: 30B880768B688C7CF78234126B6D2A53 Accuracy: -m0
Conclusion: CDDA 100%
Signature: A0565F2B4964ED3A08EE108F74434F9702F0654A

Скриншот спектра частот

To download the file disable ad blocking, and reload the page.

disable adblock How to disable ad blocking?

Download by magnet link 468 MB Download Torrent

Login using:

Similar topics



   
Current time is: 20-Sep 00:08 :: All times are UTC ± 0