Various Artists - Prog Awards Special - Garden Party Unsigned 2
--Жанр: Progressive Rock
Носитель: CD
производитель диска: EU
Год издания: 2013
Издатель (лейбл): TeamRock
Аудиокодек: FLAC (*.flac)
Тип рипа: tracks+.cue
Битрейт аудио: lossless
Продолжительность: 00:54:49
Источник : internet
Наличие сканов : да
Треклист:
01. Dang - Tantalus [00:07:28]
02. Zoner - Orison [00:06:04]
03. Tuval Cain - Nomad [00:04:34]
04. Vind Trae - The Sweeper Of Dreams [00:05:26]
05. And-Or - The Fountain [00:07:26]
06. The Prognosis - Inside My Head [00:10:33]
07. Pagan Harvest - Damascus [00:05:56]
08. Dad's Conundrum - Conundrum Suite [00:07:19]

-

Лог создания рипа

Exact Audio Copy V1.0 beta 3 from 29. August 2011
EAC extraction logfile from 12. December 2013, 15:24
Various Artists / Prog Awards Special - Garden Party, Unsigned 2
Used drive : ATAPI iHAS124 W Adapter: 1 ID: 0
Read mode : Secure
Utilize accurate stream : Yes
Defeat audio cache : Yes
Make use of C2 pointers : No
Read offset correction : 48
Overread into Lead-In and Lead-Out : No
Fill up missing offset samples with silence : Yes
Delete leading and trailing silent blocks : No
Null samples used in CRC calculations : Yes
Used interface : Native Win32 interface for Win NT & 2000
Gap handling : Appended to previous track
Used output format : User Defined Encoder
Selected bitrate : 896 kBit/s
Quality : High
Add ID3 tag : No
Command line compressor : C:\Program Files (x86)\FLAC\flac.exe
Additional command line options : -8 -V -T "artist=%artist%" -T "albumartist=%albumartist%" -T "album=%albumtitle%" -T "title=%title%" -T "year=%year%" -T "tracknumber=%tracknr2%" -T "genre=%genre%" %source% -o %dest%
TOC of the extracted CD
Track | Start | Length | Start sector | End sector
---------------------------------------------------------
1 | 0:00.00 | 7:28.44 | 0 | 33643
2 | 7:28.44 | 6:04.34 | 33644 | 60977
3 | 13:33.03 | 4:34.57 | 60978 | 81584
4 | 18:07.60 | 5:26.06 | 81585 | 106040
5 | 23:33.66 | 7:26.29 | 106041 | 139519
6 | 31:00.20 | 10:33.46 | 139520 | 187040
7 | 41:33.66 | 5:56.14 | 187041 | 213754
8 | 47:30.05 | 7:19.65 | 213755 | 246744
Track 1
Filename F:\My Documents\My Music\Albums (Complete)\01. Dang - Tantalus.wav
Pre-gap length 0:00:02.00
Peak level 96.6 %
Extraction speed 5.0 X
Track quality 100.0 %
Test CRC 728267AC
Copy CRC 728267AC
Accurately ripped (confidence 3) [84441F5F] (AR v2)
Copy OK
Track 2
Filename F:\My Documents\My Music\Albums (Complete)\02. Zoner - Orison.wav
Peak level 98.8 %
Extraction speed 5.7 X
Track quality 100.0 %
Test CRC 01B7C8CA
Copy CRC 01B7C8CA
Accurately ripped (confidence 3) [E0CE50EA] (AR v2)
Copy OK
Track 3
Filename F:\My Documents\My Music\Albums (Complete)\03. Tuval Cain - Nomad.wav
Peak level 100.0 %
Extraction speed 6.0 X
Track quality 100.0 %
Test CRC D003BE77
Copy CRC D003BE77
Accurately ripped (confidence 3) [DCED5BB8] (AR v2)
Copy OK
Track 4
Filename F:\My Documents\My Music\Albums (Complete)\04. Vind Trae - The Sweeper Of Dreams.wav
Peak level 99.6 %
Extraction speed 6.6 X
Track quality 100.0 %
Test CRC 20560313
Copy CRC 20560313
Accurately ripped (confidence 3) [8E830788] (AR v2)
Copy OK
Track 5
Filename F:\My Documents\My Music\Albums (Complete)\05. And-Or - The Fountain.wav
Peak level 98.8 %
Extraction speed 7.4 X
Track quality 100.0 %
Test CRC 40348E47
Copy CRC 40348E47
Accurately ripped (confidence 3) [472519AA] (AR v2)
Copy OK
Track 6
Filename F:\My Documents\My Music\Albums (Complete)\06. The Prognosis - Inside My Head.wav
Peak level 100.0 %
Extraction speed 8.2 X
Track quality 100.0 %
Test CRC 0DA9F0CE
Copy CRC 0DA9F0CE
Accurately ripped (confidence 3) [1838B29B] (AR v2)
Copy OK
Track 7
Filename F:\My Documents\My Music\Albums (Complete)\07. Pagan Harvest - Damascus.wav
Peak level 99.4 %
Extraction speed 8.5 X
Track quality 100.0 %
Test CRC E644F590
Copy CRC E644F590
Accurately ripped (confidence 4) [0CAFE04D] (AR v2)
Copy OK
Track 8
Filename F:\My Documents\My Music\Albums (Complete)\08. Dad's Conundrum - Conundrum Suite.wav
Peak level 98.8 %
Extraction speed 7.2 X
Track quality 99.9 %
Test CRC F0B9846F
Copy CRC F0B9846F
Accurately ripped (confidence 4) [B1B9C002] (AR v2)
Copy OK
All tracks accurately ripped
No errors occurred
End of status report
==== Log checksum 2D1EFDCA06C8BC829B3273D33C5EDDD5ADEA5615FEE2CCB33657C98C933EC1E4 ====

Содержание индексной карты (.CUE)

REM GENRE "Progressive Rock"
REM DATE 2013
REM DISCID 6C0CD908
REM COMMENT "ExactAudioCopy v1.0b3"
PERFORMER "Various Artists"
TITLE "Prog Awards Special - Garden Party, Unsigned 2"
FILE "01. Dang - Tantalus.wav" WAVE
TRACK 01 AUDIO
TITLE "Tantalus"
PERFORMER "Dang"
INDEX 01 00:00:00
FILE "02. Zoner - Orison.wav" WAVE
TRACK 02 AUDIO
TITLE "Orison"
PERFORMER "Zoner"
INDEX 01 00:00:00
FILE "03. Tuval Cain - Nomad.wav" WAVE
TRACK 03 AUDIO
TITLE "Nomad"
PERFORMER "Tuval Cain"
INDEX 01 00:00:00
FILE "04. Vind Trae - The Sweeper Of Dreams.wav" WAVE
TRACK 04 AUDIO
TITLE "The Sweeper Of Dreams"
PERFORMER "Vind Trae"
INDEX 01 00:00:00
FILE "05. And-Or - The Fountain.wav" WAVE
TRACK 05 AUDIO
TITLE "The Fountain"
PERFORMER "And-Or"
INDEX 01 00:00:00
FILE "06. The Prognosis - Inside My Head.wav" WAVE
TRACK 06 AUDIO
TITLE "Inside My Head"
PERFORMER "The Prognosis"
INDEX 01 00:00:00
FILE "07. Pagan Harvest - Damascus.wav" WAVE
TRACK 07 AUDIO
TITLE "Damascus"
PERFORMER "Pagan Harvest"
INDEX 01 00:00:00
FILE "08. Dad's Conundrum - Conundrum Suite.wav" WAVE
TRACK 08 AUDIO
TITLE "Conundrum Suite"
PERFORMER "Dad's Conundrum"
INDEX 01 00:00:00

Лог проверки качества

-----------------------
DON'T MODIFY THIS FILE
-----------------------
PERFORMER: auCDtect Task Manager, ver. 1.5.1RC6 build 1.5.1.7
Copyright (c) 2008-2010 y-soft. All rights reserved
http://y-soft.org
ANALYZER: auCDtect: CD records authenticity detector, version 0.8.2
Copyright (c) 2004 Oleg Berngardt. All rights reserved.
Copyright (c) 2004 Alexander Djourik. All rights reserved.
FILE: 08. Dad's Conundrum - Conundrum Suite.flac
Size: 30621238 Hash: E3FC35F865381AB63B161AFAD0A46804 Accuracy: -m0
Conclusion: CDDA 100%
Signature: D7A182E29333983F2EBA336CEC0207CE37F5B397
FILE: 07. Pagan Harvest - Damascus.flac
Size: 37265909 Hash: 4682D0FC0BDB96402DBEC25EAE19C9BD Accuracy: -m0
Conclusion: CDDA 100%
Signature: 3CDF357FD9B79995B1D6806395DB721CBD8EE836
FILE: 06. The Prognosis - Inside My Head.flac
Size: 70401670 Hash: ECB30B8ADA1EEBD4E1D1C23E879A8FF7 Accuracy: -m0
Conclusion: CDDA 99%
Signature: 88D25E90A493FF062CF4BA1FDFFFDBFEE6093FD8
FILE: 05. And-Or - The Fountain.flac
Size: 46151944 Hash: 9F64EDDB811A99BA0961A73C02C601E7 Accuracy: -m0
Conclusion: CDDA 100%
Signature: C6DF01E12C2B8DFFBBAE3D1787496DA5DA1DC057
FILE: 04. Vind Trae - The Sweeper Of Dreams.flac
Size: 26019713 Hash: A4215FE14D3B3BE53D63D063AC2C2102 Accuracy: -m0
Conclusion: CDDA 100%
Signature: CF94ACE849779151E266A028E1AF0C80188CA37A
FILE: 03. Tuval Cain - Nomad.flac
Size: 27723972 Hash: 2B3BF5DF0DFFB886617A83796AC80AB3 Accuracy: -m0
Conclusion: MPEG 95%
Signature: 3013F181275931A9A2DDF36D3BA70C196C0D6ACF
FILE: 02. Zoner - Orison.flac
Size: 35407408 Hash: 2DD068F02300659FA82E0E334F3DDCF8 Accuracy: -m0
Conclusion: CDDA 100%
Signature: E0CDDB49169D7AACAA312778B8A715A391144714
FILE: 01. Dang - Tantalus.flac
Size: 49908433 Hash: 13F4F5C8AB4DF2AA98F7DA1B7ED786E5 Accuracy: -m0
Conclusion: CDDA 100%
Signature: 7D99632CBE9FFC78B3D633680A30867E05A891A9

Скриншот спектра частот

To download the file disable ad blocking, and reload the page.

disable adblock How to disable ad blocking?

Download by magnet link 310 MB Download Torrent

Login using:

Similar topics



   
Current time is: 20-Sep 00:32 :: All times are UTC ± 0