Various Artists - Prog Unsigned
--Жанр: Progressive Rock
Носитель: CD
производитель диска: EU
Год издания: 2013
Издатель (лейбл): Future
Аудиокодек: FLAC (*.flac)
Тип рипа: tracks+.cue
Битрейт аудио: lossless
Продолжительность: 00:55:23
Источник: internet
Наличие сканов : да
Треклист:
01. Distorted Harmony - Obsession (Edit) [00:08:08]
02. FuseBoxx - No Glory [00:07:40]
03. De Vah Quartet - (We, The) Dark Angels [00:04:05]
04. Freedom To Glide - Wind And Gales (Rain, Part 3) [00:04:50]
05. Blue Mammoth - Growing [00:08:14]
06. Left Below - Monument [00:05:58]
07. Aaron Clift Experiment - Arsonist Games [00:03:23]
08. Weirdship - Trip To Nowhere [00:07:13]
09. Rayburn - Morning Train [00:05:49]
-

Лог создания рипа

Exact Audio Copy V1.0 beta 3 from 29. August 2011
EAC extraction logfile from 12. September 2014, 14:28
Various Artists / Prog: Unsigned
Used drive : ATAPI iHAS124 W Adapter: 1 ID: 0
Read mode : Secure
Utilize accurate stream : Yes
Defeat audio cache : Yes
Make use of C2 pointers : No
Read offset correction : 48
Overread into Lead-In and Lead-Out : No
Fill up missing offset samples with silence : Yes
Delete leading and trailing silent blocks : No
Null samples used in CRC calculations : Yes
Used interface : Native Win32 interface for Win NT & 2000
Gap handling : Appended to previous track
Used output format : User Defined Encoder
Selected bitrate : 896 kBit/s
Quality : High
Add ID3 tag : No
Command line compressor : C:\Program Files (x86)\FLAC Frontend\tools\flac.exe
Additional command line options : -8 -V -T "artist=%artist%" -T "albumartist=%albumartist%" -T "album=%albumtitle%" -T "title=%title%" -T "year=%year%" -T "tracknumber=%tracknr2%" -T "genre=%genre%" %source% -o %dest%
TOC of the extracted CD
Track | Start | Length | Start sector | End sector
---------------------------------------------------------
1 | 0:00.00 | 8:08.28 | 0 | 36627
2 | 8:08.28 | 7:40.35 | 36628 | 71162
3 | 15:48.63 | 4:05.11 | 71163 | 89548
4 | 19:53.74 | 4:50.10 | 89549 | 111308
5 | 24:44.09 | 8:14.45 | 111309 | 148403
6 | 32:58.54 | 5:58.57 | 148404 | 175310
7 | 38:57.36 | 3:23.13 | 175311 | 190548
8 | 42:20.49 | 7:13.24 | 190549 | 223047
9 | 49:33.73 | 5:49.38 | 223048 | 249260
Track 1
Filename F:\My Documents\My Music\Albums (Complete)\01. Distorted Harmony - Obsession (Edit).wav
Pre-gap length 0:00:02.00
Peak level 99.3 %
Extraction speed 4.8 X
Track quality 99.9 %
Test CRC BED4A22C
Copy CRC BED4A22C
Accurately ripped (confidence 1) [EDFE6968] (AR v1)
Copy OK
Track 2
Filename F:\My Documents\My Music\Albums (Complete)\02. FuseBoxx - No Glory.wav
Pre-gap length 0:00:02.00
Peak level 100.0 %
Extraction speed 5.6 X
Track quality 99.9 %
Test CRC C8DCEE1B
Copy CRC C8DCEE1B
Accurately ripped (confidence 1) [CE72517E] (AR v1)
Copy OK
Track 3
Filename F:\My Documents\My Music\Albums (Complete)\03. De Vah Quartet - (We, The) Dark Angels.wav
Pre-gap length 0:00:02.00
Peak level 100.0 %
Extraction speed 6.2 X
Track quality 100.0 %
Test CRC 69F11ACC
Copy CRC 69F11ACC
Accurately ripped (confidence 1) [957DCE3E] (AR v1)
Copy OK
Track 4
Filename F:\My Documents\My Music\Albums (Complete)\04. Freedom To Glide - Wind And Gales (Rain, Part 3).wav
Pre-gap length 0:00:02.00
Peak level 99.3 %
Extraction speed 6.1 X
Track quality 99.9 %
Test CRC 5D8191F6
Copy CRC 5D8191F6
Accurately ripped (confidence 1) [F01D54E8] (AR v1)
Copy OK
Track 5
Filename F:\My Documents\My Music\Albums (Complete)\05. Blue Mammoth - Growing.wav
Pre-gap length 0:00:02.00
Peak level 84.6 %
Extraction speed 7.6 X
Track quality 100.0 %
Test CRC 08E56E83
Copy CRC 08E56E83
Accurately ripped (confidence 1) [43786BC8] (AR v1)
Copy OK
Track 6
Filename F:\My Documents\My Music\Albums (Complete)\06. Left Below - Monument.wav
Pre-gap length 0:00:02.00
Peak level 98.8 %
Extraction speed 8.0 X
Track quality 100.0 %
Test CRC B2C65595
Copy CRC B2C65595
Accurately ripped (confidence 1) [7071BE78] (AR v1)
Copy OK
Track 7
Filename F:\My Documents\My Music\Albums (Complete)\07. Aaron Clift Experiment - Arsonist Games.wav
Pre-gap length 0:00:02.00
Peak level 96.4 %
Extraction speed 6.7 X
Track quality 99.9 %
Test CRC BA5C20E7
Copy CRC BA5C20E7
Accurately ripped (confidence 1) [919CABED] (AR v1)
Copy OK
Track 8
Filename F:\My Documents\My Music\Albums (Complete)\08. Weirdship - Trip To Nowhere.wav
Pre-gap length 0:00:02.00
Peak level 100.0 %
Extraction speed 8.7 X
Track quality 100.0 %
Test CRC 80986676
Copy CRC 80986676
Accurately ripped (confidence 1) [0CF03083] (AR v1)
Copy OK
Track 9
Filename F:\My Documents\My Music\Albums (Complete)\09. Rayburn - Morning Train.wav
Pre-gap length 0:00:02.00
Peak level 94.7 %
Extraction speed 8.9 X
Track quality 100.0 %
Test CRC E4A23392
Copy CRC E4A23392
Accurately ripped (confidence 1) [1C48AC54] (AR v1)
Copy OK
All tracks accurately ripped
No errors occurred
End of status report
==== Log checksum 1AF3C6092E821BB388D743A112EE02D0A9FD9AF389FD84848C7FECF8799A7F5A ====

Содержание индексной карты (.CUE)

REM GENRE "Progressive Rock"
REM DATE 2013
REM DISCID 870CFB09
REM COMMENT "ExactAudioCopy v1.0b3"
PERFORMER "Various Artists"
TITLE "Prog: Unsigned"
FILE "01. Distorted Harmony - Obsession (Edit).wav" WAVE
TRACK 01 AUDIO
TITLE "Obsession (Edit)"
PERFORMER "Distorted Harmony"
INDEX 01 00:00:00
TRACK 02 AUDIO
TITLE "No Glory"
PERFORMER "FuseBoxx"
INDEX 00 08:06:28
FILE "02. FuseBoxx - No Glory.wav" WAVE
INDEX 01 00:00:00
TRACK 03 AUDIO
TITLE "(We, The) Dark Angels"
PERFORMER "De Vah Quartet"
INDEX 00 07:38:35
FILE "03. De Vah Quartet - (We, The) Dark Angels.wav" WAVE
INDEX 01 00:00:00
TRACK 04 AUDIO
TITLE "Wind And Gales (Rain, Part 3)"
PERFORMER "Freedom To Glide"
INDEX 00 04:03:11
FILE "04. Freedom To Glide - Wind And Gales (Rain, Part 3).wav" WAVE
INDEX 01 00:00:00
TRACK 05 AUDIO
TITLE "Growing"
PERFORMER "Blue Mammoth"
INDEX 00 04:48:10
FILE "05. Blue Mammoth - Growing.wav" WAVE
INDEX 01 00:00:00
TRACK 06 AUDIO
TITLE "Monument"
PERFORMER "Left Below"
INDEX 00 08:12:45
FILE "06. Left Below - Monument.wav" WAVE
INDEX 01 00:00:00
TRACK 07 AUDIO
TITLE "Arsonist Games"
PERFORMER "Aaron Clift Experiment"
INDEX 00 05:56:57
FILE "07. Aaron Clift Experiment - Arsonist Games.wav" WAVE
INDEX 01 00:00:00
TRACK 08 AUDIO
TITLE "Trip To Nowhere"
PERFORMER "Weirdship"
INDEX 00 03:21:13
FILE "08. Weirdship - Trip To Nowhere.wav" WAVE
INDEX 01 00:00:00
TRACK 09 AUDIO
TITLE "Morning Train"
PERFORMER "Rayburn"
INDEX 00 07:11:24
FILE "09. Rayburn - Morning Train.wav" WAVE
INDEX 01 00:00:00

Лог проверки качества

-----------------------
DON'T MODIFY THIS FILE
-----------------------
PERFORMER: auCDtect Task Manager, ver. 1.5.1RC6 build 1.5.1.7
Copyright (c) 2008-2010 y-soft. All rights reserved
http://y-soft.org
ANALYZER: auCDtect: CD records authenticity detector, version 0.8.2
Copyright (c) 2004 Oleg Berngardt. All rights reserved.
Copyright (c) 2004 Alexander Djourik. All rights reserved.
FILE: 09. Rayburn - Morning Train.flac
Size: 37959854 Hash: B652829A591F4ADFF78E7E68E550DE93 Accuracy: -m0
Conclusion: CDDA 100%
Signature: 37A88D2B465DDF9F12394160A2E8E664EC328280
FILE: 08. Weirdship - Trip To Nowhere.flac
Size: 44787043 Hash: 8D4FFBA05CB2915C1911D7057B55E05D Accuracy: -m0
Conclusion: MPEG 95%
Signature: 084C614D9E8D319D2B0D1A8149361EB41A713B18
FILE: 07. Aaron Clift Experiment - Arsonist Games.flac
Size: 22157697 Hash: C621DB004350CCF8CF92C6DBBA6E8E1C Accuracy: -m0
Conclusion: CDDA 100%
Signature: 815C5715B33FFD332D642356301CEBB7B5D4A70E
FILE: 06. Left Below - Monument.flac
Size: 39846196 Hash: 17E455C5613BEFF78103F07F0ED37FA8 Accuracy: -m0
Conclusion: CDDA 100%
Signature: 6B7CC129B9C68660FAD814CD4F15A3BC7F60E134
FILE: 05. Blue Mammoth - Growing.flac
Size: 58882311 Hash: FCCCDE9AFF32ADA526DA77517611B9D4 Accuracy: -m0
Conclusion: CDDA 100%
Signature: BCC5F9C30DBC99EC2B53499B31AE98783C29B37C
FILE: 04. Freedom To Glide - Wind And Gales (Rain, Part 3).flac
Size: 28864599 Hash: 7364C2B9953B5DB81DFF187D7D813ABB Accuracy: -m0
Conclusion: CDDA 100%
Signature: 5247186DCC9F8F19B2B1F8FB87862691A8A5D3FA
FILE: 03. De Vah Quartet - (We, The) Dark Angels.flac
Size: 28689621 Hash: CD16DD31309E6DB2C88F0B4E39FEF11E Accuracy: -m0
Conclusion: CDDA 100%
Signature: 3479DEA606756D8990CEF4613FB8800F9FECF4F4
FILE: 02. FuseBoxx - No Glory.flac
Size: 61231274 Hash: FAA48F3E576F9CAEE565FFF37EB7925B Accuracy: -m0
Conclusion: CDDA 100%
Signature: 931A66EF6610704569207A784B3BC05CE925D04F
FILE: 01. Distorted Harmony - Obsession (Edit).flac
Size: 59279863 Hash: C929BE521D01A53197606E1E49CDDADD Accuracy: -m0
Conclusion: CDDA 100%
Signature: 89A7FFC9910F173CBE2FE1C7121AACB0C24439A7

Скриншот спектра частот

To download the file disable ad blocking, and reload the page.

disable adblock How to disable ad blocking?

Download by magnet link 366 MB Download Torrent

Login using:

Similar topics



   
Current time is: 23-Sep 16:42 :: All times are UTC ± 0