Various Artists - Classic Rock presents Prog: Prognosis 2.3
--Жанр: Progressive Rock
Носитель: CD
производитель диска: EU
Год издания: 2012
Издатель (лейбл): Future
Аудиокодек: FLAC (*.flac)
Тип рипа: tracks+.cue
Битрейт аудио: lossless
Продолжительность: 01:15:33
Источник: internet
Наличие сканов: да
Треклист:
01. Steve Thorne - Crimes And Reasons [00:04:27]
02. Flying Colours - Everything Changes [00:06:50]
03. Deeexpus - Me And My Downfall [00:06:51]
04. Also Eden - 1949 [00:09:09]
05. Gazpacho - Black Lily [00:05:00]
06. Steve Hogarth and Richard Barbieri - Red Kite [00:07:27]
07. Landmarq - Personal Universe [00:07:13]
08. Man On Fire - In A Sense [00:05:25]
09. The Institute Of Modern Love - Burning Houses (Radio Edit) [00:08:01]
10. Swallow The Sun - Hearts Wide Shut [00:05:57]
11. Amplifier - The Octopus [00:09:09]

-

Лог создания рипа

Exact Audio Copy V1.0 beta 3 from 29. August 2011
EAC extraction logfile from 8. May 2013, 22:03
Various Artists / Classic Rock presents Prog: Prognosis 2.3
Used drive : TSSTcorpCDDVDW SH-224BB Adapter: 1 ID: 0
Read mode : Secure
Utilize accurate stream : Yes
Defeat audio cache : Yes
Make use of C2 pointers : No
Read offset correction : 6
Overread into Lead-In and Lead-Out : No
Fill up missing offset samples with silence : Yes
Delete leading and trailing silent blocks : No
Null samples used in CRC calculations : Yes
Used interface : Native Win32 interface for Win NT & 2000
Gap handling : Appended to previous track
Used output format : User Defined Encoder
Selected bitrate : 896 kBit/s
Quality : High
Add ID3 tag : No
Command line compressor : C:\Program Files (x86)\FLAC\flac.exe
Additional command line options : -8 -V -T "artist=%artist%" -T "albumartist=%albumartist%" -T "album=%albumtitle%" -T "title=%title%" -T "year=%year%" -T "tracknumber=%tracknr2%" -T "genre=%genre%" %source% -o %dest%
TOC of the extracted CD
Track | Start | Length | Start sector | End sector
---------------------------------------------------------
1 | 0:00.00 | 4:27.63 | 0 | 20087
2 | 4:27.63 | 6:50.32 | 20088 | 50869
3 | 11:18.20 | 6:51.10 | 50870 | 81704
4 | 18:09.30 | 9:09.47 | 81705 | 122926
5 | 27:19.02 | 5:00.28 | 122927 | 145454
6 | 32:19.30 | 7:27.28 | 145455 | 179007
7 | 39:46.58 | 7:13.52 | 179008 | 211534
8 | 47:00.35 | 5:25.42 | 211535 | 235951
9 | 52:26.02 | 8:01.17 | 235952 | 272043
10 | 60:27.19 | 5:57.28 | 272044 | 298846
11 | 66:24.47 | 9:09.10 | 298847 | 340031
Track 1
Filename F:\My Documents\My Music\Albums (Complete)\01. Steve Thorne - Crimes And Reasons.wav
Pre-gap length 0:00:02.00
Peak level 99.4 %
Extraction speed 1.9 X
Track quality 100.0 %
Test CRC 8CCADDA1
Copy CRC 8CCADDA1
Accurately ripped (confidence 4) [2471A76F] (AR v2)
Copy OK
Track 2
Filename F:\My Documents\My Music\Albums (Complete)\02. Flying Colours - Everything Changes.wav
Pre-gap length 0:00:02.00
Peak level 100.0 %
Extraction speed 2.3 X
Track quality 100.0 %
Test CRC 0624F871
Copy CRC 0624F871
Accurately ripped (confidence 4) [C4E638C9] (AR v2)
Copy OK
Track 3
Filename F:\My Documents\My Music\Albums (Complete)\03. Deeexpus - Me And My Downfall.wav
Pre-gap length 0:00:02.00
Peak level 96.6 %
Extraction speed 2.5 X
Track quality 100.0 %
Test CRC 1478B356
Copy CRC 1478B356
Accurately ripped (confidence 4) [EF0337F8] (AR v2)
Copy OK
Track 4
Filename F:\My Documents\My Music\Albums (Complete)\04. Also Eden - 1949.wav
Pre-gap length 0:00:02.00
Peak level 100.0 %
Extraction speed 2.9 X
Track quality 100.0 %
Test CRC B2B159D4
Copy CRC B2B159D4
Accurately ripped (confidence 4) [4936FB02] (AR v2)
Copy OK
Track 5
Filename F:\My Documents\My Music\Albums (Complete)\05. Gazpacho - Black Lily.wav
Pre-gap length 0:00:02.00
Peak level 100.0 %
Extraction speed 3.0 X
Track quality 100.0 %
Test CRC 48A9DA82
Copy CRC 48A9DA82
Accurately ripped (confidence 4) [6DE91FC5] (AR v2)
Copy OK
Track 6
Filename F:\My Documents\My Music\Albums (Complete)\06. Steve Hogarth and Richard Barbieri - Red Kite.wav
Pre-gap length 0:00:02.00
Peak level 98.6 %
Extraction speed 3.3 X
Track quality 100.0 %
Test CRC 4C9CF580
Copy CRC 4C9CF580
Accurately ripped (confidence 4) [CBB73DE6] (AR v2)
Copy OK
Track 7
Filename F:\My Documents\My Music\Albums (Complete)\07. Landmarq - Personal Universe.wav
Pre-gap length 0:00:02.00
Peak level 96.6 %
Extraction speed 3.5 X
Track quality 100.0 %
Test CRC 1398AB29
Copy CRC 1398AB29
Accurately ripped (confidence 4) [C8F696D7] (AR v2)
Copy OK
Track 8
Filename F:\My Documents\My Music\Albums (Complete)\08. Man On Fire - In A Sense.wav
Pre-gap length 0:00:02.00
Peak level 96.6 %
Extraction speed 3.5 X
Track quality 100.0 %
Test CRC E3366765
Copy CRC E3366765
Accurately ripped (confidence 4) [FE0776CE] (AR v2)
Copy OK
Track 9
Filename F:\My Documents\My Music\Albums (Complete)\09. The Institute Of Modern Love - Burning Houses (Radio Edit).wav
Pre-gap length 0:00:02.00
Peak level 100.0 %
Extraction speed 3.8 X
Track quality 100.0 %
Test CRC B9D6486A
Copy CRC B9D6486A
Accurately ripped (confidence 4) [12F2C7F6] (AR v2)
Copy OK
Track 10
Filename F:\My Documents\My Music\Albums (Complete)\10. Swallow The Sun - Hearts Wide Shut.wav
Pre-gap length 0:00:02.00
Peak level 100.0 %
Extraction speed 3.9 X
Track quality 100.0 %
Test CRC F869A04D
Copy CRC F869A04D
Accurately ripped (confidence 4) [691E6082] (AR v2)
Copy OK
Track 11
Filename F:\My Documents\My Music\Albums (Complete)\11. Amplifier - The Octopus.wav
Pre-gap length 0:00:02.00
Peak level 99.7 %
Extraction speed 3.5 X
Track quality 99.9 %
Test CRC 347B3960
Copy CRC 347B3960
Accurately ripped (confidence 4) [CFA787BC] (AR v2)
Copy OK
All tracks accurately ripped
No errors occurred
End of status report
==== Log checksum 7AC324DC7AE93BBBF0CB15D22A0BB908B8F545CE19E6BC9579AA71962D0B359D ====

Содержание индексной карты (.CUE)

REM GENRE "Progressive Rock"
REM DATE 2012
REM DISCID A811B50B
REM COMMENT "ExactAudioCopy v1.0b3"
PERFORMER "Various Artists"
TITLE "Classic Rock presents Prog: Prognosis 2.3"
FILE "01. Steve Thorne - Crimes And Reasons.wav" WAVE
TRACK 01 AUDIO
TITLE "Crimes And Reasons"
PERFORMER "Steve Thorne"
INDEX 01 00:00:00
TRACK 02 AUDIO
TITLE "Everything Changes"
PERFORMER "Flying Colours"
INDEX 00 04:25:63
FILE "02. Flying Colours - Everything Changes.wav" WAVE
INDEX 01 00:00:00
TRACK 03 AUDIO
TITLE "Me And My Downfall"
PERFORMER "Deeexpus"
INDEX 00 06:48:32
FILE "03. Deeexpus - Me And My Downfall.wav" WAVE
INDEX 01 00:00:00
TRACK 04 AUDIO
TITLE "1949"
PERFORMER "Also Eden"
INDEX 00 06:49:10
FILE "04. Also Eden - 1949.wav" WAVE
INDEX 01 00:00:00
TRACK 05 AUDIO
TITLE "Black Lily"
PERFORMER "Gazpacho"
INDEX 00 09:07:47
FILE "05. Gazpacho - Black Lily.wav" WAVE
INDEX 01 00:00:00
TRACK 06 AUDIO
TITLE "Red Kite"
PERFORMER "Steve Hogarth and Richard Barbieri"
INDEX 00 04:58:28
FILE "06. Steve Hogarth and Richard Barbieri - Red Kite.wav" WAVE
INDEX 01 00:00:00
TRACK 07 AUDIO
TITLE "Personal Universe"
PERFORMER "Landmarq"
INDEX 00 07:25:28
FILE "07. Landmarq - Personal Universe.wav" WAVE
INDEX 01 00:00:00
TRACK 08 AUDIO
TITLE "In A Sense"
PERFORMER "Man On Fire"
INDEX 00 07:11:52
FILE "08. Man On Fire - In A Sense.wav" WAVE
INDEX 01 00:00:00
TRACK 09 AUDIO
TITLE "Burning Houses (Radio Edit)"
PERFORMER "The Institute Of Modern Love"
INDEX 00 05:23:42
FILE "09. The Institute Of Modern Love - Burning Houses (Radio Edit).wav" WAVE
INDEX 01 00:00:00
TRACK 10 AUDIO
TITLE "Hearts Wide Shut"
PERFORMER "Swallow The Sun"
INDEX 00 07:59:17
FILE "10. Swallow The Sun - Hearts Wide Shut.wav" WAVE
INDEX 01 00:00:00
TRACK 11 AUDIO
TITLE "The Octopus"
PERFORMER "Amplifier"
INDEX 00 05:55:28
FILE "11. Amplifier - The Octopus.wav" WAVE
INDEX 01 00:00:00

Лог проверки качества

-----------------------
DON'T MODIFY THIS FILE
-----------------------
PERFORMER: auCDtect Task Manager, ver. 1.5.1RC6 build 1.5.1.7
Copyright (c) 2008-2010 y-soft. All rights reserved
http://y-soft.org
ANALYZER: auCDtect: CD records authenticity detector, version 0.8.2
Copyright (c) 2004 Oleg Berngardt. All rights reserved.
Copyright (c) 2004 Alexander Djourik. All rights reserved.
FILE: 11. Amplifier - The Octopus.flac
Size: 57632217 Hash: 5EB03F6FB70600068F89C6F87D95EF24 Accuracy: -m0
Conclusion: CDDA 100%
Signature: 14E2C39C2B5BC4FD6F237DB34FD5C9E4421A7636
FILE: 10. Swallow The Sun - Hearts Wide Shut.flac
Size: 39544215 Hash: 4165645B61A4C2E9F3A6E8E96F1783EE Accuracy: -m0
Conclusion: CDDA 99%
Signature: 49E439DE4913B6D1C244A7FDCBE8826CD410D6C5
FILE: 09. The Institute Of Modern Love - Burning Houses (Radio Edit).flac
Size: 62045667 Hash: B407CA4C9DA9598347B14C3653AEEC33 Accuracy: -m0
Conclusion: CDDA 100%
Signature: B088C5A9543000454FD507F57979647437ED3026
FILE: 08. Man On Fire - In A Sense.flac
Size: 36693788 Hash: 05676759C37433D5C14D39437B9AED15 Accuracy: -m0
Conclusion: CDDA 100%
Signature: 3D328164D005107ED7756B9199E26838E5E6F2FD
FILE: 07. Landmarq - Personal Universe.flac
Size: 54647898 Hash: 2FA3D94066F40E0D82FF5DC28585B847 Accuracy: -m0
Conclusion: CDDA 100%
Signature: 652822331C3E4DAF1CE67CE315CA76223F0A5CDB
FILE: 06. Steve Hogarth and Richard Barbieri - Red Kite.flac
Size: 38191625 Hash: A008513184BA060EB720B89B058672C0 Accuracy: -m0
Conclusion: CDDA 100%
Signature: CA23F18871C859E99EE77AFCDD9D9F5B172FFB29
FILE: 05. Gazpacho - Black Lily.flac
Size: 29106632 Hash: 60DFF87F7753777166807392D9D566A6 Accuracy: -m0
Conclusion: MPEG 95%
Signature: C66F106C33F258A5B62809313893E3E72DF98294
FILE: 04. Also Eden - 1949.flac
Size: 56335783 Hash: 812F278C3753041420946A5A1497BB6F Accuracy: -m0
Conclusion: CDDA 100%
Signature: B1E5BFAFB6F74159CC02586B930B12C0399B39AB
FILE: 03. Deeexpus - Me And My Downfall.flac
Size: 51138244 Hash: 29C5DDADD2457DCC86984AE230C2F690 Accuracy: -m0
Conclusion: CDDA 99%
Signature: FD8A5EF12CEEF5D14EB9728AD1FA93A99E6DB192
FILE: 02. Flying Colours - Everything Changes.flac
Size: 50171887 Hash: 6DF38A8CAD3E2019FF29543B06841AAC Accuracy: -m0
Conclusion: CDDA 100%
Signature: 3046F4A5997549B4CB42B4EF6FD8AF470E135066
FILE: 01. Steve Thorne - Crimes And Reasons.flac
Size: 33290771 Hash: D7F327F851B4FB0D73BDF78747843BF7 Accuracy: -m0
Conclusion: CDDA 100%
Signature: 4EC36920239542A0A9BF972803CF5DF2664CE18B

Скриншот спектра частот

To download the file disable ad blocking, and reload the page.

disable adblock How to disable ad blocking?

Download by magnet link 487 MB Download Torrent

Login using:

Similar topics



   
Current time is: 23-Sep 15:47 :: All times are UTC ± 0