Various Artists - Classic Rock presents Prog: Prognosis 2.2
--Жанр: Progressive Rock
Носитель: CD
производитель диска: EU
Год издания: 2011
Издатель (лейбл): Future
Аудиокодек: FLAC (*.flac)
Тип рипа: tracks+.cue
Битрейт аудио: lossless
Продолжительность: 01:06:33
Источник: internet
Наличие сканов: да
Треклист:
01. Ben Craven - No Specific Harm [00:05:30]
02. Blueneck - Ellipsis [00:05:07]
03. Comedy Of Errors - The Student Prince, Part 2- And So To Bed [00:05:59]
04. District Myths - Heretic [00:03:23]
05. Frank Carducci - Achilles (Excerpts) [00:09:56]
06. Iona - Another Realm, Part III (Edited) [00:04:57]
07. Knight Area - Summerland [00:07:14]
08. Manning - The Southern Waves [00:08:49]
09. Morpheus Rising - Those Who Watch Must [00:05:16]
10. Mr. So&So - Oh Look! A Rainbow [00:05:20]
11. Ozone Player and Matt Howarth - Accidental Terrestrial Intervention [00:04:57]

-

Лог создания рипа

Exact Audio Copy V1.0 beta 3 from 29. August 2011
EAC extraction logfile from 8. May 2013, 20:36
Various Artists / Classic Rock presents Prog: Prognosis 2.2
Used drive : TSSTcorpCDDVDW SH-224BB Adapter: 1 ID: 0
Read mode : Secure
Utilize accurate stream : Yes
Defeat audio cache : Yes
Make use of C2 pointers : No
Read offset correction : 6
Overread into Lead-In and Lead-Out : No
Fill up missing offset samples with silence : Yes
Delete leading and trailing silent blocks : No
Null samples used in CRC calculations : Yes
Used interface : Native Win32 interface for Win NT & 2000
Gap handling : Appended to previous track
Used output format : User Defined Encoder
Selected bitrate : 896 kBit/s
Quality : High
Add ID3 tag : No
Command line compressor : C:\Program Files (x86)\FLAC\flac.exe
Additional command line options : -8 -V -T "artist=%artist%" -T "albumartist=%albumartist%" -T "album=%albumtitle%" -T "title=%title%" -T "year=%year%" -T "tracknumber=%tracknr2%" -T "genre=%genre%" %source% -o %dest%
TOC of the extracted CD
Track | Start | Length | Start sector | End sector
---------------------------------------------------------
1 | 0:00.00 | 5:30.24 | 0 | 24773
2 | 5:30.24 | 5:07.62 | 24774 | 47860
3 | 10:38.11 | 5:59.10 | 47861 | 74795
4 | 16:37.21 | 3:23.44 | 74796 | 90064
5 | 20:00.65 | 9:56.68 | 90065 | 134832
6 | 29:57.58 | 4:57.55 | 134833 | 157162
7 | 34:55.38 | 7:14.18 | 157163 | 189730
8 | 42:09.56 | 8:49.34 | 189731 | 229439
9 | 50:59.15 | 5:16.51 | 229440 | 253190
10 | 56:15.66 | 5:20.19 | 253191 | 277209
11 | 61:36.10 | 4:57.00 | 277210 | 299484
Track 1
Filename F:\My Documents\My Music\Albums (Complete)\01. Ben Craven - No Specific Harm.wav
Pre-gap length 0:00:02.00
Peak level 100.0 %
Extraction speed 1.7 X
Track quality 99.9 %
Test CRC CED6B7F1
Copy CRC CED6B7F1
Track not present in AccurateRip database
Copy OK
Track 2
Filename F:\My Documents\My Music\Albums (Complete)\02. Blueneck - Ellipsis.wav
Pre-gap length 0:00:02.00
Peak level 98.8 %
Extraction speed 2.1 X
Track quality 100.0 %
Test CRC B7670447
Copy CRC B7670447
Track not present in AccurateRip database
Copy OK
Track 3
Filename F:\My Documents\My Music\Albums (Complete)\03. Comedy Of Errors - The Student Prince, Part 2- And So To Bed.wav
Pre-gap length 0:00:02.00
Peak level 99.4 %
Extraction speed 2.4 X
Track quality 100.0 %
Test CRC 6CA0C1AF
Copy CRC 6CA0C1AF
Track not present in AccurateRip database
Copy OK
Track 4
Filename F:\My Documents\My Music\Albums (Complete)\04. District Myths - Heretic.wav
Pre-gap length 0:00:02.00
Peak level 100.0 %
Extraction speed 2.4 X
Track quality 100.0 %
Test CRC BDCDCB15
Copy CRC BDCDCB15
Track not present in AccurateRip database
Copy OK
Track 5
Filename F:\My Documents\My Music\Albums (Complete)\05. Frank Carducci - Achilles (Excerpts).wav
Pre-gap length 0:00:02.00
Peak level 96.6 %
Extraction speed 2.6 X
Track quality 99.9 %
Test CRC 3A18A8FB
Copy CRC 3A18A8FB
Track not present in AccurateRip database
Copy OK
Track 6
Filename F:\My Documents\My Music\Albums (Complete)\06. Iona - Another Realm, Part III (Edited).wav
Pre-gap length 0:00:02.00
Peak level 99.6 %
Extraction speed 2.9 X
Track quality 100.0 %
Test CRC F3C877A6
Copy CRC F3C877A6
Track not present in AccurateRip database
Copy OK
Track 7
Filename F:\My Documents\My Music\Albums (Complete)\07. Knight Area - Summerland.wav
Pre-gap length 0:00:02.00
Peak level 98.9 %
Extraction speed 2.8 X
Track quality 99.9 %
Test CRC 4F4DDADD
Copy CRC 4F4DDADD
Track not present in AccurateRip database
Copy OK
Track 8
Filename F:\My Documents\My Music\Albums (Complete)\08. Manning - The Southern Waves.wav
Pre-gap length 0:00:02.00
Peak level 93.5 %
Extraction speed 3.5 X
Track quality 100.0 %
Test CRC 267814CA
Copy CRC 267814CA
Track not present in AccurateRip database
Copy OK
Track 9
Filename F:\My Documents\My Music\Albums (Complete)\09. Morpheus Rising - Those Who Watch Must.wav
Pre-gap length 0:00:02.00
Peak level 97.5 %
Extraction speed 3.5 X
Track quality 100.0 %
Test CRC 0ACD354E
Copy CRC 0ACD354E
Track not present in AccurateRip database
Copy OK
Track 10
Filename F:\My Documents\My Music\Albums (Complete)\10. Mr. So&So - Oh Look! A Rainbow.wav
Pre-gap length 0:00:02.00
Peak level 100.0 %
Extraction speed 3.6 X
Track quality 100.0 %
Test CRC 2CD1A13F
Copy CRC 2CD1A13F
Track not present in AccurateRip database
Copy OK
Track 11
Filename F:\My Documents\My Music\Albums (Complete)\11. Ozone Player and Matt Howarth - Accidental Terrestrial Intervention.wav
Pre-gap length 0:00:02.00
Peak level 94.4 %
Extraction speed 3.8 X
Track quality 100.0 %
Test CRC 4D224B6A
Copy CRC 4D224B6A
Track not present in AccurateRip database
Copy OK
None of the tracks are present in the AccurateRip database
No errors occurred
End of status report
==== Log checksum 6227533FC6F0DD0C1047875BC1FA174EB8067B26C93E5657AEBB67C76EB73657 ====

Содержание индексной карты (.CUE)

EM GENRE "Progressive Rock"
REM DATE 2011
REM DISCID A30F990B
REM COMMENT "ExactAudioCopy v1.0b3"
PERFORMER "Various Artists"
TITLE "Classic Rock presents Prog: Prognosis 2.2"
FILE "01. Ben Craven - No Specific Harm.wav" WAVE
TRACK 01 AUDIO
TITLE "No Specific Harm"
PERFORMER "Ben Craven"
INDEX 01 00:00:00
TRACK 02 AUDIO
TITLE "Ellipsis"
PERFORMER "Blueneck"
INDEX 00 05:28:24
FILE "02. Blueneck - Ellipsis.wav" WAVE
INDEX 01 00:00:00
TRACK 03 AUDIO
TITLE "The Student Prince, Part 2: And So To Bed"
PERFORMER "Comedy Of Errors"
INDEX 00 05:05:62
FILE "03. Comedy Of Errors - The Student Prince, Part 2- And So To Bed.wav" WAVE
INDEX 01 00:00:00
TRACK 04 AUDIO
TITLE "Heretic"
PERFORMER "District Myths"
INDEX 00 05:57:10
FILE "04. District Myths - Heretic.wav" WAVE
INDEX 01 00:00:00
TRACK 05 AUDIO
TITLE "Achilles (Excerpts)"
PERFORMER "Frank Carducci"
INDEX 00 03:21:44
FILE "05. Frank Carducci - Achilles (Excerpts).wav" WAVE
INDEX 01 00:00:00
TRACK 06 AUDIO
TITLE "Another Realm, Part III (Edited)"
PERFORMER "Iona"
INDEX 00 09:54:68
FILE "06. Iona - Another Realm, Part III (Edited).wav" WAVE
INDEX 01 00:00:00
TRACK 07 AUDIO
TITLE "Summerland"
PERFORMER "Knight Area"
INDEX 00 04:55:55
FILE "07. Knight Area - Summerland.wav" WAVE
INDEX 01 00:00:00
TRACK 08 AUDIO
TITLE "The Southern Waves"
PERFORMER "Manning"
INDEX 00 07:12:18
FILE "08. Manning - The Southern Waves.wav" WAVE
INDEX 01 00:00:00
TRACK 09 AUDIO
TITLE "Those Who Watch Must"
PERFORMER "Morpheus Rising"
INDEX 00 08:47:34
FILE "09. Morpheus Rising - Those Who Watch Must.wav" WAVE
INDEX 01 00:00:00
TRACK 10 AUDIO
TITLE "Oh Look! A Rainbow"
PERFORMER "Mr. So&So"
INDEX 00 05:14:51
FILE "10. Mr. So&So - Oh Look! A Rainbow.wav" WAVE
INDEX 01 00:00:00
TRACK 11 AUDIO
TITLE "Accidental Terrestrial Intervention"
PERFORMER "Ozone Player and Matt Howarth"
INDEX 00 05:18:19
FILE "11. Ozone Player and Matt Howarth - Accidental Terrestrial Intervention.wav" WAVE
INDEX 01 00:00:00

Лог проверки качества

-----------------------
DON'T MODIFY THIS FILE
-----------------------
PERFORMER: auCDtect Task Manager, ver. 1.5.1RC6 build 1.5.1.7
Copyright (c) 2008-2010 y-soft. All rights reserved
http://y-soft.org
ANALYZER: auCDtect: CD records authenticity detector, version 0.8.2
Copyright (c) 2004 Oleg Berngardt. All rights reserved.
Copyright (c) 2004 Alexander Djourik. All rights reserved.
FILE: 11. Ozone Player and Matt Howarth - Accidental Terrestrial Intervention.flac
Size: 37705840 Hash: C7CD581E08A3EF93E3B3E80FF0B75692 Accuracy: -m0
Conclusion: CDDA 100%
Signature: D60E714DB725C33D91530A4E85C4C4C489B0D03D
FILE: 10. Mr. So&So - Oh Look! A Rainbow.flac
Size: 35292113 Hash: B8B4766C51E631C342AE41468E85A4E7 Accuracy: -m0
Conclusion: MPEG 95%
Signature: 71AF65412CB95270D08998EF15E5D0BEFC30F421
FILE: 09. Morpheus Rising - Those Who Watch Must.flac
Size: 36354190 Hash: 94850C2D5DCC79E0E391494B97348E75 Accuracy: -m0
Conclusion: CDDA 100%
Signature: 0927B2B5D883CBEB1335DB7AB8A69EC78CD5201F
FILE: 08. Manning - The Southern Waves.flac
Size: 55206794 Hash: E9B23E050AE1ADD74C49D593ADACE4E5 Accuracy: -m0
Conclusion: CDDA 99%
Signature: 81F51165DD055F2EACC6D4635B43994EC6108F7F
FILE: 07. Knight Area - Summerland.flac
Size: 55457849 Hash: 247A582F8BDF69B4BF9265B5396FCDD9 Accuracy: -m0
Conclusion: CDDA 100%
Signature: 2DAACCB10EAFFD34DA85E29071E3D19E4E54AA46
FILE: 06. Iona - Another Realm, Part III (Edited).flac
Size: 35033045 Hash: C43E9CB904F21DAD9EE5835FD9898780 Accuracy: -m0
Conclusion: CDDA 100%
Signature: 8515CDB955EE9CB31B22B17ED59DBBAEEC7B8CFB
FILE: 05. Frank Carducci - Achilles (Excerpts).flac
Size: 69612400 Hash: 0E2816557DD083EDD24C7E4EE4D4E6CD Accuracy: -m0
Conclusion: CDDA 100%
Signature: 04FE6CC2C7759AFE20E8E5BFE194CF06B2F291EC
FILE: 04. District Myths - Heretic.flac
Size: 23546406 Hash: 15A0DA1FA6625D8B6DD2512072DA1E25 Accuracy: -m0
Conclusion: CDDA 100%
Signature: 3FE0DD6F8C311D05FF01739795FEE70403216784
FILE: 03. Comedy Of Errors - The Student Prince, Part 2- And So To Bed.flac
Size: 49638687 Hash: 81D57AD217B73972241FA8B1F3E6ACEA Accuracy: -m0
Conclusion: CDDA 100%
Signature: B3E4D7FA8B1E4E2578AD5396AEC60FE40829C43E
FILE: 02. Blueneck - Ellipsis.flac
Size: 26444624 Hash: 8B00D71D83B0A86E2ED928EA62AF07C1 Accuracy: -m0
Conclusion: CDDA 99%
Signature: 424A861B87A205099C9F0B4A8C0A54E2A4D9FF8D
FILE: 01. Ben Craven - No Specific Harm.flac
Size: 39643963 Hash: 13ABA9582C222D7E4C8425E6572E4D66 Accuracy: -m0
Conclusion: CDDA 100%
Signature: A05014382A4E300F7A144DD4FF7C6D0F59985C4B

Скриншот спектра частот

To download the file disable ad blocking, and reload the page.

disable adblock How to disable ad blocking?

Download by magnet link 444 MB Download Torrent

Login using:

Similar topics



   
Current time is: 15-Nov 22:00 :: All times are UTC + 3