Various Artists - Classic Rock presents Prog: Prognosis 2.1
--Жанр: Progressive Rock
Носитель: CD
производитель диска: EU
Год издания: 2011
Издатель (лейбл): Future
Аудиокодек: FLAC (*.flac)
Тип рипа: tracks+.cue
Битрейт аудио: lossless
Продолжительность: 01:14:48
Источник: internet
Наличие сканов: да
Треклист:
01. Opeth - The Devil's Orchard [00:06:30]
02. Haken - Insomnia [00:06:02]
03. Warmrain - Absent Friends [00:08:44]
04. White Willow - Floor 67 [00:09:56]
05. Touchstone - Throw Them To The Sky [00:05:02]
06. Airbag - Homesick, Part 1 [00:05:47]
07. Jono El Grande - Neo Dada [00:04:19]
08. Swan Sex - The First And Last In [00:07:26]
09. The Mantra ATSMM - Blue Army [00:04:06]
10. Matt Stevens - Nightbus [00:03:55]
11. Voyager - Broken [00:04:45]
12. Hedvig Mollestad Trio - Ashes [00:04:30]
13. Trip Lava - March To Battle [00:03:39]
-

Лог создания рипа

Exact Audio Copy V1.0 beta 3 from 29. August 2011
EAC extraction logfile from 8. May 2013, 17:45
Various / Classic Rock presents Prog: Prognosis 2.1
Used drive : TSSTcorpCDDVDW SH-224BB Adapter: 1 ID: 0
Read mode : Secure
Utilize accurate stream : Yes
Defeat audio cache : Yes
Make use of C2 pointers : No
Read offset correction : 6
Overread into Lead-In and Lead-Out : No
Fill up missing offset samples with silence : Yes
Delete leading and trailing silent blocks : No
Null samples used in CRC calculations : Yes
Used interface : Native Win32 interface for Win NT & 2000
Gap handling : Appended to previous track
Used output format : User Defined Encoder
Selected bitrate : 896 kBit/s
Quality : High
Add ID3 tag : No
Command line compressor : C:\Program Files (x86)\FLAC\flac.exe
Additional command line options : -8 -V -T "artist=%artist%" -T "albumartist=%albumartist%" -T "album=%albumtitle%" -T "title=%title%" -T "year=%year%" -T "tracknumber=%tracknr2%" -T "genre=%genre%" %source% -o %dest%
TOC of the extracted CD
Track | Start | Length | Start sector | End sector
---------------------------------------------------------
1 | 0:00.00 | 6:30.50 | 0 | 29299
2 | 6:30.50 | 6:02.45 | 29300 | 56494
3 | 12:33.20 | 8:44.73 | 56495 | 95867
4 | 21:18.18 | 9:56.27 | 95868 | 140594
5 | 31:14.45 | 5:02.73 | 140595 | 163317
6 | 36:17.43 | 5:47.57 | 163318 | 189399
7 | 42:05.25 | 4:19.02 | 189400 | 208826
8 | 46:24.27 | 7:26.48 | 208827 | 242324
9 | 53:51.00 | 4:06.25 | 242325 | 260799
10 | 57:57.25 | 3:55.34 | 260800 | 278458
11 | 61:52.59 | 4:45.38 | 278459 | 299871
12 | 66:38.22 | 4:30.35 | 299872 | 320156
13 | 71:08.57 | 3:39.27 | 320157 | 336608
Track 1
Filename F:\My Documents\My Music\Albums (Complete)\01. Opeth - The Devil's Orchard.wav
Pre-gap length 0:00:02.00
Peak level 99.2 %
Extraction speed 2.0 X
Track quality 100.0 %
Test CRC CD9D3EDC
Copy CRC CD9D3EDC
Accurately ripped (confidence 3) [93865D90] (AR v2)
Copy OK
Track 2
Filename F:\My Documents\My Music\Albums (Complete)\02. Haken - Insomnia.wav
Pre-gap length 0:00:02.00
Peak level 98.8 %
Extraction speed 2.3 X
Track quality 100.0 %
Test CRC A75369CE
Copy CRC A75369CE
Accurately ripped (confidence 3) [F9ABBB79] (AR v2)
Copy OK
Track 3
Filename F:\My Documents\My Music\Albums (Complete)\03. Warmrain - Absent Friends.wav
Pre-gap length 0:00:02.00
Peak level 79.4 %
Extraction speed 2.6 X
Track quality 100.0 %
Test CRC FBFBAA08
Copy CRC FBFBAA08
Accurately ripped (confidence 3) [75471F59] (AR v2)
Copy OK
Track 4
Filename F:\My Documents\My Music\Albums (Complete)\04. White Willow - Floor 67.wav
Pre-gap length 0:00:02.00
Peak level 98.8 %
Extraction speed 3.0 X
Track quality 100.0 %
Test CRC 689EB189
Copy CRC 689EB189
Accurately ripped (confidence 3) [8F97D51A] (AR v2)
Copy OK
Track 5
Filename F:\My Documents\My Music\Albums (Complete)\05. Touchstone - Throw Them To The Sky.wav
Pre-gap length 0:00:02.00
Peak level 97.7 %
Extraction speed 3.0 X
Track quality 100.0 %
Test CRC D74598D9
Copy CRC D74598D9
Accurately ripped (confidence 3) [46251CB7] (AR v2)
Copy OK
Track 6
Filename F:\My Documents\My Music\Albums (Complete)\06. Airbag - Homesick, Part 1.wav
Pre-gap length 0:00:02.00
Peak level 97.1 %
Extraction speed 3.3 X
Track quality 100.0 %
Test CRC 2BAA794D
Copy CRC 2BAA794D
Accurately ripped (confidence 3) [8405B1D1] (AR v2)
Copy OK
Track 7
Filename F:\My Documents\My Music\Albums (Complete)\07. Jono El Grande - Neo Dada.wav
Pre-gap length 0:00:02.00
Peak level 96.6 %
Extraction speed 3.2 X
Track quality 100.0 %
Test CRC 9E3B1D66
Copy CRC 9E3B1D66
Accurately ripped (confidence 3) [B610E461] (AR v2)
Copy OK
Track 8
Filename F:\My Documents\My Music\Albums (Complete)\08. Swan Sex - The First And Last In.wav
Pre-gap length 0:00:02.00
Peak level 87.8 %
Extraction speed 3.6 X
Track quality 100.0 %
Test CRC CC65BF52
Copy CRC CC65BF52
Accurately ripped (confidence 3) [F46AE2CC] (AR v2)
Copy OK
Track 9
Filename F:\My Documents\My Music\Albums (Complete)\09. The Mantra ATSMM - Blue Army.wav
Pre-gap length 0:00:02.00
Peak level 96.6 %
Extraction speed 2.6 X
Track quality 99.9 %
Test CRC 2EFC6A26
Copy CRC 2EFC6A26
Accurately ripped (confidence 3) [C4ACE056] (AR v2)
Copy OK
Track 10
Filename F:\My Documents\My Music\Albums (Complete)\10. Matt Stevens - Nightbus.wav
Pre-gap length 0:00:02.00
Peak level 100.0 %
Extraction speed 3.5 X
Track quality 100.0 %
Test CRC 3E91DF51
Copy CRC 3E91DF51
Accurately ripped (confidence 3) [1705CCD2] (AR v2)
Copy OK
Track 11
Filename F:\My Documents\My Music\Albums (Complete)\11. Voyager - Broken.wav
Pre-gap length 0:00:02.00
Peak level 98.8 %
Extraction speed 2.8 X
Track quality 99.9 %
Test CRC 32846866
Copy CRC 32846866
Accurately ripped (confidence 3) [D1ACF858] (AR v2)
Copy OK
Track 12
Filename F:\My Documents\My Music\Albums (Complete)\12. Hedvig Mollestad Trio - Ashes.wav
Pre-gap length 0:00:02.00
Peak level 100.0 %
Extraction speed 3.8 X
Track quality 100.0 %
Test CRC 4BC82CA7
Copy CRC 4BC82CA7
Accurately ripped (confidence 3) [CC74E0EB] (AR v2)
Copy OK
Track 13
Filename F:\My Documents\My Music\Albums (Complete)\13. Trip Lava - March To Battle.wav
Pre-gap length 0:00:02.00
Peak level 98.9 %
Extraction speed 3.8 X
Track quality 100.0 %
Test CRC B66A54A5
Copy CRC B66A54A5
Accurately ripped (confidence 3) [041D38DB] (AR v2)
Copy OK
All tracks accurately ripped
No errors occurred
End of status report
==== Log checksum 25F89BB1109C63839E6E77F83470747B11E472E8A8BC44D561F5D861F45CF8F5 ====

Содержание индексной карты (.CUE)

REM GENRE "Progressive Rock"
REM DATE 2011
REM DISCID BE11880D
REM COMMENT "ExactAudioCopy v1.0b3"
PERFORMER "Various"
TITLE "Classic Rock presents Prog: Prognosis 2.1"
FILE "01. Opeth - The Devil's Orchard.wav" WAVE
TRACK 01 AUDIO
TITLE "The Devil's Orchard"
PERFORMER "Opeth"
INDEX 01 00:00:00
TRACK 02 AUDIO
TITLE "Insomnia"
PERFORMER "Haken"
INDEX 00 06:28:50
FILE "02. Haken - Insomnia.wav" WAVE
INDEX 01 00:00:00
TRACK 03 AUDIO
TITLE "Absent Friends"
PERFORMER "Warmrain"
INDEX 00 06:00:45
FILE "03. Warmrain - Absent Friends.wav" WAVE
INDEX 01 00:00:00
TRACK 04 AUDIO
TITLE "Floor 67"
PERFORMER "White Willow"
INDEX 00 08:42:73
FILE "04. White Willow - Floor 67.wav" WAVE
INDEX 01 00:00:00
TRACK 05 AUDIO
TITLE "Throw Them To The Sky"
PERFORMER "Touchstone"
INDEX 00 09:54:27
FILE "05. Touchstone - Throw Them To The Sky.wav" WAVE
INDEX 01 00:00:00
TRACK 06 AUDIO
TITLE "Homesick, Part 1"
PERFORMER "Airbag"
INDEX 00 05:00:73
FILE "06. Airbag - Homesick, Part 1.wav" WAVE
INDEX 01 00:00:00
TRACK 07 AUDIO
TITLE "Neo Dada"
PERFORMER "Jono El Grande"
INDEX 00 05:45:57
FILE "07. Jono El Grande - Neo Dada.wav" WAVE
INDEX 01 00:00:00
TRACK 08 AUDIO
TITLE "The First And Last In"
PERFORMER "Swan Sex"
INDEX 00 04:17:02
FILE "08. Swan Sex - The First And Last In.wav" WAVE
INDEX 01 00:00:00
TRACK 09 AUDIO
TITLE "Blue Army"
PERFORMER "The Mantra ATSMM"
INDEX 00 07:24:48
FILE "09. The Mantra ATSMM - Blue Army.wav" WAVE
INDEX 01 00:00:00
TRACK 10 AUDIO
TITLE "Nightbus"
PERFORMER "Matt Stevens"
INDEX 00 04:04:25
FILE "10. Matt Stevens - Nightbus.wav" WAVE
INDEX 01 00:00:00
TRACK 11 AUDIO
TITLE "Broken"
PERFORMER "Voyager"
INDEX 00 03:53:34
FILE "11. Voyager - Broken.wav" WAVE
INDEX 01 00:00:00
TRACK 12 AUDIO
TITLE "Ashes"
PERFORMER "Hedvig Mollestad Trio"
INDEX 00 04:43:38
FILE "12. Hedvig Mollestad Trio - Ashes.wav" WAVE
INDEX 01 00:00:00
TRACK 13 AUDIO
TITLE "March To Battle"
PERFORMER "Trip Lava"
INDEX 00 04:28:35
FILE "13. Trip Lava - March To Battle.wav" WAVE
INDEX 01 00:00:00

Лог проверки качества

-----------------------
DON'T MODIFY THIS FILE
-----------------------
PERFORMER: auCDtect Task Manager, ver. 1.5.1RC6 build 1.5.1.7
Copyright (c) 2008-2010 y-soft. All rights reserved
http://y-soft.org
ANALYZER: auCDtect: CD records authenticity detector, version 0.8.2
Copyright (c) 2004 Oleg Berngardt. All rights reserved.
Copyright (c) 2004 Alexander Djourik. All rights reserved.
FILE: 13. Trip Lava - March To Battle.flac
Size: 25459508 Hash: 289ADE0801CA20A799C002A38F9BD7EE Accuracy: -m0
Conclusion: CDDA 100%
Signature: BE0F5F1CD56A57BE201D415726788B55DCF82F05
FILE: 12. Hedvig Mollestad Trio - Ashes.flac
Size: 33101926 Hash: CD5D64C816551AF29697A9FF9808A055 Accuracy: -m0
Conclusion: CDDA 100%
Signature: 8DEF3D840FCE198AB6BE94C4000CD8533026E5A5
FILE: 11. Voyager - Broken.flac
Size: 36379898 Hash: 38D0CC02C9C977A7279BC79A69118060 Accuracy: -m0
Conclusion: CDDA 100%
Signature: 5BE78E45DA7A8F6E99832548C640142156694879
FILE: 10. Matt Stevens - Nightbus.flac
Size: 23968002 Hash: BE1EC2032034A69CD441B7127E9D923F Accuracy: -m0
Conclusion: CDDA 100%
Signature: 68D486F0EC7E18269B9FA9B45A91D089822729A0
FILE: 09. The Mantra ATSMM - Blue Army.flac
Size: 27094117 Hash: BF0AA919AC06384DB52F14FFB2697E8F Accuracy: -m0
Conclusion: CDDA 100%
Signature: 3AC661800B0E17BF83A718345A75D2383372E0D9
FILE: 08. Swan Sex - The First And Last In.flac
Size: 40771984 Hash: 3FE947C13B150E68C01D4936B8F21CD2 Accuracy: -m0
Conclusion: MPEG 95%
Signature: 289FCA2707CE09FD2242700DF0627EBF16EC08B0
FILE: 07. Jono El Grande - Neo Dada.flac
Size: 27192124 Hash: 6360186BC4AA6D823EFD9B20A5B4675B Accuracy: -m0
Conclusion: CDDA 100%
Signature: 2DCE6602020985843E44BD27D7E1462344E8F6B3
FILE: 06. Airbag - Homesick, Part 1.flac
Size: 36216697 Hash: 3DE7615A8DC0D70741BB037723066EFE Accuracy: -m0
Conclusion: CDDA 100%
Signature: A5F6263860BC8ACB7586D32C0FF2367AC2DCEE47
FILE: 05. Touchstone - Throw Them To The Sky.flac
Size: 38837310 Hash: 24DC4F7113B8AE60A27D1AA05D45D1D5 Accuracy: -m0
Conclusion: CDDA 100%
Signature: BD0AB78D0B6757DD8404ED7C32F0CD608AB3C7B7
FILE: 04. White Willow - Floor 67.flac
Size: 61841121 Hash: 8B88C9798D8D90B0CA961861977B6C32 Accuracy: -m0
Conclusion: CDDA 100%
Signature: 9F52B0972D2B310BC3FB06F9EFD5CC2BACE54E3F
FILE: 03. Warmrain - Absent Friends.flac
Size: 53775082 Hash: FABF4B085E46C619E7F74718DB26687F Accuracy: -m0
Conclusion: MPEG 95%
Signature: 7EC982F0EE058AFE935D83352C850EE4DA988E22
FILE: 02. Haken - Insomnia.flac
Size: 45654812 Hash: 40204AE406B5CA17C55B671A3256CFEC Accuracy: -m0
Conclusion: CDDA 99%
Signature: CD62F6249DC8137353DAF561B4C763FFC97FB57E
FILE: 01. Opeth - The Devil's Orchard.flac
Size: 41705423 Hash: 74037BFD3530E41DF6E7AC8809039AF2 Accuracy: -m0
Conclusion: CDDA 100%
Signature: 0E63616101920999D5296C5EF0354B6F85390AE9

Скриншот спектра частот

To download the file disable ad blocking, and reload the page.

disable adblock How to disable ad blocking?

Download by magnet link 471 MB Download Torrent

Login using:

Similar topics



   
Current time is: 23-Sep 16:44 :: All times are UTC ± 0