Various Artists - Classic Rock presents Prog: Prognosis 19
--Жанр: Progressive Rock
Носитель: CD
роизводитель диска: EU
Издатель (лейбл): Future
Год издания: 2011
Аудиокодек: FLAC (*.flac)
Тип рипа: tracks+.cue
Битрейт аудио: lossless
Продолжительность: 01:07:26
Источник: internet
Наличие сканов: да
Треклист:
01. Cosmograf - Into This World [00:11:14]
02. Presto Ballet - The Puzzle [00:07:49]
03. David R Black - Ezra [00:04:00]
04. Nosound - Lightdark (Live) [00:08:08]
05. Panic Room - Sandstorms [00:07:15]
06. Phaedra - Honeydewed Autumn [00:05:34]
07. Sendelica - Banshees And Fetches [00:12:20]
08. Cranium Pie - Rememberr [00:06:26]
09. John Wesley - Firelight [00:04:35]
-

Лог создания рипа

Exact Audio Copy V1.0 beta 3 from 29. August 2011
EAC extraction logfile from 15. May 2013, 21:46
Various Artists / Classic Rock presents Prog: Prognosis 19
Used drive : TSSTcorpCDDVDW SH-224BB Adapter: 1 ID: 0
Read mode : Secure
Utilize accurate stream : Yes
Defeat audio cache : Yes
Make use of C2 pointers : No
Read offset correction : 6
Overread into Lead-In and Lead-Out : No
Fill up missing offset samples with silence : Yes
Delete leading and trailing silent blocks : No
Null samples used in CRC calculations : Yes
Used interface : Native Win32 interface for Win NT & 2000
Gap handling : Appended to previous track
Used output format : User Defined Encoder
Selected bitrate : 896 kBit/s
Quality : High
Add ID3 tag : No
Command line compressor : C:\Program Files (x86)\FLAC\flac.exe
Additional command line options : -8 -V -T "artist=%artist%" -T "albumartist=%albumartist%" -T "album=%albumtitle%" -T "title=%title%" -T "year=%year%" -T "tracknumber=%tracknr2%" -T "genre=%genre%" %source% -o %dest%
TOC of the extracted CD
Track | Start | Length | Start sector | End sector
---------------------------------------------------------
1 | 0:00.00 | 11:14.06 | 0 | 50555
2 | 11:14.06 | 7:49.17 | 50556 | 85747
3 | 19:03.23 | 4:00.46 | 85748 | 103793
4 | 23:03.69 | 8:08.38 | 103794 | 140431
5 | 31:12.32 | 7:15.59 | 140432 | 173115
6 | 38:28.16 | 5:34.57 | 173116 | 198222
7 | 44:02.73 | 12:20.41 | 198223 | 253763
8 | 56:23.39 | 6:26.65 | 253764 | 282778
9 | 62:50.29 | 4:35.51 | 282779 | 303454
Track 1
Filename F:\My Documents\My Music\Albums (Complete)\01. Cosmograf - Into This World.wav
Pre-gap length 0:00:02.00
Peak level 98.8 %
Extraction speed 2.2 X
Track quality 100.0 %
Test CRC 41A2FA30
Copy CRC 41A2FA30
Track not present in AccurateRip database
Copy OK
Track 2
Filename F:\My Documents\My Music\Albums (Complete)\02. Presto Ballet - The Puzzle.wav
Pre-gap length 0:00:02.00
Peak level 98.8 %
Extraction speed 2.6 X
Track quality 100.0 %
Test CRC 07CDB44D
Copy CRC 07CDB44D
Track not present in AccurateRip database
Copy OK
Track 3
Filename F:\My Documents\My Music\Albums (Complete)\03. David R Black - Ezra.wav
Pre-gap length 0:00:02.00
Peak level 98.8 %
Extraction speed 2.6 X
Track quality 100.0 %
Test CRC AD31187F
Copy CRC AD31187F
Track not present in AccurateRip database
Copy OK
Track 4
Filename F:\My Documents\My Music\Albums (Complete)\04. Nosound - Lightdark (Live).wav
Pre-gap length 0:00:02.00
Peak level 94.5 %
Extraction speed 3.0 X
Track quality 100.0 %
Test CRC 7F8F1C33
Copy CRC 7F8F1C33
Track not present in AccurateRip database
Copy OK
Track 5
Filename F:\My Documents\My Music\Albums (Complete)\05. Panic Room - Sandstorms.wav
Pre-gap length 0:00:02.00
Peak level 99.7 %
Extraction speed 3.2 X
Track quality 100.0 %
Test CRC 458C9690
Copy CRC 458C9690
Track not present in AccurateRip database
Copy OK
Track 6
Filename F:\My Documents\My Music\Albums (Complete)\06. Phaedra - Honeydewed Autumn.wav
Pre-gap length 0:00:02.00
Peak level 98.8 %
Extraction speed 3.3 X
Track quality 100.0 %
Test CRC 6FDFD2A5
Copy CRC 6FDFD2A5
Track not present in AccurateRip database
Copy OK
Track 7
Filename F:\My Documents\My Music\Albums (Complete)\07. Sendelica - Banshees And Fetches.wav
Pre-gap length 0:00:02.00
Peak level 98.8 %
Extraction speed 3.7 X
Track quality 100.0 %
Test CRC 7914D38E
Copy CRC 7914D38E
Track not present in AccurateRip database
Copy OK
Track 8
Filename F:\My Documents\My Music\Albums (Complete)\08. Cranium Pie - Rememberr.wav
Pre-gap length 0:00:02.00
Peak level 98.8 %
Extraction speed 3.8 X
Track quality 100.0 %
Test CRC 778457E1
Copy CRC 778457E1
Track not present in AccurateRip database
Copy OK
Track 9
Filename F:\My Documents\My Music\Albums (Complete)\09. John Wesley - Firelight.wav
Pre-gap length 0:00:02.00
Peak level 98.8 %
Extraction speed 3.8 X
Track quality 100.0 %
Test CRC 65091704
Copy CRC 65091704
Track not present in AccurateRip database
Copy OK
None of the tracks are present in the AccurateRip database
No errors occurred
End of status report
==== Log checksum EF207DA95875698BB8E2DE2F750AEF9DDB98DF7DB0BED9322EE8783809C9FDB4 ====

Содержание индексной карты (.CUE)

REM GENRE "Progressive Rock"
REM DATE 2011
REM DISCID 810FCE09
REM COMMENT "ExactAudioCopy v1.0b3"
PERFORMER "Various Artists"
TITLE "Classic Rock presents Prog: Prognosis 19"
FILE "01. Cosmograf - Into This World.wav" WAVE
TRACK 01 AUDIO
TITLE "Into This World"
PERFORMER "Cosmograf"
INDEX 01 00:00:00
TRACK 02 AUDIO
TITLE "The Puzzle"
PERFORMER "Presto Ballet"
INDEX 00 11:12:06
FILE "02. Presto Ballet - The Puzzle.wav" WAVE
INDEX 01 00:00:00
TRACK 03 AUDIO
TITLE "Ezra"
PERFORMER "David R Black"
INDEX 00 07:47:17
FILE "03. David R Black - Ezra.wav" WAVE
INDEX 01 00:00:00
TRACK 04 AUDIO
TITLE "Lightdark (Live)"
PERFORMER "Nosound"
INDEX 00 03:58:46
FILE "04. Nosound - Lightdark (Live).wav" WAVE
INDEX 01 00:00:00
TRACK 05 AUDIO
TITLE "Sandstorms"
PERFORMER "Panic Room"
INDEX 00 08:06:38
FILE "05. Panic Room - Sandstorms.wav" WAVE
INDEX 01 00:00:00
TRACK 06 AUDIO
TITLE "Honeydewed Autumn"
PERFORMER "Phaedra"
INDEX 00 07:13:59
FILE "06. Phaedra - Honeydewed Autumn.wav" WAVE
INDEX 01 00:00:00
TRACK 07 AUDIO
TITLE "Banshees And Fetches"
PERFORMER "Sendelica"
INDEX 00 05:32:57
FILE "07. Sendelica - Banshees And Fetches.wav" WAVE
INDEX 01 00:00:00
TRACK 08 AUDIO
TITLE "Rememberr"
PERFORMER "Cranium Pie"
INDEX 00 12:18:41
FILE "08. Cranium Pie - Rememberr.wav" WAVE
INDEX 01 00:00:00
TRACK 09 AUDIO
TITLE "Firelight"
PERFORMER "John Wesley"
INDEX 00 06:24:65
FILE "09. John Wesley - Firelight.wav" WAVE
INDEX 01 00:00:00

Лог проверки качества

-----------------------
DON'T MODIFY THIS FILE
-----------------------
PERFORMER: auCDtect Task Manager, ver. 1.5.1RC6 build 1.5.1.7
Copyright (c) 2008-2010 y-soft. All rights reserved
http://y-soft.org
ANALYZER: auCDtect: CD records authenticity detector, version 0.8.2
Copyright (c) 2004 Oleg Berngardt. All rights reserved.
Copyright (c) 2004 Alexander Djourik. All rights reserved.
FILE: 09. John Wesley - Firelight.flac
Size: 31753440 Hash: BFF0D37721147341E15ACB4009D8A52E Accuracy: -m0
Conclusion: CDDA 100%
Signature: 240B4BE6A8F6321EAEBC417D21E8E6930CEAAB0F
FILE: 08. Cranium Pie - Rememberr.flac
Size: 38325831 Hash: 9DB7633F4C046D4DF46A92621AB3F011 Accuracy: -m0
Conclusion: MPEG 95%
Signature: 714E509E346761D5B075524E301B7F92B9DF2A7C
FILE: 07. Sendelica - Banshees And Fetches.flac
Size: 79530719 Hash: 43EF2EAE9CAA43EC5E3F52085AE03696 Accuracy: -m0
Conclusion: MPEG 95%
Signature: 0289CC6F4E7A469610F162AA3FBAB286479E71D6
FILE: 06. Phaedra - Honeydewed Autumn.flac
Size: 27805389 Hash: B17E816096226317B94DE02D29EDBDCB Accuracy: -m0
Conclusion: CDDA 99%
Signature: 69BB8D2770005542768452BE8DCD5AC7EA1C4B28
FILE: 05. Panic Room - Sandstorms.flac
Size: 50866368 Hash: 815BF9E21B89775193698C3A48148C61 Accuracy: -m0
Conclusion: CDDA 100%
Signature: 21B2B9725164005A03457F710D6CF3EBBCA6279C
FILE: 04. Nosound - Lightdark (Live).flac
Size: 43446276 Hash: 7D2C1F1311FC36A7D8A416D96D99BF0E Accuracy: -m0
Conclusion: MPEG 95%
Signature: F7048C7465F35A3E340F3990BAAAE17F85223338
FILE: 03. David R Black - Ezra.flac
Size: 27906081 Hash: E465E3DFADE79354402045C807EE0B02 Accuracy: -m0
Conclusion: CDDA 100%
Signature: B3C835BC94B2102D45A3D9BD0FF63922354E0276
FILE: 02. Presto Ballet - The Puzzle.flac
Size: 53792073 Hash: F3D1138B598894C3CBB4552DF39AB487 Accuracy: -m0
Conclusion: CDDA 100%
Signature: 6B88E5B53462B9FDAF0AE6D38457E5237C6B74A7
FILE: 01. Cosmograf - Into This World.flac
Size: 70379040 Hash: 82F1642F69562836857763380CC2253E Accuracy: -m0
Conclusion: CDDA 100%
Signature: 6C2D7A9CC7C674D4BC0006C5FBEB40D66CEFF472

Скриншот спектра частот

To download the file disable ad blocking, and reload the page.

disable adblock How to disable ad blocking?

Download by magnet link 406 MB Download Torrent

Login using:

Similar topics



   
Current time is: 18-Sep 17:18 :: All times are UTC ± 0