Various Artists - Classic Rock presents Prog: Prognosis 7
--Жанр: Progressive Rock
Носитель: CD
производитель диска: EU
Год издания: 2010
Издатель (лейбл): Future
Аудиокодек: FLAC (*.flac)
Тип рипа: tracks+.cue
Битрейт аудио: lossless
Продолжительность: 01:01:18
Источник: internet
Наличие сканов: да
Треклист:
01. Mandalaband - Eden [00:04:41]
02. Mother Black Cap - Child Of Our Time [00:06:58]
03. Touchstone - Joker In The Pack [00:06:11]
04. Syzygy - Darkfield [00:10:37]
05. Elephant9 - Hardcore Orientale [00:04:31]
06. EastStrikeWest - The Architect [00:06:34]
07. Solstice - Here And Now [00:06:58]
08. Karnataka - The Serpent And The Sea (Edit) [00:08:26]
09. Manir Donaghue - Angelus [00:06:18]

-

Лог создания рипа

Exact Audio Copy V1.0 beta 3 from 29. August 2011
EAC extraction logfile from 11. May 2013, 21:33
Various Artists / Classic Rock presents Prog: Prognosis 7
Used drive : TSSTcorpCDDVDW SH-224BB Adapter: 1 ID: 0
Read mode : Secure
Utilize accurate stream : Yes
Defeat audio cache : Yes
Make use of C2 pointers : No
Read offset correction : 6
Overread into Lead-In and Lead-Out : No
Fill up missing offset samples with silence : Yes
Delete leading and trailing silent blocks : No
Null samples used in CRC calculations : Yes
Used interface : Native Win32 interface for Win NT & 2000
Gap handling : Appended to previous track
Used output format : User Defined Encoder
Selected bitrate : 896 kBit/s
Quality : High
Add ID3 tag : No
Command line compressor : C:\Program Files (x86)\FLAC\flac.exe
Additional command line options : -8 -V -T "artist=%artist%" -T "albumartist=%albumartist%" -T "album=%albumtitle%" -T "title=%title%" -T "year=%year%" -T "tracknumber=%tracknr2%" -T "genre=%genre%" %source% -o %dest%
TOC of the extracted CD
Track | Start | Length | Start sector | End sector
---------------------------------------------------------
1 | 0:00.00 | 4:41.35 | 0 | 21109
2 | 4:41.35 | 6:58.56 | 21110 | 52515
3 | 11:40.16 | 6:11.33 | 52516 | 80373
4 | 17:51.49 | 10:37.25 | 80374 | 128173
5 | 28:28.74 | 4:31.33 | 128174 | 148531
6 | 33:00.32 | 6:34.18 | 148532 | 178099
7 | 39:34.50 | 6:58.37 | 178100 | 209486
8 | 46:33.12 | 8:26.39 | 209487 | 247475
9 | 54:59.51 | 6:18.63 | 247476 | 275888
Track 1
Filename F:\My Documents\My Music\Albums (Complete)\01. Mandalaband - Eden.wav
Pre-gap length 0:00:02.00
Peak level 97.7 %
Extraction speed 1.7 X
Track quality 100.0 %
Test CRC 71C6771A
Copy CRC 71C6771A
Accurately ripped (confidence 3) [DF429AB3] (AR v1)
Copy OK
Track 2
Filename F:\My Documents\My Music\Albums (Complete)\02. Mother Black Cap - Child Of Our Time.wav
Pre-gap length 0:00:02.00
Peak level 97.7 %
Extraction speed 2.1 X
Track quality 100.0 %
Test CRC 40703E6D
Copy CRC 40703E6D
Accurately ripped (confidence 2) [906ABBA2] (AR v1)
Copy OK
Track 3
Filename F:\My Documents\My Music\Albums (Complete)\03. Touchstone - Joker In The Pack.wav
Pre-gap length 0:00:02.00
Peak level 97.7 %
Extraction speed 2.3 X
Track quality 100.0 %
Test CRC D0DDE4BC
Copy CRC D0DDE4BC
Accurately ripped (confidence 3) [446EBA2D] (AR v1)
Copy OK
Track 4
Filename F:\My Documents\My Music\Albums (Complete)\04. Syzygy - Darkfield.wav
Pre-gap length 0:00:02.00
Peak level 94.6 %
Extraction speed 2.7 X
Track quality 100.0 %
Test CRC 7DC9EE92
Copy CRC 7DC9EE92
Accurately ripped (confidence 3) [3AE4161F] (AR v1)
Copy OK
Track 5
Filename F:\My Documents\My Music\Albums (Complete)\05. Elephant9 - Hardcore Orientale.wav
Pre-gap length 0:00:02.00
Peak level 98.9 %
Extraction speed 2.7 X
Track quality 100.0 %
Test CRC F737ECE0
Copy CRC F737ECE0
Accurately ripped (confidence 3) [3C873D80] (AR v1)
Copy OK
Track 6
Filename F:\My Documents\My Music\Albums (Complete)\06. EastStrikeWest - The Architect.wav
Pre-gap length 0:00:02.00
Peak level 97.7 %
Extraction speed 2.9 X
Track quality 100.0 %
Test CRC 37B9436C
Copy CRC 37B9436C
Accurately ripped (confidence 3) [6FC7DEEE] (AR v1)
Copy OK
Track 7
Filename F:\My Documents\My Music\Albums (Complete)\07. Solstice - Here And Now.wav
Pre-gap length 0:00:02.00
Peak level 97.7 %
Extraction speed 3.1 X
Track quality 100.0 %
Test CRC 86D1DDD0
Copy CRC 86D1DDD0
Accurately ripped (confidence 3) [621B77E7] (AR v1)
Copy OK
Track 8
Filename F:\My Documents\My Music\Albums (Complete)\08. Karnataka - The Serpent And The Sea (Edit).wav
Pre-gap length 0:00:02.00
Peak level 97.7 %
Extraction speed 3.5 X
Track quality 100.0 %
Test CRC 0E9E0F06
Copy CRC 0E9E0F06
Accurately ripped (confidence 3) [9CEC848A] (AR v1)
Copy OK
Track 9
Filename F:\My Documents\My Music\Albums (Complete)\09. Manir Donaghue - Angelus.wav
Pre-gap length 0:00:02.00
Peak level 92.9 %
Extraction speed 2.9 X
Track quality 99.9 %
Test CRC 0CB2A5E6
Copy CRC 0CB2A5E6
Accurately ripped (confidence 3) [BA18BAAD] (AR v1)
Copy OK
All tracks accurately ripped
No errors occurred
End of status report
==== Log checksum F8EE810B888DD7BE15160796DA4B0037D05644B411DECCC488A53A0CDDCECDF6 ====

Содержание индексной карты (.CUE)

REM GENRE "Progressive Rock"
REM DATE 2010
REM DISCID 700E5E09
REM COMMENT "ExactAudioCopy v1.0b3"
PERFORMER "Various Artists"
TITLE "Classic Rock presents Prog: Prognosis 7"
FILE "01. Mandalaband - Eden.wav" WAVE
TRACK 01 AUDIO
TITLE "Eden"
PERFORMER "Mandalaband"
INDEX 01 00:00:00
TRACK 02 AUDIO
TITLE "Child Of Our Time"
PERFORMER "Mother Black Cap"
INDEX 00 04:39:35
FILE "02. Mother Black Cap - Child Of Our Time.wav" WAVE
INDEX 01 00:00:00
TRACK 03 AUDIO
TITLE "Joker In The Pack"
PERFORMER "Touchstone"
INDEX 00 06:56:56
FILE "03. Touchstone - Joker In The Pack.wav" WAVE
INDEX 01 00:00:00
TRACK 04 AUDIO
TITLE "Darkfield"
PERFORMER "Syzygy"
INDEX 00 06:09:33
FILE "04. Syzygy - Darkfield.wav" WAVE
INDEX 01 00:00:00
TRACK 05 AUDIO
TITLE "Hardcore Orientale"
PERFORMER "Elephant9"
INDEX 00 10:35:25
FILE "05. Elephant9 - Hardcore Orientale.wav" WAVE
INDEX 01 00:00:00
TRACK 06 AUDIO
TITLE "The Architect"
PERFORMER "EastStrikeWest"
INDEX 00 04:29:33
FILE "06. EastStrikeWest - The Architect.wav" WAVE
INDEX 01 00:00:00
TRACK 07 AUDIO
TITLE "Here And Now"
PERFORMER "Solstice"
INDEX 00 06:32:18
FILE "07. Solstice - Here And Now.wav" WAVE
INDEX 01 00:00:00
TRACK 08 AUDIO
TITLE "The Serpent And The Sea (Edit)"
PERFORMER "Karnataka"
INDEX 00 06:56:37
FILE "08. Karnataka - The Serpent And The Sea (Edit).wav" WAVE
INDEX 01 00:00:00
TRACK 09 AUDIO
TITLE "Angelus"
PERFORMER "Manir Donaghue"
INDEX 00 08:24:39
FILE "09. Manir Donaghue - Angelus.wav" WAVE
INDEX 01 00:00:00

Лог проверки качества

-----------------------
DON'T MODIFY THIS FILE
-----------------------
PERFORMER: auCDtect Task Manager, ver. 1.5.1RC6 build 1.5.1.7
Copyright (c) 2008-2010 y-soft. All rights reserved
http://y-soft.org
ANALYZER: auCDtect: CD records authenticity detector, version 0.8.2
Copyright (c) 2004 Oleg Berngardt. All rights reserved.
Copyright (c) 2004 Alexander Djourik. All rights reserved.
FILE: 09. Manir Donaghue - Angelus.flac
Size: 43694679 Hash: E630F80DEE1A76B4110773510F67519A Accuracy: -m0
Conclusion: CDDA 100%
Signature: 9CBCC862AEBF62C8243C88B173FB796DF9F1D371
FILE: 08. Karnataka - The Serpent And The Sea (Edit).flac
Size: 65757172 Hash: C8C80583FB308250891B04E4B59B58AF Accuracy: -m0
Conclusion: MPEG 73%
Signature: 19B10156E9CA60DF672EAC44BFAFB943C1C51F41
FILE: 07. Solstice - Here And Now.flac
Size: 47566655 Hash: D429AD27F67E2B66C81791A25E8F67D8 Accuracy: -m0
Conclusion: CDDA 100%
Signature: 240CB910F4E89E8B6CA3E3875D29C109E90211FF
FILE: 06. EastStrikeWest - The Architect.flac
Size: 47088865 Hash: 4C8F2EAF01FE942C8B9211959F6F51E3 Accuracy: -m0
Conclusion: MPEG 95%
Signature: 18A8B054B57599C552091549F58C6512EEBA8E3E
FILE: 05. Elephant9 - Hardcore Orientale.flac
Size: 33314168 Hash: A4B914F688D23AC8A92A5606FC521798 Accuracy: -m0
Conclusion: CDDA 100%
Signature: 31472E64975BFF1CA3EA158E4F2CCE5822A84D2E
FILE: 04. Syzygy - Darkfield.flac
Size: 73379265 Hash: 0064D04330CB8567912321F9F771244D Accuracy: -m0
Conclusion: CDDA 100%
Signature: 1081055BEE810F96ED5405FCD8D8C52A8F5AD1F9
FILE: 03. Touchstone - Joker In The Pack.flac
Size: 46205007 Hash: F6E162D8778AD087A86B2870233A0531 Accuracy: -m0
Conclusion: CDDA 99%
Signature: 9EA527EE7F5CAA7DFEF56F74750AFFFBAC31D75C
FILE: 02. Mother Black Cap - Child Of Our Time.flac
Size: 42671190 Hash: CE3FED2CDAA40EFB7B877C0BAC30C1F7 Accuracy: -m0
Conclusion: CDDA 100%
Signature: BF02943C73E1DFE11921F7F405FDB738DE7911A4
FILE: 01. Mandalaband - Eden.flac
Size: 29194321 Hash: 935EA8F364D98496E3A1AD3A1056B51C Accuracy: -m0
Conclusion: CDDA 100%
Signature: 1F69BB0950F4B0E19FEB8C0DC5A898EE7CA31B1C

Скриншот спектра частот

To download the file disable ad blocking, and reload the page.

disable adblock How to disable ad blocking?

Download by magnet link 411 MB Download Torrent

Login using:

Загрузка...

Similar topics

(Progressive / Jazz Rock) Shob - Karma Obscur - 2017, MP3, 320 kbps
 145 MB   0 | 0   14-May-17 14:25   6


   
Current time is: 16-Dec 07:00 :: All times are UTC + 3