Various Artists - Classic Rock presents Prog: Prognosis 6
--Жанр: Progressive Rock
Носитель: CD
производитель диска: EU
Год издания: 2010
Издатель (лейбл): Future
Аудиокодек: FLAC (*.flac)
Тип рипа: tracks+.cue
Битрейт аудио: lossless
Продолжительность: 01:08:07
Источник: internet
Наличие сканов : да
Треклист:
01. The Merlin Bird - Rhyme To Reason [00:04:50]
02. Steven Wilson - Harmony Korine [00:05:08]
03. Steve Thorne - Granite Man [00:06:11]
04. The Tangent - Paroxetine (20mg) [00:04:54]
05. DeeExpus - Greed [00:07:42]
06. Simon Davies - Lux Aeterna [00:03:49]
07. Lime Shark - Not Quite Nashville [00:03:52]
08. Times Up - Snow Queen [00:08:01]
09. The Brimstone Solar Radiation Band - Strings To The Bow [00:03:48]
10. Lee Abraham - The Mirror [00:08:26]
11. Jupiter Society - Rescue And Resurrection [00:09:56]
12. The Merlin Bird - Reason To Rhyme [00:01:27]

-

Лог создания рипа

Exact Audio Copy V1.0 beta 3 from 29. August 2011
EAC extraction logfile from 11. May 2013, 20:35
Various Artists / Classic Rock presents Prog: Prognosis 6
Used drive : TSSTcorpCDDVDW SH-224BB Adapter: 1 ID: 0
Read mode : Secure
Utilize accurate stream : Yes
Defeat audio cache : Yes
Make use of C2 pointers : No
Read offset correction : 6
Overread into Lead-In and Lead-Out : No
Fill up missing offset samples with silence : Yes
Delete leading and trailing silent blocks : No
Null samples used in CRC calculations : Yes
Used interface : Native Win32 interface for Win NT & 2000
Gap handling : Appended to previous track
Used output format : User Defined Encoder
Selected bitrate : 896 kBit/s
Quality : High
Add ID3 tag : No
Command line compressor : C:\Program Files (x86)\FLAC\flac.exe
Additional command line options : -8 -V -T "artist=%artist%" -T "albumartist=%albumartist%" -T "album=%albumtitle%" -T "title=%title%" -T "year=%year%" -T "tracknumber=%tracknr2%" -T "genre=%genre%" %source% -o %dest%
TOC of the extracted CD
Track | Start | Length | Start sector | End sector
---------------------------------------------------------
1 | 0:00.00 | 4:50.03 | 0 | 21752
2 | 4:50.03 | 5:08.23 | 21753 | 44875
3 | 9:58.26 | 6:11.08 | 44876 | 72708
4 | 16:09.34 | 4:54.47 | 72709 | 94805
5 | 21:04.06 | 7:42.00 | 94806 | 129455
6 | 28:46.06 | 3:49.38 | 129456 | 146668
7 | 32:35.44 | 3:52.41 | 146669 | 164109
8 | 36:28.10 | 8:01.55 | 164110 | 200239
9 | 44:29.65 | 3:48.00 | 200240 | 217339
10 | 48:17.65 | 8:26.00 | 217340 | 255289
11 | 56:43.65 | 9:56.14 | 255290 | 300003
12 | 66:40.04 | 1:27.11 | 300004 | 306539
Track 1
Filename F:\My Documents\My Music\Albums (Complete)\01. The Merlin Bird - Rhyme To Reason.wav
Pre-gap length 0:00:02.00
Peak level 98.8 %
Extraction speed 1.9 X
Track quality 100.0 %
Test CRC 7169524A
Copy CRC 7169524A
Accurately ripped (confidence 1) [931B9F42] (AR v1)
Copy OK
Track 2
Filename F:\My Documents\My Music\Albums (Complete)\02. Steven Wilson - Harmony Korine.wav
Pre-gap length 0:00:02.00
Peak level 99.9 %
Extraction speed 2.1 X
Track quality 100.0 %
Test CRC D668D788
Copy CRC D668D788
Accurately ripped (confidence 1) [A2E30EB1] (AR v1)
Copy OK
Track 3
Filename F:\My Documents\My Music\Albums (Complete)\03. Steve Thorne - Granite Man.wav
Pre-gap length 0:00:02.00
Peak level 99.6 %
Extraction speed 2.4 X
Track quality 100.0 %
Test CRC BC04E534
Copy CRC BC04E534
Accurately ripped (confidence 1) [15B591BD] (AR v1)
Copy OK
Track 4
Filename F:\My Documents\My Music\Albums (Complete)\04. The Tangent - Paroxetine (20mg).wav
Pre-gap length 0:00:02.00
Peak level 97.7 %
Extraction speed 2.6 X
Track quality 100.0 %
Test CRC CDACEE5C
Copy CRC CDACEE5C
Accurately ripped (confidence 1) [E8ED7CAC] (AR v1)
Copy OK
Track 5
Filename F:\My Documents\My Music\Albums (Complete)\05. DeeExpus - Greed.wav
Pre-gap length 0:00:02.00
Peak level 98.8 %
Extraction speed 2.9 X
Track quality 100.0 %
Test CRC 2805B941
Copy CRC 2805B941
Accurately ripped (confidence 1) [7465CDA4] (AR v1)
Copy OK
Track 6
Filename F:\My Documents\My Music\Albums (Complete)\06. Simon Davies - Lux Aeterna.wav
Pre-gap length 0:00:02.00
Peak level 95.5 %
Extraction speed 2.8 X
Track quality 100.0 %
Test CRC F50F0181
Copy CRC F50F0181
Accurately ripped (confidence 1) [9E7C3570] (AR v1)
Copy OK
Track 7
Filename F:\My Documents\My Music\Albums (Complete)\07. Lime Shark - Not Quite Nashville.wav
Pre-gap length 0:00:02.00
Peak level 100.0 %
Extraction speed 3.0 X
Track quality 100.0 %
Test CRC A04CC9C4
Copy CRC A04CC9C4
Accurately ripped (confidence 1) [D31259D5] (AR v1)
Copy OK
Track 8
Filename F:\My Documents\My Music\Albums (Complete)\08. Times Up - Snow Queen.wav
Pre-gap length 0:00:02.00
Peak level 98.8 %
Extraction speed 2.9 X
Track quality 99.9 %
Test CRC A29D0F9E
Copy CRC A29D0F9E
Accurately ripped (confidence 1) [4C6BA58D] (AR v1)
Copy OK
Track 9
Filename F:\My Documents\My Music\Albums (Complete)\09. The Brimstone Solar Radiation Band - Strings To The Bow.wav
Pre-gap length 0:00:02.00
Peak level 100.0 %
Extraction speed 3.3 X
Track quality 100.0 %
Test CRC 8BD5AC16
Copy CRC 8BD5AC16
Accurately ripped (confidence 1) [52E7F9F3] (AR v1)
Copy OK
Track 10
Filename F:\My Documents\My Music\Albums (Complete)\10. Lee Abraham - The Mirror.wav
Pre-gap length 0:00:02.00
Peak level 99.9 %
Extraction speed 3.7 X
Track quality 100.0 %
Test CRC EC784217
Copy CRC EC784217
Accurately ripped (confidence 1) [C4EB8B11] (AR v1)
Copy OK
Track 11
Filename F:\My Documents\My Music\Albums (Complete)\11. Jupiter Society - Rescue And Resurrection.wav
Pre-gap length 0:00:02.00
Peak level 98.8 %
Extraction speed 4.0 X
Track quality 100.0 %
Test CRC 968BD846
Copy CRC 968BD846
Accurately ripped (confidence 1) [57D6575C] (AR v1)
Copy OK
Track 12
Filename F:\My Documents\My Music\Albums (Complete)\12. The Merlin Bird - Reason To Rhyme.wav
Pre-gap length 0:00:02.00
Peak level 92.6 %
Extraction speed 2.9 X
Track quality 100.0 %
Test CRC 503C1B1B
Copy CRC 503C1B1B
Accurately ripped (confidence 1) [FBB00B27] (AR v1)
Copy OK
All tracks accurately ripped
No errors occurred
End of status report
==== Log checksum E33B55EE6738976F981D22D1710F30C3EAD7DB7A8FB3F18F5B81AA65617CE147 ====

Содержание индексной карты (.CUE)

REM GENRE "Progressive Rock"
REM DATE 2010
REM DISCID A70FF70C
REM COMMENT "ExactAudioCopy v1.0b3"
PERFORMER "Various Artists"
TITLE "Classic Rock presents Prog: Prognosis 6"
FILE "01. The Merlin Bird - Rhyme To Reason.wav" WAVE
TRACK 01 AUDIO
TITLE "Rhyme To Reason"
PERFORMER "The Merlin Bird"
INDEX 01 00:00:00
TRACK 02 AUDIO
TITLE "Harmony Korine"
PERFORMER "Steven Wilson"
INDEX 00 04:48:03
FILE "02. Steven Wilson - Harmony Korine.wav" WAVE
INDEX 01 00:00:00
TRACK 03 AUDIO
TITLE "Granite Man"
PERFORMER "Steve Thorne"
INDEX 00 05:06:23
FILE "03. Steve Thorne - Granite Man.wav" WAVE
INDEX 01 00:00:00
TRACK 04 AUDIO
TITLE "Paroxetine (20mg)"
PERFORMER "The Tangent"
INDEX 00 06:09:08
FILE "04. The Tangent - Paroxetine (20mg).wav" WAVE
INDEX 01 00:00:00
TRACK 05 AUDIO
TITLE "Greed"
PERFORMER "DeeExpus"
INDEX 00 04:52:47
FILE "05. DeeExpus - Greed.wav" WAVE
INDEX 01 00:00:00
TRACK 06 AUDIO
TITLE "Lux Aeterna"
PERFORMER "Simon Davies"
INDEX 00 07:40:00
FILE "06. Simon Davies - Lux Aeterna.wav" WAVE
INDEX 01 00:00:00
TRACK 07 AUDIO
TITLE "Not Quite Nashville"
PERFORMER "Lime Shark"
INDEX 00 03:47:38
FILE "07. Lime Shark - Not Quite Nashville.wav" WAVE
INDEX 01 00:00:00
TRACK 08 AUDIO
TITLE "Snow Queen"
PERFORMER "Times Up"
INDEX 00 03:50:41
FILE "08. Times Up - Snow Queen.wav" WAVE
INDEX 01 00:00:00
TRACK 09 AUDIO
TITLE "Strings To The Bow"
PERFORMER "The Brimstone Solar Radiation Band"
INDEX 00 07:59:55
FILE "09. The Brimstone Solar Radiation Band - Strings To The Bow.wav" WAVE
INDEX 01 00:00:00
TRACK 10 AUDIO
TITLE "The Mirror"
PERFORMER "Lee Abraham"
INDEX 00 03:46:00
FILE "10. Lee Abraham - The Mirror.wav" WAVE
INDEX 01 00:00:00
TRACK 11 AUDIO
TITLE "Rescue And Resurrection"
PERFORMER "Jupiter Society"
INDEX 00 08:24:00
FILE "11. Jupiter Society - Rescue And Resurrection.wav" WAVE
INDEX 01 00:00:00
INDEX 02 00:16:00
TRACK 12 AUDIO
TITLE "Reason To Rhyme"
PERFORMER "The Merlin Bird"
INDEX 00 09:54:14
FILE "12. The Merlin Bird - Reason To Rhyme.wav" WAVE
INDEX 01 00:00:00

Лог проверки качества

-----------------------
DON'T MODIFY THIS FILE
-----------------------
PERFORMER: auCDtect Task Manager, ver. 1.5.1RC6 build 1.5.1.7
Copyright (c) 2008-2010 y-soft. All rights reserved
http://y-soft.org
ANALYZER: auCDtect: CD records authenticity detector, version 0.8.2
Copyright (c) 2004 Oleg Berngardt. All rights reserved.
Copyright (c) 2004 Alexander Djourik. All rights reserved.
FILE: 12. The Merlin Bird - Reason To Rhyme.flac
Size: 9509796 Hash: 82FA689F67A347896BCDB704B14325C6 Accuracy: -m0
Conclusion: CDDA 99%
Signature: A5D12BC4CD2590773B1E9039149EB8DC8E274AF2
FILE: 11. Jupiter Society - Rescue And Resurrection.flac
Size: 71365542 Hash: D5799B1D0D3CD1DF58747BF946A79116 Accuracy: -m0
Conclusion: CDDA 100%
Signature: 70ECDF1EBF0CF457646ADB5B0E80CD86471B0B8C
FILE: 10. Lee Abraham - The Mirror.flac
Size: 61912219 Hash: F11508CEB7927BBA3EA2303365B27C77 Accuracy: -m0
Conclusion: CDDA 100%
Signature: 7658180F9EC3276DB7E01F8D0F61E842258E4533
FILE: 09. The Brimstone Solar Radiation Band - Strings To The Bow.flac
Size: 25862319 Hash: 637D14A58E435CEBBEEC68A8E99465DA Accuracy: -m0
Conclusion: CDDA 100%
Signature: 42171AAF351F374EA7C662DB05243FBBE34B6A66
FILE: 08. Times Up - Snow Queen.flac
Size: 55765175 Hash: B7B611C5C78409247615083FF79DEDD0 Accuracy: -m0
Conclusion: CDDA 100%
Signature: 198F3F5EAE2DC46623408A557500A501B0340AA9
FILE: 07. Lime Shark - Not Quite Nashville.flac
Size: 28807846 Hash: 365FE9F0E0ADFE0EA7DA683499F4D9DA Accuracy: -m0
Conclusion: CDDA 100%
Signature: 615E2202BB966713D375C1C8A5F1B69637BEF4F6
FILE: 06. Simon Davies - Lux Aeterna.flac
Size: 26958142 Hash: 6B316765866F1917E12B97C05787F75B Accuracy: -m0
Conclusion: MPEG 95%
Signature: 655240F89866891C5E91B150FAEBEFE01CFB3104
FILE: 05. DeeExpus - Greed.flac
Size: 55192643 Hash: C5669040D141E71031C6B1AB741E8F7B Accuracy: -m0
Conclusion: CDDA 100%
Signature: 8CF88824250AD8939CF86C90CCA3A1A71E2C19F9
FILE: 04. The Tangent - Paroxetine (20mg).flac
Size: 37600789 Hash: EF451713EEE04C97BA2A68258D4D6D46 Accuracy: -m0
Conclusion: CDDA 100%
Signature: DF019E9BF27990D3915E889A379784571560EC0A
FILE: 03. Steve Thorne - Granite Man.flac
Size: 45955172 Hash: 33D21DD5B1BADD44C87AEAEECE2C5E5E Accuracy: -m0
Conclusion: CDDA 100%
Signature: 7863BC95A21AB2EC10569B976AEBEA91A1A4479A
FILE: 02. Steven Wilson - Harmony Korine.flac
Size: 35035065 Hash: E591B6C3A4C7CDD9A81D1C3C29127F95 Accuracy: -m0
Conclusion: CDDA 100%
Signature: FD93C23C903DB9724A3E83E4FFD0B257512F36B7
FILE: 01. The Merlin Bird - Rhyme To Reason.flac
Size: 36462690 Hash: AB9066E137EC411055AC4AC19BE459D4 Accuracy: -m0
Conclusion: CDDA 100%
Signature: 75396057E18C6FD339013065DCFA14489883FE2E

Скриншот спектра частот

To download the file disable ad blocking, and reload the page.

disable adblock How to disable ad blocking?

Download by magnet link 470 MB Download Torrent

Login using:

Similar topics



   
Current time is: 18-Sep 17:08 :: All times are UTC ± 0